#VERSION:0.83;
#TITLE:Majesty;
#SUBTITLE:;
#ARTIST:Apashe ft. Wasiu;
#TITLETRANSLIT:;
#SUBTITLETRANSLIT:;
#ARTISTTRANSLIT:;
#GENRE:;
#ORIGIN:;
#CREDIT:;
#BANNER:Majesty.png;
#BACKGROUND:Majesty-bg.png;
#PREVIEWVID:;
#JACKET:Majesty-jacket.png;
#CDIMAGE:;
#DISCIMAGE:;
#LYRICSPATH:;
#CDTITLE:;
#MUSIC:Majesty.ogg;
#OFFSET:-0.060000;
#SAMPLESTART:72.048042;
#SAMPLELENGTH:15.000002;
#SELECTABLE:YES;
#BPMS:0.000=160.000;
#STOPS:;
#DELAYS:;
#WARPS:;
#TIMESIGNATURES:0.000=4=4;
#TICKCOUNTS:0.000=4;
#COMBOS:0.000=1;
#SPEEDS:0.000=1.000=0.000=0,
128.000=0.500=0.800=1,
130.000=1.500=0.050=1,
130.250=1.000=0.050=1,
130.500=1.500=0.050=1,
130.750=1.000=0.050=1,
131.000=1.500=0.050=1,
131.250=1.000=0.050=1,
131.500=1.500=0.050=1,
131.750=1.000=0.050=1,
132.000=1.500=0.050=1,
132.250=1.000=0.050=1,
132.500=1.500=0.050=1,
132.750=1.000=0.050=1,
133.000=1.500=0.050=1,
133.250=1.000=0.050=1,
133.500=1.500=0.050=1,
133.750=1.000=0.050=1,
134.000=1.500=0.050=1,
134.250=1.000=0.050=1,
134.500=1.500=0.050=1,
134.750=1.000=0.050=1,
135.000=1.500=0.050=1,
135.250=1.000=0.050=1,
135.500=1.500=0.050=1,
136.000=0.500=0.800=1,
138.000=1.500=0.050=1,
138.250=1.000=0.050=1,
138.500=1.500=0.050=1,
138.750=1.000=0.050=1,
139.000=1.500=0.050=1,
139.250=1.000=0.050=1,
139.500=1.500=0.050=1,
139.750=1.000=0.050=1,
140.000=1.500=0.050=1,
140.250=1.000=0.050=1,
140.500=1.500=0.050=1,
140.750=1.000=0.050=1,
141.000=1.500=0.050=1,
141.250=1.000=0.050=1,
141.500=1.500=0.050=1,
141.750=1.000=0.050=1,
142.000=1.500=0.050=1,
142.250=1.000=0.050=1,
142.500=1.500=0.050=1,
142.750=1.000=0.050=1,
143.000=1.500=0.050=1,
143.250=1.000=0.050=1,
143.500=1.500=0.050=1,
144.000=0.500=0.800=1,
146.000=1.500=0.050=1,
146.250=1.000=0.050=1,
146.500=1.500=0.050=1,
146.750=1.000=0.050=1,
147.000=1.500=0.050=1,
147.250=1.000=0.050=1,
147.500=1.500=0.050=1,
147.750=1.000=0.050=1,
148.000=1.500=0.050=1,
148.250=1.000=0.050=1,
148.500=1.500=0.050=1,
148.750=1.000=0.050=1,
149.000=1.500=0.050=1,
149.250=1.000=0.050=1,
149.500=1.500=0.050=1,
149.750=1.000=0.050=1,
150.000=1.500=0.050=1,
150.250=1.000=0.050=1,
150.500=1.500=0.050=1,
150.750=1.000=0.050=1,
151.000=1.500=0.050=1,
151.250=1.000=0.050=1,
151.500=1.500=0.050=1,
152.000=0.500=0.800=1,
154.000=1.500=0.050=1,
154.250=1.000=0.050=1,
154.500=1.500=0.050=1,
154.750=1.000=0.050=1,
155.000=1.500=0.050=1,
155.250=1.000=0.050=1,
155.500=1.500=0.050=1,
155.750=1.000=0.050=1,
156.000=1.500=0.050=1,
156.250=1.000=0.050=1,
156.500=1.500=0.050=1,
156.750=1.000=0.050=1,
157.000=1.500=0.050=1,
157.250=1.000=0.050=1,
157.500=1.500=0.050=1,
157.750=1.000=0.050=1,
158.000=1.500=0.050=1,
158.250=1.000=0.050=1,
158.500=1.500=0.050=1,
158.750=1.000=0.050=1,
159.000=1.500=0.050=1,
159.250=1.000=0.050=1,
159.500=1.500=0.050=1,
160.000=0.500=0.800=1,
162.000=1.500=0.800=1,
164.000=0.500=0.800=1,
166.000=1.000=0.800=1,
168.000=0.500=0.800=1,
170.000=1.500=0.800=1,
172.000=0.500=0.800=1,
174.000=1.000=0.800=1,
193.500=0.500=0.200=1,
194.000=1.000=0.200=1,
194.500=0.500=0.200=1,
195.000=1.000=0.200=1,
195.500=0.500=0.200=1,
196.000=1.000=0.200=1,
196.500=0.500=0.200=1,
197.000=1.000=0.200=1,
197.500=0.500=0.200=1,
198.000=1.000=0.200=1,
201.500=2.000=0.200=1,
202.000=1.000=0.200=1,
202.500=2.000=0.200=1,
203.000=1.000=0.200=1,
203.500=2.000=0.200=1,
204.000=1.000=0.200=1,
204.500=2.000=0.200=1,
205.000=1.000=0.200=1,
205.500=2.000=0.200=1,
206.000=1.000=0.200=1,
209.500=0.500=0.200=1,
210.000=1.000=0.200=1,
210.500=0.500=0.200=1,
211.000=1.000=0.200=1,
211.500=0.500=0.200=1,
212.000=1.000=0.200=1,
212.500=0.500=0.200=1,
213.000=1.000=0.200=1,
213.500=0.500=0.200=1,
214.000=1.000=0.200=1,
217.500=2.000=0.200=1,
218.000=1.000=0.200=1,
218.500=2.000=0.200=1,
219.000=1.000=0.200=1,
219.500=2.000=0.200=1,
220.000=1.000=0.200=1,
220.500=2.000=0.200=1,
221.000=1.000=0.200=1,
221.500=2.000=0.200=1,
222.000=1.000=0.200=1,
225.500=0.500=0.200=1,
226.000=1.000=0.200=1,
226.500=0.500=0.200=1,
227.000=1.000=0.200=1,
227.500=0.500=0.200=1,
228.000=1.000=0.200=1,
228.500=0.500=0.200=1,
229.000=1.000=0.200=1,
229.500=0.500=0.200=1,
230.000=1.000=0.200=1,
233.500=2.000=0.200=1,
234.000=1.000=0.200=1,
234.500=2.000=0.200=1,
235.000=1.000=0.200=1,
235.500=2.000=0.200=1,
236.000=1.000=0.200=1,
236.500=2.000=0.200=1,
237.000=1.000=0.200=1,
237.500=2.000=0.200=1,
238.000=1.000=0.200=1;
#SCROLLS:0.000=0.500,
48.000=0.600,
50.000=0.700,
52.000=0.800,
54.000=0.900,
56.000=1.000,
124.000=0.800,
124.500=0.700,
125.000=0.600,
125.500=0.500,
126.000=0.400,
126.500=0.200,
127.000=0.100,
127.500=0.050,
128.000=0.200,
174.000=0.400,
174.500=0.600,
175.000=0.800,
175.500=1.000,
334.000=0.900,
336.000=0.800,
338.000=0.700,
340.000=0.600,
342.000=0.500;
#FAKES:;
#LABELS:0.000=Song Start;
#BGCHANGES:;
#KEYSOUNDS:;
#ATTACKS: TIME=96.63:LEN=1.00:MODS=*1.1 dizzy: TIME=99.63:LEN=1.00:MODS=*1.1 dizzy: TIME=102.63:LEN=1.00:MODS=*1.1 dizzy: TIME=105.63:LEN=1.00:MODS=*1.1 dizzy: TIME=108.63:LEN=1.00:MODS=*1.1 dizzy: TIME=111.63:LEN=1.00:MODS=*1.1 dizzy;

//---------------dance-single - ----------------
#NOTEDATA:;
#CHARTNAME:;
#STEPSTYPE:dance-single;
#DESCRIPTION:;
#CHARTSTYLE:;
#DIFFICULTY:Hard;
#METER:16;
#RADARVALUES:0.692344,1.115419,0.298240,0.238592,0.574113,650.000000,610.000000,40.000000,32.000000,0.000000,0.000000,1.000000,0.000000,0.000000,0.692344,1.115419,0.298240,0.238592,0.574113,650.000000,610.000000,40.000000,32.000000,0.000000,0.000000,1.000000,0.000000,0.000000;
#CREDIT:S.Kyoufu;
#ATTACKS:TIME=96.629997:LEN=1.000000:MODS=*1.1 dizzy:TIME=99.629997:LEN=1.000000:MODS=*1.1 dizzy:TIME=102.629997:LEN=1.000000:MODS=*1.1 dizzy:TIME=105.629997:LEN=1.000000:MODS=*1.1 dizzy:TIME=108.629997:LEN=1.000000:MODS=*1.1 dizzy:TIME=111.629997:LEN=1.000000:MODS=*1.1 dizzy:TIME=96.63:LEN=1.00:MODS=*1.1 dizzy:TIME=99.63:LEN=1.00:MODS=*1.1 dizzy:TIME=102.63:LEN=1.00:MODS=*1.1 dizzy:TIME=105.63:LEN=1.00:MODS=*1.1 dizzy:TIME=108.63:LEN=1.00:MODS=*1.1 dizzy:TIME=111.63:LEN=1.00:MODS=*1.1 dizzy;
#NOTES:
0000
0000
0000
0000
,
0000
0000
0000
0000
,
0000
0000
0000
0000
,
0000
0000
0000
0000
,
0000
0000
0000
0000
,
0000
0000
0000
0000
,
0000
0000
0000
0000
,
0000
0000
0000
0000
,
2000
3000
0020
0030
,
0200
0300
0002
0003
,
0020
0030
0200
0300
,
2000
3000
0200
0300
,
2000
3000
0002
0003
,
0200
0300
0020
0030
,
0200
0300
0020
0030
,
2000
3000
0002
0003
,
1001
0001
0100
0100
0010
1000
0100
0100
,
0010
0001
1000
1000
0010
0100
0001
0001
,
0010
0100
1000
1000
0010
0100
0010
0010
,
0100
0001
0010
0010
0001
0100
0010
0010
,
1000
0100
0010
0010
0001
1000
0100
0100
,
1000
0010
0100
0100
0001
0010
0100
0100
,
1000
0010
1000
1000
0001
0010
0001
0001
,
0100
0010
0100
0100
0010
1000
0010
0010
,
1000
0100
0010
0010
0001
1000
0001
0001
,
0100
0010
1000
1000
0100
0010
0001
0001
,
0010
0100
0010
0010
0001
0100
0010
0010
,
0100
0010
0100
0100
0010
1000
0100
0100
,
0010
0001
1000
1000
0010
0100
0001
0001
,
0010
0100
0001
0001
0100
1000
0010
0010
,
0001
0010
1000
1000
0100
0010
0001
0001
,
2000
0000
0001
0000
,
3001
0000
0000
0000
0001
0100
0010
1000
,
0001
0100
0010
1000
0001
0100
0010
1000
,
0002
0000
0000
0003
0001
0010
0100
1000
,
0001
0010
0100
1000
0001
0010
0100
1000
,
0020
0000
0000
0030
0010
1000
0100
0010
,
0001
0100
0010
1000
0100
0010
0001
0100
,
0002
0000
0000
0003
0100
1000
0100
0001
,
0010
1000
0010
0001
0100
1000
0100
0001
,
0020
0000
0000
0000
0031
0010
0001
0010
,
0100
1000
0100
1000
0010
0100
0010
0100
,
0002
0000
0000
0000
1003
0010
1000
0010
,
0100
0001
0100
0001
0010
0100
0010
0100
,
2000
0000
0100
3001
,
0002
0000
0010
1003
,
0010
0100
0010
0100
0001
1000
0001
1000
0100
0010
0100
0010
0001
0010
0001
0010
,
0100
1000
0100
1000
0010
0100
0010
0100
0001
0100
0001
0100
0010
1000
0010
1000
,
1001
0000
0000
0000
1001
0000
0000
0000
0001
0100
0001
0000
1000
0100
1000
0000
,
0001
0010
0001
0000
1000
0010
1000
0000
0010
0100
0010
0000
0100
0000
0001
0000
,
0101
0000
0000
0000
1010
0000
0000
0000
1000
0100
0010
0000
0001
0100
0010
0000
,
1000
0100
0010
0000
0001
0100
0010
0000
1000
0100
0010
0000
0001
0000
1000
0000
,
1001
0000
0000
0000
0110
0000
0000
0000
0010
0100
0001
0000
0010
0100
1000
0000
,
0010
0100
0001
0000
0010
0100
1000
0000
0010
0100
0001
0000
0010
0000
0100
0000
,
1010
0000
0000
0000
0101
0000
0000
0000
0001
0100
0001
0000
1000
0100
1000
0000
,
0001
0010
0001
0000
1000
0010
1000
0000
0001
0100
0001
0000
1000
0000
0010
0000
,
1001
0000
0000
0000
1001
0000
0000
0000
1000
0100
0010
0000
0001
0010
0100
0000
,
1000
0100
0010
0000
0001
0010
0100
0000
1000
0010
0100
0000
0001
0000
0100
0000
,
0110
0000
0000
0000
0101
0000
0000
0000
0001
1000
0001
0000
0001
1000
0001
0000
,
0001
0010
0001
0000
0001
0100
0001
0000
0001
1000
0001
0000
0001
0000
0100
0000
,
0110
0010
0100
0011
0010
0100
1100
0010
,
0101
0100
0010
1010
1000
0100
0011
0010
,
0100
1000
0100
0010
0100
1000
0010
0100
0001
0100
0010
0100
0001
0100
0010
1000
,
0001
1000
0100
0010
0001
1000
0100
0010
0001
0010
0100
1000
0001
0100
0001
0100
,
0110
0000
0000
0101
0000
0000
1010
0010
0100
0001
1000
0100
,
0010
0001
0010
0100
1000
0010
0100
0001
0010
0100
1000
0010
,
0101
0000
0000
1001
0000
0000
1100
1000
0010
0100
0001
0010
,
1000
0010
0001
0100
0010
1000
0100
0010
0001
1000
0001
0100
,
0101
0000
0000
1010
0000
0000
1001
0001
0010
1000
0010
0001
,
0100
1000
0100
0001
0010
0100
1000
0001
0100
0010
1000
0010
,
0110
0000
0000
0101
0000
0000
0011
0010
0100
1000
0001
0010
,
0100
1000
0001
1000
0010
0100
0010
0100
0001
1000
0100
1000
,
1001
0000
0000
0011
0000
0000
0101
0100
0010
0100
1000
0100
,
0001
0010
1000
0010
0001
0100
0010
0100
0001
1000
0100
0010
,
0100
0100
0100
1000
1000
1000
0001
0100
1000
0001
0010
1000
,
0001
0010
1000
0010
0001
0100
0010
1000
0010
0100
0001
0010
,
1100
1000
0010
0110
0100
0001
0011
0010
,
0011
0001
0100
0110
0100
0001
0011
0100
,
1000
0100
0010
0001
0100
0010
1000
0010
0100
0001
1000
0001
0010
0100
1000
0001
,
0010
0100
0010
0001
1000
0010
0100
0001
0100
0010
1000
0010
0100
0001
1000
0001
,
0010
0000
0000
0100
1000
0000
0000
0010
,
0100
0000
0000
0100
0001
0000
0000
0001
,
1000
0000
0000
1000
0100
0000
0000
0010
,
0001
0000
0000
0000
2000
3000
0000
0000
,
0002
0003
0000
0000
0200
0300
0000
0000
,
0020
0030
0000
0000
2000
3000
0000
0000
,
0200
0300
0000
0000
0020
0030
0000
0000
,
0002
0000
4000
0000
,
3003
0000
0000
0000
;

//---------------dance-single - ----------------
#NOTEDATA:;
#CHARTNAME:;
#STEPSTYPE:dance-single;
#DESCRIPTION:;
#CHARTSTYLE:;
#DIFFICULTY:Challenge;
#METER:18;
#RADARVALUES:0.893656,1.574709,0.753057,0.260960,1.058753,839.000000,724.000000,101.000000,35.000000,120.000000,13.000000,2.000000,0.000000,0.000000,0.893656,1.574709,0.753057,0.260960,1.058753,839.000000,724.000000,101.000000,35.000000,120.000000,13.000000,2.000000,0.000000,0.000000;
#CREDIT:S.Kyoufu;
#ATTACKS:TIME=96.629997:LEN=1.000000:MODS=*1.1 dizzy:TIME=99.629997:LEN=1.000000:MODS=*1.1 dizzy:TIME=102.629997:LEN=1.000000:MODS=*1.1 dizzy:TIME=105.629997:LEN=1.000000:MODS=*1.1 dizzy:TIME=108.629997:LEN=1.000000:MODS=*1.1 dizzy:TIME=111.629997:LEN=1.000000:MODS=*1.1 dizzy:TIME=96.63:LEN=1.00:MODS=*1.1 dizzy:TIME=99.63:LEN=1.00:MODS=*1.1 dizzy:TIME=102.63:LEN=1.00:MODS=*1.1 dizzy:TIME=105.63:LEN=1.00:MODS=*1.1 dizzy:TIME=108.63:LEN=1.00:MODS=*1.1 dizzy:TIME=111.63:LEN=1.00:MODS=*1.1 dizzy:TIME=96.63:LEN=1.00:MODS=*1.1 dizzy:TIME=99.63:LEN=1.00:MODS=*1.1 dizzy:TIME=102.63:LEN=1.00:MODS=*1.1 dizzy:TIME=105.63:LEN=1.00:MODS=*1.1 dizzy:TIME=108.63:LEN=1.00:MODS=*1.1 dizzy:TIME=111.63:LEN=1.00:MODS=*1.1 dizzy;
#NOTES:
0000
0000
0000
0000
,
0000
0000
0000
0000
,
0000
0000
0000
0000
,
0000
0000
0000
0001
,
2000
3001
0100
0000
,
0100
0000
0100
0100
,
0002
1003
0100
0000
,
0100
0000
0100
0100
,
2000
3010
0100
0000
,
0100
0000
0100
0100
,
0002
0013
0100
0000
,
0100
0000
0100
0100
,
2000
3010
0100
0000
,
0100
0000
0100
0100
,
0002
1003
0100
0000
,
0100
0000
0100
0000
,
1001
0001
0100
0010
1010
0100
0001
0010
,
1100
0010
0001
0100
1010
0001
0010
0100
,
1001
0100
0010
1000
0011
0100
1000
0001
,
0110
0100
0001
0010
1100
1000
0010
0100
,
0011
0001
0100
0010
1001
1000
0100
0010
,
1100
0010
0001
0100
0110
1000
0001
0100
,
0011
0010
0100
1000
1001
0010
0100
0010
,
1001
0100
0010
0100
1010
0100
0001
0010
,
0101
0010
1000
0001
0110
0100
1000
0001
,
0101
0100
0010
1000
1001
1000
0100
0010
,
0110
0100
1000
0001
0011
0100
0010
1000
,
1001
0100
0010
1000
0011
0100
0001
0010
,
1100
0010
0001
0100
0110
1000
0001
1000
,
0110
0001
1000
0001
1001
0010
0100
0010
,
1001
0100
0010
0100
0101
1000
0010
0100
,
1001
1000
0100
0010
1100
0100
0010
0001
,
2000
0000
0000
3000
1000
1000
1000
1000
,
1000
1000
1000
1000
1000
1000
1000
1000
,
0020
0000
0000
0030
0010
0010
0010
0010
,
0010
0010
0010
0010
0010
0010
0010
0010
,
0200
0000
0000
0300
0100
0100
0100
0100
,
0100
0100
0100
0100
0100
0100
0100
0100
,
0002
0000
0000
0003
0001
0001
0001
0001
,
0001
0001
0001
0001
0001
0001
0001
0001
,
2000
0000
0000
0000
0100
0100
0100
0100
,
0010
0010
0010
0010
0001
0001
0001
3001
,
0002
0000
0000
0000
0010
0010
0010
0010
,
1000
1000
1000
1000
0100
0100
0100
0103
,
0202
0300
0000
0000
0100
0000
1003
0000
,
2200
0300
0000
0000
0001
0000
3010
0000
,
0010
1000
0010
0100
0001
1000
0100
0010
0001
0100
0010
1000
0100
1000
0010
0100
,
0001
0010
1000
0010
0001
0100
1000
0100
0001
1000
0001
0010
0100
1000
0010
0100
,
0111
0000
0000
0000
0000
0000
0000
0000
0111
0000
0000
0000
0000
0000
0000
0000
0001
0100
0010
1000
0000
0000
MMMM
0000
0001
0100
0010
1000
0000
0000
MMMM
0000
,
0001
0100
0010
1000
0000
0000
MMMM
0000
0001
0100
0010
1000
0000
0000
MMMM
0000
0001
0100
0010
1000
0000
0000
MMMM
0000
0101
0000
0000
0000
0110
0000
0000
0000
,
1110
0000
0000
0000
0000
0000
0000
0000
1110
0000
0000
0000
0000
0000
0000
0000
1000
0100
0010
0001
0000
0000
MMMM
0000
1000
0100
0010
0001
0000
0000
MMMM
0000
,
1000
0100
0010
0001
0000
0000
MMMM
0000
1000
0100
0010
0001
0000
0000
MMMM
0000
1000
0100
0010
0001
0000
0000
MMMM
0000
0011
0000
0000
0000
1001
0000
0000
0000
,
1011
0000
0000
0000
0000
0000
0000
0000
1011
0000
0000
0000
0000
0000
0000
0000
0010
0100
0001
0010
0000
0000
MMMM
0000
0100
1000
0010
0100
0000
0000
MMMM
0000
,
0100
0001
0010
0001
0000
0000
MMMM
0000
0010
0100
1000
0001
0000
0000
MMMM
0000
0001
1000
0010
0100
0000
0000
MMMM
0000
0110
0000
0000
0000
1001
0000
0000
0000
,
1101
0000
0000
0000
0000
0000
0000
0000
1101
0000
0000
0000
0000
0000
0000
0000
0001
0100
0001
0100
0000
0000
MMMM
0000
0010
1000
0010
1000
0000
0000
MMMM
0000
,
1000
0100
1000
0100
0000
0000
MMMM
0000
0010
0001
0010
0001
0000
0000
MMMM
0000
0001
1000
0001
1000
0000
0000
MMMM
0000
1001
0000
0000
0000
0110
0000
0000
0000
,
1111
0000
0000
0000
0000
0000
0000
0000
1111
0000
0000
0000
0000
0000
0000
0000
1000
0100
0010
0001
0000
0000
MMMM
0000
0001
0010
0100
1000
0000
0000
MMMM
0000
,
1000
0010
0100
0010
0000
0000
MMMM
0000
0010
0100
0010
0100
0000
0000
MMMM
0000
0100
0001
0010
0100
0000
0000
MMMM
0000
1100
0000
0000
0000
0011
0000
0000
0000
,
1011
0000
0000
0000
0000
0000
0000
0000
1011
0000
0000
0000
0000
0000
0000
0000
0001
1000
0010
1000
0000
0000
MMMM
0000
0001
0010
0001
1000
0000
0000
MMMM
0000
,
1000
0100
1000
0001
0000
0000
MMMM
0000
0001
0100
0001
0100
0000
0000
MMMM
0000
0100
0010
1000
0001
0000
0000
MMMM
0000
1000
0000
0000
0000
0010
0000
0000
0000
,
1000
0010
1000
0000
0010
0000
0100
0001
0100
0000
0001
0000
0010
0000
0100
0000
,
1000
0001
1000
0000
0010
0000
0100
0010
1000
0000
0100
0000
0010
0000
0001
0000
,
1000
0010
1000
0100
0010
0100
1000
0001
0010
0100
0010
0001
1000
0010
0100
0001
,
0010
0100
1000
0001
1000
0001
0100
0010
0100
0010
1000
0001
0010
0100
1000
0001
,
1000
0010
1000
0010
0100
0001
1000
0100
0010
0001
1000
0001
0101
0000
0001
0000
0001
0000
0100
0000
0100
0000
0100
0000
,
0010
0000
0010
0000
0010
0000
1000
0000
1000
0000
1000
0000
0100
0000
0100
0000
0100
0000
0110
0000
0000
0011
0000
0000
,
0001
0010
0100
1000
0001
0100
0010
0100
0001
1000
0100
0010
0011
0000
0010
0000
0010
0000
1010
0000
0010
0000
0010
0000
,
0011
0000
0001
0000
0001
0000
0101
0000
0100
0000
0100
0000
0110
0000
0010
0000
0010
0000
1010
0000
0000
1001
0000
0000
,
0001
0010
0100
1000
0001
1000
0001
1000
0010
0100
0010
0100
0101
0000
0100
0000
1000
0000
1100
0000
0100
0000
0001
0000
,
0011
0000
0010
0000
1000
0000
1010
0000
0010
0000
0001
0000
0101
0000
0010
0000
0100
0000
0001
0000
0000
0101
0000
0000
,
1000
0010
0100
0010
1000
0001
1000
0010
0100
0001
1000
0100
0011
0000
0011
0000
0011
0000
0101
0000
0101
0000
0101
0000
,
0110
0000
0110
0000
0110
0000
1010
0000
1010
0000
1010
0000
1001
0000
1001
0000
1001
0000
0011
0000
0000
0110
0000
0000
,
1000
0100
0010
0001
1000
0001
0100
0010
1000
0010
0100
0001
0101
0000
0100
0000
0001
0000
0011
0000
0100
0000
1000
0000
,
1010
0000
0100
0000
0001
0000
0011
0000
0001
0000
1000
0000
0110
0000
0100
0000
0001
0000
0110
0000
0000
1100
0000
0000
,
0001
0010
0100
1000
0001
0100
0010
1000
0010
0100
0001
1000
0001
0000
0010
0000
1000
0000
0010
0000
0001
0000
0100
0000
,
1000
0000
0100
0000
0001
0000
0010
0000
0100
0000
1000
0000
0001
0000
0100
0000
0010
0000
0100
0000
0000
0010
0000
0000
,
1000
0010
1000
0000
0001
0000
0010
0100
0010
0000
0100
0000
1000
0000
0001
0000
,
0100
0001
0100
0000
0010
0000
1000
0100
0010
0000
0001
0000
0100
0000
0010
0000
,
0100
0001
0010
0100
1000
0001
0100
0010
1000
0010
0100
0001
1000
0100
0010
0001
,
1000
0001
0100
0001
0100
0010
1000
0010
0100
1000
0100
0001
0010
0100
1000
0010
,
0200
0000
0000
0300
0000
0000
0100
0000
0002
0000
0000
0000
0003
0000
0001
0000
,
0020
0000
0030
0100
2000
0000
3000
0010
,
0200
0000
0300
0001
0020
0000
0030
0100
,
2000
0000
3000
0000
0020
0030
0000
0000
,
0200
0300
0000
0000
0002
0003
0000
0000
,
2000
3000
0000
0000
0220
0330
0000
0000
,
2002
3003
0000
0000
0202
0303
0000
0000
,
2002
0000
0440
0000
,
3333
0000
0000
0000
;

//---------------dance-single - ----------------
#NOTEDATA:;
#CHARTNAME:;
#STEPSTYPE:dance-single;
#DESCRIPTION:;
#CHARTSTYLE:;
#DIFFICULTY:Medium;
#METER:13;
#RADARVALUES:0.456947,0.619781,0.320608,0.424993,0.134208,429.000000,386.000000,43.000000,57.000000,0.000000,0.000000,0.000000,0.000000,0.000000,0.456947,0.619781,0.320608,0.424993,0.134208,429.000000,386.000000,43.000000,57.000000,0.000000,0.000000,0.000000,0.000000,0.000000;
#CREDIT:S.Kyoufu;
#NOTES:
0000
0000
0000
0000
,
0000
0000
0000
0000
,
0000
0000
0000
0000
,
0000
0000
0000
0000
,
0000
0000
0000
0000
,
0000
0000
0000
0000
,
0000
0000
0000
0000
,
0000
0000
0000
0000
,
2000
3000
2000
3000
,
2000
0000
3000
0000
2000
0000
3000
1000
,
0002
0003
0002
0003
,
0002
0000
0003
0000
0002
0000
0003
0001
,
0020
0030
0020
0030
,
0020
0000
0030
0000
0020
0000
0030
0010
,
0200
0300
0200
0300
,
0200
0000
0300
0000
0200
0000
0300
0100
,
1000
0010
0100
0000
0001
0010
0100
0000
,
1000
0010
0100
0000
0001
0010
0100
0000
,
1000
0100
0010
0000
0001
0010
0100
0000
,
1000
0100
0010
0000
0001
0010
0100
0000
,
1000
0010
1000
0000
0001
0100
0001
0000
,
1000
0010
1000
0000
0001
0100
0001
0000
,
1000
0010
0100
0000
0100
0010
1000
0000
,
1000
0100
0010
0000
0010
0100
1000
0000
,
0001
0010
0100
0000
0100
0010
0001
0000
,
0001
0100
0010
0000
0010
0100
0001
0000
,
0001
0100
0010
0000
0010
1000
0001
0000
,
0001
0010
0100
0000
1000
0010
0100
0000
,
0010
0100
0001
0000
1000
0001
0010
0000
,
0010
0001
1000
0000
0010
0100
0010
0000
,
1000
0001
1000
0000
0100
0010
0001
0000
,
1001
0000
0000
0000
,
0002
0003
0002
0003
,
0002
0003
0002
0003
,
2000
3000
2000
3000
,
2000
3000
2000
3000
,
0020
0030
0020
0030
,
0020
0030
0020
0030
,
0200
0300
0200
0300
,
0200
0300
0200
0300
,
0002
0000
0010
0000
,
0100
0000
0010
0000
,
2003
0000
0010
0000
,
0100
0000
0010
0000
,
3020
0030
0200
0301
,
0022
0033
0020
0130
,
2200
0000
3300
0000
0220
0330
0022
0033
,
2002
0000
3003
0000
0220
0000
0000
0330
,
0110
0000
0101
0000
0001
0010
0100
1000
,
0001
0010
0100
1000
0001
0010
0100
1000
,
1001
0000
1001
0000
0001
0100
0010
1000
,
0001
0100
0010
1000
0001
0100
0010
0100
,
0110
0000
0110
0000
0010
1000
0010
1000
,
0001
0100
0001
0100
0010
1000
0010
1000
,
1001
0000
0011
0000
0001
0010
0001
0010
,
0100
1000
0100
1000
0001
0010
0001
0010
,
0011
0000
1100
0000
0010
0100
0001
0100
,
0010
1000
0010
0100
0001
0010
0001
1000
,
1100
0000
0110
0000
0001
0010
0100
1000
,
0100
0010
0001
0010
0100
1000
0100
0010
,
0011
0000
0000
0101
0000
0000
0110
0000
,
1010
0000
0000
1001
0000
0000
0011
0000
,
0010
0100
1000
0100
0010
0001
0100
0010
,
0100
0001
0010
0100
1000
0001
0100
0010
,
0110
0000
0000
0101
0000
0100
0001
0000
0001
0010
0000
0010
,
0100
0000
0000
0000
0100
0000
0010
0000
0000
0000
0010
0000
0001
0000
0000
0000
0001
0000
0100
0000
0000
0010
0000
0000
,
0110
0000
0000
1010
0000
1000
0010
0000
0010
0100
0000
0100
,
0010
0000
0000
0000
0010
0000
0100
0000
0000
0000
0100
0000
0001
0000
0000
0000
0001
0000
0010
0000
0000
0100
0000
0000
,
1100
0000
0000
0011
0000
0001
1000
0000
1000
0001
0000
0001
,
1000
0000
0000
0000
1000
0000
0010
0000
0000
0000
0010
0000
1000
0000
0000
0000
1000
0000
0001
0000
0000
0010
0000
0000
,
0011
0000
0000
0101
0000
0001
0100
0000
0010
1000
0000
0001
,
0100
0000
0000
0000
0010
0000
1000
0000
0000
0000
1000
0000
0100
0000
0000
0000
0010
0000
0001
0000
0000
1000
0000
0000
,
1001
0000
0000
0101
0000
0001
0100
0000
0100
0001
0000
1000
,
0001
0000
0000
0000
0010
0000
0001
0000
0000
0000
0010
0000
0100
0000
0000
0000
1000
0000
0100
0000
0000
0010
0000
0000
,
0110
0000
0000
1100
0000
1000
0001
0000
0001
0100
0000
0010
,
1000
0000
0000
0000
0100
0000
1000
0000
0000
0000
0010
0000
0100
0000
0000
0000
0001
0000
0010
0000
0000
0100
0000
0000
,
1100
0000
0000
0110
0000
0000
0011
0000
,
0101
0000
0000
0110
0000
0000
0101
0000
,
0001
0100
0001
1000
0001
0010
0100
1000
,
0100
1000
0010
0100
0010
0100
0001
1000
,
0100
0000
0000
0100
0100
0000
0000
1000
,
1000
0000
0000
0010
0010
0000
0000
0100
,
0100
0000
0000
0001
0001
0000
0000
1000
,
1000
0000
0000
0000
0200
0300
0000
0000
,
0020
0030
0000
0000
0002
0003
0000
0000
,
2000
3000
0000
0000
0020
0030
0000
0000
,
0200
0300
0000
0000
0020
0030
0000
0000
,
2000
0000
3001
0000
;

//---------------dance-single - ----------------
#NOTEDATA:;
#CHARTNAME:;
#STEPSTYPE:dance-single;
#DESCRIPTION:;
#CHARTSTYLE:;
#DIFFICULTY:Easy;
#METER:8;
#RADARVALUES:0.238592,0.489301,0.238592,0.313152,0.000000,224.000000,192.000000,32.000000,42.000000,0.000000,0.000000,0.000000,0.000000,0.000000,0.238592,0.489301,0.238592,0.313152,0.000000,224.000000,192.000000,32.000000,42.000000,0.000000,0.000000,0.000000,0.000000,0.000000;
#CREDIT:S.Kyoufu;
#NOTES:
0000
0000
0000
0000
,
0000
0000
0000
0000
,
0000
0000
0000
0000
,
0000
0000
0000
0000
,
0000
0000
0000
0000
,
0000
0000
0000
0000
,
0000
0000
0000
0000
,
0000
0000
0000
0010
,
0010
0010
0000
0000
,
0000
0000
0000
1000
,
1000
1000
0000
0000
,
0000
0000
0000
0010
,
0010
0010
0000
0000
,
0000
0000
0000
0100
,
0100
0100
0000
0000
,
0000
0000
0000
0000
,
1001
0000
0100
0000
,
0001
0000
0010
0000
,
0100
0000
0010
0000
,
0001
0000
0100
0000
,
0010
0000
0100
0000
,
0001
0000
1000
0000
,
0100
0000
1000
0000
,
0010
0000
0100
0000
,
0010
0000
1000
0000
,
0100
0000
0010
0000
,
0100
0000
1000
0000
,
0010
0000
0100
0000
,
0001
0000
0100
0000
,
0010
0000
1000
0000
,
0100
0000
0010
0000
,
1001
0000
0000
0000
,
0020
0000
0100
0000
,
0100
0000
0130
0000
,
0002
0000
1000
0000
,
1000
0000
1003
0000
,
0200
0000
0010
0000
,
0010
0000
0310
0000
,
0002
0000
0100
0000
,
0100
0000
0103
0000
,
0002
0003
0200
0300
,
0020
0030
2000
3000
,
2000
3000
0200
0300
,
0020
0030
0002
0003
,
2000
0000
3010
0100
,
0002
0000
0013
0100
,
2000
0000
0000
0000
,
0002
0000
0000
3003
,
0001
0100
0101
0101
,
0101
0101
0101
0001
,
1000
1000
1100
1100
,
1100
1100
1100
1000
,
0010
0010
0110
0110
,
0110
0110
0110
0100
,
0001
0001
1001
1001
,
1001
1001
1001
1000
,
0010
0010
0011
0011
,
0011
0011
0011
0001
,
0100
0100
0110
0110
,
0110
0110
0110
0100
,
0001
0000
0000
0001
0000
0000
0001
0000
,
1000
0000
0000
1000
0000
0000
1000
0000
,
0010
0000
0000
0010
0000
0000
0010
0000
,
0100
0000
0000
0100
0010
0000
0000
0000
,
0001
0001
0002
0003
,
0200
0300
0020
0030
,
1000
1000
2000
3000
,
0200
0300
0020
0030
,
0001
0001
0002
0003
,
0020
0030
0002
0003
,
0010
0010
0020
0030
,
0200
0300
2000
3000
,
0100
0100
0200
0300
,
2000
3000
0020
0030
,
1000
1000
2000
3000
,
0020
0030
0200
0300
,
0010
0000
0000
0010
0000
0000
0010
0000
,
0100
0000
0000
0100
0000
0000
0100
0000
,
0001
0000
0000
0001
0000
0000
0001
0000
,
1000
0000
0000
1000
0100
0000
0000
0000
,
0010
0000
0001
0000
,
1000
0000
0010
0000
,
0100
0000
0010
0000
,
1000
0000
0200
0300
,
0200
0300
2000
3000
,
2000
3000
0002
0003
,
0002
0003
0200
0300
,
0020
0000
0030
0000
;

//---------------dance-single - ----------------
#NOTEDATA:;
#CHARTNAME:;
#STEPSTYPE:dance-single;
#DESCRIPTION:;
#CHARTSTYLE:;
#DIFFICULTY:Beginner;
#METER:5;
#RADARVALUES:0.125687,0.295258,0.126752,0.164032,0.000000,118.000000,101.000000,17.000000,22.000000,0.000000,0.000000,0.000000,0.000000,0.000000,0.125687,0.295258,0.126752,0.164032,0.000000,118.000000,101.000000,17.000000,22.000000,0.000000,0.000000,0.000000,0.000000,0.000000;
#CREDIT:S.Kyoufu;
#NOTES:
// measure 0
0000
0000
0000
0000
,  // measure 1
0000
0000
0000
0000
,  // measure 2
0000
0000
0000
0000
,  // measure 3
0000
0000
0000
0000
,  // measure 4
0000
0000
0000
0000
,  // measure 5
0000
0000
0000
0000
,  // measure 6
0000
0000
0000
0000
,  // measure 7
0000
0000
0000
0000
,  // measure 8
0000
0000
0000
0000
,  // measure 9
0000
0000
0000
0000
,  // measure 10
0000
0000
0000
0000
,  // measure 11
0000
0000
0000
0000
,  // measure 12
0000
0000
0000
0000
,  // measure 13
0000
0000
0000
0000
,  // measure 14
0000
0000
0000
0000
,  // measure 15
0000
0000
0000
0000
,  // measure 16
0001
0000
0000
0000
,  // measure 17
0001
0000
0000
0000
,  // measure 18
1000
0000
0000
0000
,  // measure 19
1000
0000
0000
0000
,  // measure 20
0010
0000
0000
0000
,  // measure 21
0010
0000
0000
0000
,  // measure 22
0100
0000
0000
0000
,  // measure 23
0100
0000
0000
0000
,  // measure 24
0010
0000
0000
0000
,  // measure 25
1000
0000
0000
0000
,  // measure 26
0010
0000
0000
0000
,  // measure 27
1000
0000
0000
0000
,  // measure 28
0001
0000
0000
0000
,  // measure 29
0100
0000
0000
0000
,  // measure 30
0001
0000
0000
0000
,  // measure 31
0100
0000
0000
0000
,  // measure 32
0002
0000
0000
0000
,  // measure 33
0000
0000
0000
0003
,  // measure 34
2000
0000
0000
0000
,  // measure 35
0000
0000
0000
3000
,  // measure 36
0200
0000
0000
0000
,  // measure 37
0000
0000
0000
0300
,  // measure 38
0020
0000
0000
0000
,  // measure 39
0000
0000
0000
0030
,  // measure 40
0002
0000
0000
0000
,  // measure 41
0000
0000
0000
0003
,  // measure 42
2000
0000
0000
0000
,  // measure 43
0000
0000
0000
3000
,  // measure 44
0002
0000
0000
0003
,  // measure 45
0200
0000
0000
0300
,  // measure 46
0220
0000
0000
0330
,  // measure 47
2002
0000
0000
3003
,  // measure 48
1001
0000
0100
0100
,  // measure 49
0100
0100
0100
0000
,  // measure 50
1001
0000
0010
0010
,  // measure 51
0010
0010
0010
0000
,  // measure 52
1001
0000
1000
1000
,  // measure 53
1000
1000
1000
0000
,  // measure 54
1001
0000
0001
0001
,  // measure 55
0001
0001
0001
0000
,  // measure 56
0110
0000
0010
0010
,  // measure 57
0010
0010
0010
0000
,  // measure 58
0110
0000
0100
0100
,  // measure 59
0100
0100
0100
0000
,  // measure 60
0010
0000
0000
0000
,  // measure 61
0100
0000
0000
0000
,  // measure 62
2002
0000
0000
0000
,  // measure 63
0000
0000
0000
3003
,  // measure 64
1001
0000
0100
0000
,  // measure 65
0100
0000
0100
0000
,  // measure 66
1001
0000
0010
0000
,  // measure 67
0010
0000
0010
0000
,  // measure 68
1001
0000
1000
0000
,  // measure 69
1000
0000
1000
0000
,  // measure 70
1001
0000
0001
0000
,  // measure 71
0001
0000
0001
0000
,  // measure 72
0110
0000
0010
0000
,  // measure 73
0010
0000
0010
0000
,  // measure 74
0110
0000
0100
0000
,  // measure 75
0100
0000
0100
0000
,  // measure 76
0001
0000
0000
0000
,  // measure 77
1000
0000
0000
0000
,  // measure 78
0220
0000
0000
0000
,  // measure 79
0000
0000
0000
0330
,  // measure 80
0100
0000
0000
0000
,  // measure 81
0100
0000
0000
0000
,  // measure 82
0010
0000
0000
0000
,  // measure 83
0010
0000
2000
3000
,  // measure 84
0000
0000
0002
0003
,  // measure 85
0000
0000
0020
0030
,  // measure 86
0000
0000
0200
0300
,  // measure 87
0000
0000
2002
0000
,  // measure 88
3003
0000
0000
0000
;
