#VERSION:0.83;
#TITLE:Kill Bill;
#SUBTITLE:(Safe Edit);
#ARTIST:SZA;
#TITLETRANSLIT:;
#SUBTITLETRANSLIT:;
#ARTISTTRANSLIT:;
#GENRE:;
#ORIGIN:;
#CREDIT:;
#BANNER:Kill Bill (Safe Edit).png;
#BACKGROUND:Kill Bill (Safe Edit)-bg.png;
#PREVIEWVID:;
#JACKET:Kill Bill (Safe Edit)-jacket.png;
#CDIMAGE:;
#DISCIMAGE:;
#LYRICSPATH:;
#CDTITLE:;
#MUSIC:Kill Bill (Safe Edit).ogg;
#OFFSET:0.020000;
#SAMPLESTART:87.648033;
#SAMPLELENGTH:14.999990;
#SELECTABLE:YES;
#DISPLAYBPM:89.000000;
#BPMS:0.000=89.000,
51.000=178.000,
52.000=89.000,
67.500=178.000,
68.500=89.000,
96.750=356.000,
102.000=89.000,
138.000=178.000,
139.000=89.000,
154.500=178.000,
155.500=89.000,
175.500=356.000,
180.000=330.000,
182.000=89.000,
198.000=890.000,
218.000=870.000,
220.000=89.000,
225.000=200.000,
226.750=130.000,
228.000=89.000,
238.000=178.000,
239.000=89.000;
#STOPS:;
#DELAYS:;
#WARPS:102.000=2.000,
182.000=2.000;
#TIMESIGNATURES:0.000=4=4;
#TICKCOUNTS:0.000=4;
#COMBOS:0.000=1;
#SPEEDS:0.000=1.000=0.000=0,
222.500=0.200=1.500=1;
#SCROLLS:0.000=1.000,
238.000=10.000,
239.000=1.000,
256.500=0.000,
257.250=0.500,
257.500=0.000,
258.250=0.250,
258.500=0.000,
259.500=1000.000;
#FAKES:;
#LABELS:0.000=Song Start;
#BGCHANGES:;
#KEYSOUNDS:;
#ATTACKS:
;

//---------------dance-single - ----------------
#NOTEDATA:;
#CHARTNAME:;
#STEPSTYPE:dance-single;
#DESCRIPTION:;
#CHARTSTYLE:;
#DIFFICULTY:Challenge;
#METER:17;
#RADARVALUES:0.499438,0.679627,0.438645,0.307706,0.746352,534.000000,467.000000,67.000000,47.000000,60.000000,8.000000,4.000000,0.000000,36.000000,0.499438,0.679627,0.438645,0.307706,0.746352,534.000000,467.000000,67.000000,47.000000,60.000000,8.000000,4.000000,0.000000,36.000000;
#CREDIT:A.Danvers;
#DISPLAYBPM:89.000000;
#NOTES:
// measure 0
0000
0000
0000
0000
,  // measure 1
0000
0000
0000
0000
,  // measure 2
0000
0000
0000
0000
,  // measure 3
0000
0000
0000
0000
,  // measure 4
1000
0000
0000
0000
0000
0000
1010
0000
0000
0000
0000
0000
0010
0000
0000
0000
0000
0000
0100
0000
0000
0000
0001
0000
0100
0000
0000
0000
0000
0000
0010
0000
0000
0000
0000
0000
1000
0000
0000
0000
0000
0000
1000
0000
0000
0010
0000
0000
,  // measure 5
0100
0001
0010
0001
0100
0010
0100
0010
0000
0110
0000
0000
0100
0100
0001
0010
,  // measure 6
0100
0100
1000
0001
1000
0010
1000
0010
0000
0110
0000
0000
0100
0010
0100
0010
,  // measure 7
1000
0001
1000
0001
0010
0100
1000
0001
0000
0011
0000
0000
1000
0100
0010
0001
,  // measure 8
0000
0000
0000
0000
1000
0100
0010
0001
0000
0000
0000
0000
1000
1000
1000
0010
,  // measure 9
0100
0010
1000
0001
0010
0100
0010
0001
1000
1000
0010
0100
0010
1000
0001
1000
,  // measure 10
1100
0000
0110
0000
1100
0000
1010
0000
0010
0100
0000
0101
0000
0000
0002
0000
,  // measure 11
0103
0000
2000
0000
3100
0000
0200
0000
0310
0001
0000
0011
0000
0000
0202
0000
,  // measure 12
1313
0000
0000
0000
0000
0000
0000
0000
0000
0000
0000
0000
1000
0000
0000
0100
0000
0000
0010
0001
0010
0100
1000
0010
,  // measure 13
2000
0000
0020
0000
3130
0000
0101
0000
0000
0000
0001
0100
0001
0100
0010
1000
,  // measure 14
0010
0000
1010
0000
1000
0001
0010
0000
0011
0000
1001
0000
0001
1000
0010
0000
,  // measure 15
0100
0101
0000
0011
0000
0110
0000
1100
,  // measure 16
0000
0000
0000
2002
0000
0000
0000
0000
0000
3003
0000
0000
0000
0000
0000
1000
0000
0000
0100
0000
0000
0010
0001
0100
,  // measure 17
0010
1000
0010
0200
0000
0000
0002
0000
0000
0313
0000
0000
1010
0000
0000
0000
0000
0000
2000
0000
0000
3200
0000
0000
,  // measure 18
0320
0000
0230
0000
2300
0000
3010
0100
0002
0000
0003
0000
0010
0000
0010
0000
,  // measure 19
0100
0100
1100
0000
0110
0000
0011
0000
,  // measure 20
1001
0000
0000
0000
0000
1000
0010
0000
0000
0000
0000
0000
0000
0000
0100
0010
0000
1000
0001
0000
0010
0100
0000
1000
,  // measure 21
0010
0000
0000
0110
0000
0000
0000
0000
0000
0000
0000
0001
0100
0000
0001
0010
0000
0100
0010
0000
0001
0100
0000
0010
,  // measure 22
0100
0000
0110
0000
0000
0100
0010
0100
0010
1000
0010
0100
0000
0100
0010
1000
,  // measure 23
0100
0100
0100
0010
0001
0100
0010
0010
1000
0001
1000
0100
0000
0100
0010
0001
,  // measure 24
1000
0010
0100
0MF0
0M00
0M00
0M00
0M00
0MM0
00M0
00M0
00M0
00M0
00M0
00M0
00M0
,  // measure 25
M0M0
M0M0
M0M0
M0M0
M0M0
0000
0000
0000
0000
0000
0000
0000
0000
0000
0000
0000
,  // measure 26
1000
0010
0100
0001
1000
0000
0000
0000
1000
0100
0010
0001
1000
0001
0010
0100
,  // measure 27
1000
0001
0100
0010
0110
0000
0000
0000
0100
0001
0010
0001
0011
0000
1100
0000
,  // measure 28
1000
0010
0100
0001
1000
0000
1010
0000
1000
0010
0100
0010
1000
0000
1100
0000
,  // measure 29
0100
0010
0001
1000
0010
0100
0001
0010
0001
0010
0100
1000
0000
0000
0000
0000
,  // measure 30
0001
0010
0100
1000
0000
0000
0000
0000
0001
0010
0100
1000
0001
0100
0010
1000
,  // measure 31
0010
0010
0010
1000
0010
0010
0100
0001
0010
0100
0010
0100
1100
0000
1010
0000
,  // measure 32
0110
0000
0101
0000
0001
0010
0000
0011
0000
0000
0002
0000
1003
0000
2000
0000
,  // measure 33
3010
0000
0020
0000
0130
0010
0000
0110
0000
0000
2002
0000
3013
0000
0100
0000
,  // measure 34
0001
0000
0000
1000
0000
0000
0100
0000
0000
0100
0000
0000
0010
0001
1000
0010
0100
0001
2000
0000
0000
0020
0000
0000
,  // measure 35
3130
0000
0101
0000
0000
0000
0001
0100
0001
0100
0010
1000
0100
1000
0010
0100
,  // measure 36
0001
0011
0000
0002
0010
2003
0010
3110
,  // measure 37
0000
0101
0000
0011
0000
0110
0000
2200
,  // measure 38
0000
0000
0000
0000
0000
0000
0000
0000
0000
3300
0000
0000
0000
0000
0000
0000
0000
0000
1000
0000
0000
0000
0000
0000
0001
0000
0000
0000
0000
0000
0100
0000
0010
0000
1000
0000
0010
0000
1000
0000
0001
0000
0020
0000
0000
0000
0000
0000
,  // measure 39
0200
0000
1331
0000
1010
0000
0000
0000
1000
0010
0100
0010
1000
0001
0010
0100
,  // measure 40
2000
0001
3001
0000
0002
0100
2003
0010
,  // measure 41
3110
0101
0011
0110
,  // measure 42
1000
0100
0010
0001
1000
0010
0100
0010
1000
0001
0010
0100
1000
0001
0100
0010
,  // measure 43
1000
0010
0100
0010
1000
0001
1000
0100
0010
0001
1000
0010
0100
0010
0F00
00F0
,  // measure 44
0F00
00F0
0F00
00F0
0F00
00F0
0F00
00F0
0F00
00F0
0F00
00F0
0F00
00F0
0F00
00F0
,  // measure 45
0F00
00F0
0F00
00F0
0F00
00F0
0F00
00F0
0F00
00F0
0F00
00F0
0F00
00F0
0F00
00F0
,  // measure 46
0100
0010
1000
0001
0010
0100
1000
0100
0000
1100
0000
0000
0000
0000
0000
0000
,  // measure 47
1000
0010
0100
0010
0000
0000
0100
0010
0000
0000
0000
0110
0000
0000
0000
0000
,  // measure 48
0000
0100
0001
0010
0100
0010
0001
2000
0000
0000
0000
3001
0000
0000
0000
0001
,  // measure 49
0100
0010
1000
0010
0100
0001
0010
0001
00F0
0000
0000
0000
0000
0000
0000
0000
,  // measure 50
0000
0000
0000
0000
,  // measure 51
0000
0000
0000
0000
,  // measure 52
0000
0000
0000
0000
0000
0000
0000
0000
0000
0000
0000
0000
0000
0040
0000
0000
,  // measure 53
0000
0000
0000
0000
,  // measure 54
0000
0000
0000
0030
0010
0000
0000
0000
,  // measure 55
0001
0100
0001
0100
0010
0000
2000
0000
3001
0000
0000
0000
0000
0000
0000
0000
,  // measure 56
0000
0000
0000
0000
,  // measure 57
1001
0000
0000
0000
0000
0000
0000
0000
0000
0000
0000
0000
0000
0000
0000
0000
0000
0000
0000
0000
0000
0000
0000
0000
0000
0000
0000
0000
0000
0000
0000
0000
0000
0000
0000
0000
0000
0000
0000
0000
0000
0000
0000
0000
0000
0000
0000
0000
0000
0000
0000
0000
0000
0000
0000
0000
0000
0000
0000
0000
0000
0000
0000
0000
0000
0000
0000
0000
0000
0000
0000
0000
0000
0000
0000
0000
0000
0000
0000
0000
0000
0000
0000
0000
0000
0000
0000
0000
0000
0000
0000
0000
0000
0000
0000
0000
2000
0000
0000
0000
0000
0000
0000
0000
0000
0000
0000
0000
3000
0000
0000
0000
0000
0000
0000
0000
0000
0000
0000
0000
0020
0000
0000
0000
0000
0000
0000
0000
0000
0000
0000
0000
0030
0000
0000
0000
0000
0000
0000
0000
0000
0000
0000
0000
0M00
0M00
0M00
0M00
0M00
0M00
0M00
0M00
0M00
0M00
0M00
0000
0M00
0000
0000
0000
0000
0000
0000
0000
0000
0000
0000
0000
0002
0000
0000
0000
0000
0000
0000
0000
0000
0000
0000
0000
0000
0000
0000
0000
0000
0000
0000
0000
0000
0000
0000
0000
,  // measure 58
1003
0000
1100
0000
0100
0010
0100
1000
,  // measure 59
4000
0000
3000
0000
0000
0000
0001
0100
,  // measure 60
0100
0110
0000
0101
0000
0011
0000
0110
,  // measure 61
0000
0000
0000
0000
0000
0000
0000
0000
0000
0000
0000
0000
0000
0000
0000
0000
0000
0000
0000
0000
0000
0000
0000
0000
4400
0000
0000
0000
0000
0000
0000
0000
0000
0000
0000
0000
0000
0000
0000
0000
0000
0000
0000
0000
0000
0000
0000
0000
0000
0000
0000
0000
0000
0000
0000
0000
0000
0000
0000
0000
0000
0000
0000
0000
0000
0000
0000
0000
0000
0000
0000
0000
0000
0000
0000
0000
0000
0000
0000
0000
0000
0000
0000
0000
0000
0000
0000
0000
0000
0000
0000
0000
0000
0000
0000
0000
3300
0000
0000
0000
0000
0000
0000
0000
0000
0000
0000
0000
0000
0000
0000
0000
0000
0000
0000
0000
0000
0000
0000
0000
1000
0000
0000
0000
0000
0000
0000
0000
0000
0000
0000
0000
0000
0000
0000
0000
0000
0000
0000
0000
0000
0000
0000
0000
0010
0000
0000
0000
0000
0000
0000
0000
0000
0000
0000
0000
0000
0000
0000
0000
0000
0000
0000
0000
0000
0000
0000
0000
0M00
0M00
0M00
0M00
0M00
0M00
0M00
0M00
0M00
0M00
0M00
0M00
0M00
0M00
0M00
0M00
0M00
0M00
0M00
0M00
0M00
0M00
0M00
0M00
,  // measure 62
0010
0110
0000
0000
0000
1000
0001
0010
,  // measure 63
0010
0200
0310
0000
0000
1000
1000
0010
,  // measure 64
0100
0000
0000
0000
0000
0000
0000
0000
0000
0000
0000
0000
0000
0000
0000
0000
0000
0000
0000
0000
0000
0000
0000
0000
0202
0000
0000
0000
0000
0000
0000
0000
0000
0000
0000
0000
0000
0000
0000
0000
0000
0000
0000
0000
0000
0000
0000
0000
0303
0000
0000
0000
0000
0000
0000
0000
0000
0000
0000
0000
0000
0000
0000
0000
0000
0000
0000
0000
0000
0000
0000
0000
2020
0000
0000
0000
0000
0000
0000
0000
0000
0000
0000
0000
0000
0000
0000
0000
0000
0000
0000
0000
0000
0000
0000
0000
3030
0000
0000
0000
0000
0000
0000
0000
0000
0000
0000
0000
0000
0000
0000
0000
0000
0000
0000
0000
0000
0000
0000
0000
0220
0000
0000
0000
0000
0000
0000
0000
0000
0000
0000
0000
0000
0000
0000
0000
0000
0000
0000
0000
0000
0000
0000
0000
0330
0000
0000
0000
0000
0000
0000
0000
0000
0000
0000
0000
0000
0000
0000
0000
0000
0000
0000
0000
0000
0000
0000
0000
2002
3003
0000
0000
0000
0000
0000
0000
0000
0000
0000
0000
0000
0000
0000
0000
0000
0000
0000
0000
0000
0000
0000
0000
;
