#VERSION:0.83;
#TITLE:KRAKEN;
#SUBTITLE:(2023 re-edit);
#ARTIST:HEXAHEDRA;
#TITLETRANSLIT:;
#SUBTITLETRANSLIT:;
#ARTISTTRANSLIT:;
#GENRE:;
#ORIGIN:;
#CREDIT:;
#BANNER:KRAKEN (2023 re-edit).png;
#BACKGROUND:KRAKEN (2023 re-edit)-bg.png;
#PREVIEWVID:;
#JACKET:KRAKEN (2023 re-edit)-jacket.png;
#CDIMAGE:;
#DISCIMAGE:;
#LYRICSPATH:;
#CDTITLE:;
#MUSIC:KRAKEN (2023 re-edit).ogg;
#OFFSET:-0.380000;
#SAMPLESTART:33.728146;
#SAMPLELENGTH:15.000002;
#SELECTABLE:YES;
#BPMS:0.000=180.000;
#STOPS:;
#DELAYS:;
#WARPS:;
#TIMESIGNATURES:0.000=4=4;
#TICKCOUNTS:0.000=4;
#COMBOS:0.000=1;
#SPEEDS:0.000=1.000=0.000=0;
#SCROLLS:0.000=1.000;
#FAKES:;
#LABELS:0.000=Song Start;
#BGCHANGES:;
#KEYSOUNDS:;
#ATTACKS:
;

//---------------dance-single - ----------------
#NOTEDATA:;
#CHARTNAME:;
#STEPSTYPE:dance-single;
#DESCRIPTION:;
#CHARTSTYLE:;
#DIFFICULTY:Challenge;
#METER:18;
#RADARVALUES:1.176769,1.301368,0.138443,0.699908,1.380589,1071.000000,1053.000000,18.000000,91.000000,0.000000,0.000000,0.000000,0.000000,0.000000,1.176769,1.301368,0.138443,0.699908,1.380589,1071.000000,1053.000000,18.000000,91.000000,0.000000,0.000000,0.000000,0.000000,0.000000;
#CREDIT:Miso;
#NOTES:
// measure 0
0000
0000
0000
0000
,  // measure 1
1000
0000
0010
0000
0100
0000
0001
0010
0100
1000
0010
0000
0100
0000
0001
0000
,  // measure 2
1000
0100
1000
0000
0010
0000
0100
0000
0001
0010
0001
0000
0100
0000
0010
0000
,  // measure 3
1000
0100
1000
0000
0010
0000
0100
0000
0001
0010
0001
0000
0100
0000
0010
0000
,  // measure 4
1000
0100
1000
0000
0010
0000
0100
0000
0010
0100
0001
1000
0001
0010
0100
1000
,  // measure 5
0001
0000
0010
0000
0100
0000
1000
0001
1000
0010
0100
0000
0010
0000
0100
0000
,  // measure 6
0001
0100
0001
0000
1000
0000
0100
0000
1000
0100
1000
0000
0001
0000
0100
0000
,  // measure 7
0001
0100
0001
0000
1000
0000
0100
0000
1000
0100
1000
0000
0001
0000
0100
0000
,  // measure 8
0001
0100
0001
0000
0100
0010
1000
0001
1000
0100
0010
0001
1000
0010
0100
0001
,  // measure 9
0010
0000
0100
0000
1000
0000
0010
0100
0010
0100
0001
0000
0010
0000
0100
0000
,  // measure 10
1000
0010
1000
0000
0010
0000
0100
0000
0001
0010
0001
0000
0100
0000
0010
0000
,  // measure 11
1000
0010
1000
0000
0010
0000
0100
0000
0001
0010
0001
0000
0100
0000
0010
0000
,  // measure 12
1000
0010
1000
0000
0010
0000
0100
0000
0001
0010
0001
0010
0100
1000
0100
1000
,  // measure 13
0010
0000
0100
0000
0001
0000
0010
0100
0010
0100
0010
0000
0001
0000
1000
0000
,  // measure 14
0010
0001
0010
0000
1000
0000
0100
0000
0001
0100
0001
0000
0100
0000
1000
0000
,  // measure 15
0010
0001
0010
0000
1000
0000
0100
0000
0001
0100
0001
0000
0100
0000
1000
0000
,  // measure 16
0001
0000
0000
0000
0000
0000
0100
0000
0000
0001
0000
0000
0100
0000
0000
0010
0000
0000
1000
0000
0000
0001
0000
0000
0100
0000
0000
0001
0000
0000
0100
0000
0001
0000
0100
0000
0002
0000
0000
0000
0000
0000
0000
0000
0000
0000
0000
0000
,  // measure 17
1003
0100
1000
0000
0010
0000
0100
0001
0010
0100
1000
0010
0100
0000
0010
0000
,  // measure 18
0100
0010
1000
0000
0010
0000
1000
0001
1000
0100
0010
0001
1000
0000
0010
0000
,  // measure 19
1000
0001
1000
0000
0100
0000
0010
0001
1000
0001
0010
0001
1000
0000
0010
0000
,  // measure 20
0100
0010
0100
0000
0001
0000
1000
0100
0010
0001
0010
0100
1000
0000
0010
0000
,  // measure 21
0100
0010
1000
0000
0010
1000
0010
0100
0001
0000
0001
0010
0000
0100
1000
0000
,  // measure 22
0010
0100
0001
0000
0010
0100
1000
0100
0010
0001
1000
0001
0100
0010
0100
0000
,  // measure 23
0010
1000
0010
0000
0100
0001
0100
0001
0010
0100
1000
0001
1000
0010
0200
0000
,  // measure 24
0301
0010
0100
1000
0001
1000
0010
0100
0010
1000
0001
0010
0100
1000
0001
0100
,  // measure 25
0010
1000
0010
1000
0001
0100
0001
0100
0001
0010
0100
1000
0001
0100
0001
1000
,  // measure 26
0100
0010
0100
1000
0001
0100
0010
0100
0001
1000
0010
0100
0010
1000
0010
0100
,  // measure 27
0001
1000
0001
0010
0100
1000
0001
1000
0100
0010
0100
1000
0001
0010
0100
0010
,  // measure 28
0100
1000
0001
0100
0010
0100
0001
0100
0001
1000
0010
1000
0001
1000
0100
0010
,  // measure 29
0001
0100
0010
0100
0001
0010
0100
1000
0001
1000
0100
0010
0001
0010
0100
1000
,  // measure 30
0001
0100
0001
1000
0010
0100
0001
1000
0100
1000
0001
0010
0100
1000
0001
0010
,  // measure 31
0001
0100
0010
0100
0001
1000
0001
0100
0010
0100
0001
1000
0001
0010
0100
0010
,  // measure 32
0001
1000
0010
0100
0001
1000
0001
0010
0100
1000
0001
0010
0001
1000
0010
0100
,  // measure 33
0010
0100
0001
1000
0001
0010
0100
1000
0001
0010
0001
1000
0010
0100
0010
1000
,  // measure 34
0010
1000
0001
1000
0001
0100
0010
1000
0001
0010
0100
1000
0100
1000
0010
0100
,  // measure 35
0001
0100
0010
1000
0010
0100
0001
1000
0100
0010
0001
1000
0001
0100
0001
0010
,  // measure 36
0100
1000
0001
0100
0010
1000
0010
0100
0001
1000
0001
0010
0100
1000
0001
0100
,  // measure 37
0010
1000
0010
0100
0010
1000
0001
1000
0100
0010
0001
1000
0001
0100
0010
1000
,  // measure 38
0010
0100
0001
1000
0100
0010
0001
1000
0001
0100
0010
1000
0010
0100
0010
1000
,  // measure 39
0001
1000
0001
1000
0100
0010
0001
1000
0001
0010
0100
1000
0001
0100
0010
1000
,  // measure 40
0001
0000
0001
0000
0100
0000
0100
0000
0002
0000
0013
0100
1000
0001
0100
0010
,  // measure 41
2000
0000
0000
0000
,  // measure 42
0000
0000
0000
0000
,  // measure 43
3002
0000
0000
0000
,  // measure 44
0000
0000
0000
0010
0010
0010
0010
0010
,  // measure 45
0000
0023
0000
0100
0100
0100
0100
0100
,  // measure 46
0000
0230
0000
1000
1000
1000
1000
1000
,  // measure 47
0000
2300
0000
0001
0001
0001
0001
0001
,  // measure 48
0000
0002
3003
0001
0100
0010
1000
0010
,  // measure 49
0000
1010
0000
1000
0100
0010
0001
0010
,  // measure 50
0000
0011
0000
0001
0010
0001
0100
0010
,  // measure 51
0000
0110
0000
0100
0001
0010
0100
1000
,  // measure 52
0000
1001
0000
1000
1000
1000
1000
1001
,  // measure 53
0001
0100
0110
0100
0001
0010
0110
0100
,  // measure 54
1000
0010
0110
0100
0001
0010
0110
0100
,  // measure 55
1000
0001
1001
0010
0100
0010
1001
0100
,  // measure 56
0001
0010
1001
1000
0100
0010
0011
0001
,  // measure 57
0100
0010
1010
0100
0001
0010
1100
0010
,  // measure 58
0001
0010
0101
0010
1000
0010
1100
0010
,  // measure 59
0001
1000
1001
0001
0100
0010
0010
1000
,  // measure 60
1000
0000
0000
0000
0000
0000
0010
0000
0000
0000
0000
0000
0100
0000
0000
0000
0000
0000
0001
0000
0000
1000
0000
0000
0001
0000
0000
1000
0000
0000
0001
0000
0100
0000
0001
0000
0100
0000
0000
0000
0000
0000
0010
0000
1000
0000
0010
0000
,  // measure 61
2000
0010
3100
0000
0002
0010
0103
0000
2000
0010
3100
0000
0002
0010
0103
0000
,  // measure 62
2000
0010
3100
0000
0002
0010
0103
0000
2000
0010
3100
0000
0002
0010
0103
0000
,  // measure 63
2000
0100
3010
0000
0002
0100
0013
0000
2000
0100
3010
0000
0002
0100
0013
0000
,  // measure 64
2000
0100
3010
0000
0002
0100
0013
0000
2000
0100
3010
0000
0002
0100
0013
0000
,  // measure 65
2000
0100
3100
0000
0002
0010
0013
0000
2000
0100
3100
0000
0002
0010
0013
0000
,  // measure 66
2000
0100
3100
0000
0002
0010
0013
0000
2000
0100
3100
0000
0002
0010
0013
0000
,  // measure 67
2000
0010
3001
0000
0002
0010
1003
0000
2000
0010
3001
0000
0002
0010
1003
0000
,  // measure 68
2000
0010
3001
0000
0002
0010
1003
0000
2000
0010
3001
0000
0002
0010
1003
0000
,  // measure 69
1000
0100
1000
0000
0001
0010
0001
0000
0100
0010
1000
0010
0100
0001
1000
0100
,  // measure 70
0010
0001
1000
0000
0010
1000
0001
0000
0001
0010
0100
1000
0001
1000
0010
0100
,  // measure 71
0010
0100
0001
0000
0010
0100
1000
0000
1000
0100
0010
0001
0010
0100
1000
0010
,  // measure 72
1000
0001
1000
0000
0001
1000
0001
0000
0010
0100
1000
0001
1000
0010
0100
0010
,  // measure 73
1000
0010
0100
0010
1000
0001
1000
0100
,  // measure 74
0010
0001
0010
0100
0100
0100
0100
1000
,  // measure 75
0010
0100
0010
1000
0001
1000
1000
0010
,  // measure 76
1000
0000
1000
0000
0010
0000
0010
0000
1000
0100
0010
0001
1000
0010
1000
0001
,  // measure 77
2000
3200
0320
0230
2300
3002
0203
0320
,  // measure 78
0230
0302
2003
3200
0320
0032
2003
3002
,  // measure 79
0203
0320
2030
3020
0230
0320
0230
0302
,  // measure 80
1003
0100
0010
0100
1000
0001
0100
0010
0100
0001
0010
0100
1000
0001
0100
0010
,  // measure 81
2000
3020
0230
0320
2030
3002
2003
3200
,  // measure 82
0320
0032
0023
0230
2300
3002
2003
3002
,  // measure 83
0203
0302
2003
3002
0023
0230
2300
3002
,  // measure 84
2003
0000
0000
0000
0000
0000
3100
0000
0000
0010
0000
0000
0001
0000
0000
1000
0000
0000
0001
0000
0000
1000
0000
0000
0010
0000
0000
0100
0000
0000
0001
0000
0100
0000
0001
0000
0100
0000
0001
0000
0100
0000
0001
0000
0100
0000
0001
0000
,  // measure 85
0100
0010
1000
0010
0100
0001
1000
0100
0010
0001
0010
0100
0010
0001
1000
0010
,  // measure 86
0100
0010
1000
0001
1000
0100
0010
0001
1000
0001
0100
0010
1000
0010
0100
0001
,  // measure 87
1000
0001
1000
0100
0010
0001
1000
0001
0100
0010
1000
0100
1000
0001
0100
0001
,  // measure 88
1000
0010
0100
0001
1000
0010
1000
0001
0010
0100
1000
0001
0100
0001
1000
0100
,  // measure 89
0010
0001
0010
0100
1000
0010
0100
0010
1000
0001
1000
0100
0010
0100
1000
0001
,  // measure 90
0100
0010
0100
0001
1000
0001
0010
0100
1000
0010
0100
0001
0100
0010
1000
0001
,  // measure 91
1000
0100
0010
0001
0100
0001
0100
0010
1000
0010
0100
0010
1000
0001
0010
0100
,  // measure 92
1000
0001
0100
0010
1000
0010
0100
0001
1000
0100
0010
0001
0010
0100
1000
0001
,  // measure 93
0200
0000
0000
0000
,  // measure 94
0300
0000
0000
0000
;
