#VERSION:0.83;
#TITLE:I'm Good;
#SUBTITLE:(Blue);
#ARTIST:David Guetta & Bebe Rexha;
#TITLETRANSLIT:;
#SUBTITLETRANSLIT:;
#ARTISTTRANSLIT:;
#GENRE:;
#ORIGIN:;
#CREDIT:;
#BANNER:I'm Good (Blue).png;
#BACKGROUND:I'm Good (Blue)-bg.png;
#PREVIEWVID:;
#JACKET:I'm Good (Blue)-jacket.png;
#CDIMAGE:;
#DISCIMAGE:;
#LYRICSPATH:;
#CDTITLE:;
#MUSIC:I'm Good (Blue).ogg;
#OFFSET:0.000000;
#SAMPLESTART:89.628189;
#SAMPLELENGTH:14.999995;
#SELECTABLE:YES;
#DISPLAYBPM:128.000000;
#BPMS:0.000=128.000,
128.000=768.000,
320.000=128.000;
#STOPS:;
#DELAYS:;
#WARPS:;
#TIMESIGNATURES:0.000=4=4;
#TICKCOUNTS:0.000=4;
#COMBOS:0.000=1;
#SPEEDS:0.000=1.000=0.000=0;
#SCROLLS:0.000=1.000;
#FAKES:;
#LABELS:0.000=Song Start;
#BGCHANGES:;
#KEYSOUNDS:;
#ATTACKS:
;

//---------------dance-double - Double Performance----------------
#NOTEDATA:;
#CHARTNAME:;
#STEPSTYPE:dance-double;
#DESCRIPTION:Double Performance;
#CHARTSTYLE:Freestyle;
#DIFFICULTY:Beginner;
#METER:18;
#RADARVALUES:0.542249,0.785327,0.235598,0.558455,0.056718,435.000000,408.000000,27.000000,64.000000,52.000000,3.000000,0.000000,11.000000,0.000000,0.542249,0.785327,0.235598,0.558455,0.056718,435.000000,408.000000,27.000000,64.000000,52.000000,3.000000,0.000000,11.000000,0.000000;
#CREDIT:S.Kyoufu;
#DISPLAYBPM:128.000000;
#NOTES:
// measure 0
00000000
00000000
00000000
00000000
,  // measure 1
00000000
00000000
00000000
00000000
,  // measure 2
00000000
00000000
00000000
00000000
,  // measure 3
00000000
00000000
00000000
00000000
,  // measure 4
00020000
00000000
00000000
00000000
00000000
00000000
00000000
00030000
000L2000
00000000
00000000
00000000
00000000
00000000
00000000
00003000
,  // measure 5
0002L000
00000000
00000000
00000000
00000000
00000000
00000000
00030000
000L2000
00000000
00000000
00000000
00000000
00000000
00000000
00003000
,  // measure 6
0002L000
00000000
00000000
00000000
00000000
00000000
00000000
00030000
000L2000
00000000
00000000
00000000
00000000
00000000
00000000
00003000
,  // measure 7
0002L000
00000000
00000000
00000000
00000000
00000000
00000000
00030000
000L2000
00000000
00000000
00000000
00100000
00000000
00000000
00003000
,  // measure 8
0001L000
00000000
00100000
00000000
01000000
00000000
20000000
00020000
,  // measure 9
30030000
00010000
01000000
01000000
,  // measure 10
00010000
00000000
00001000
00000000
00000100
00000000
00000002
00002000
,  // measure 11
00003003
00000000
00000100
00000010
00000100
00000000
00100000
01000000
,  // measure 12
00100000
00000000
10010000
00000000
02000000
00000000
00000000
00200000
,  // measure 13
03300000
01000000
00010000
00001000
,  // measure 14
00000010
00010000
02000000
23000000
,  // measure 15
30020000
02030000
03000200
00010300
,  // measure 16
00011000
00001000
00001000
00010000
,  // measure 17
00010000
01000000
01000000
10000000
,  // measure 18
10000000
00100000
00100000
00010000
,  // measure 19
00010000
00001000
00001000
00001001
,  // measure 20
00000001
00000010
00000100
00001000
,  // measure 21
00010000
00100000
01000000
10000000
,  // measure 22
00010000
01000000
00001000
00010000
,  // measure 23
00011000
00000000
00000000
00000000
00011000
00000000
00000000
0MM00MM0
0MM11MM0
0MM00MM0
0MM00MM0
0MM00MM0
MMMMMMMM
00000000
00000000
00000000
,  // measure 24
00002000
00003100
00000020
00000031
00002000
00003100
00000020
00000031
,  // measure 25
00002000
00003100
00000020
00000031
00001010
00000000
00110000
00000000
,  // measure 26
00020000
01030000
00200000
10300000
00020000
01030000
00200000
10300000
,  // measure 27
00110000
00011000
00001010
00100010
,  // measure 28
00200000
00310000
00000020
00001030
00200000
10300000
00000020
00001030
,  // measure 29
00010000
00001000
00000100
00000001
,  // measure 30
00000020
00001030
00000002
00000103
00000020
00001030
00000002
00000103
,  // measure 31
00000010
00000001
00000100
00011000
,  // measure 32
10000000
00100000
01000000
00100000
,  // measure 33
10000000
00010000
10000000
01000000
,  // measure 34
00100000
00010000
01000000
00100000
,  // measure 35
10000000
00100000
01000000
00010000
,  // measure 36
10000000
01000000
00100000
00010000
,  // measure 37
01000000
00100000
10000000
00010000
,  // measure 38
00100000
00010000
00100000
00001000
,  // measure 39
00100000
00010000
00100000
00001000
,  // measure 40
00100000
00010000
00100000
00010000
,  // measure 41
00100000
00001000
00100000
01000000
,  // measure 42
20000000
00000000
00000000
00000000
,  // measure 43
30000000
00000000
00000000
00000000
,  // measure 44
00000001
00000010
00000100
00001000
,  // measure 45
00000001
00000100
00000010
00001000
,  // measure 46
00000010
00000100
00000001
00000010
,  // measure 47
00000100
00001000
00000001
00001000
,  // measure 48
00000001
00000100
00000010
00001000
,  // measure 49
00000010
00000100
00000001
00001000
,  // measure 50
00000001
00000100
00000001
00000100
,  // measure 51
00000001
00010000
00000001
00000100
,  // measure 52
00000001
00001000
00000001
00010000
,  // measure 53
00001000
00010000
00000100
00010000
,  // measure 54
00001000
00010000
00000020
00000000
,  // measure 55
00000030
00000000
00000000
00000000
,  // measure 56
00010000
00000010
00001000
00000001
,  // measure 57
00001000
00000100
00010000
00001000
,  // measure 58
10000000
00010000
01000000
00010000
,  // measure 59
00100000
00001000
00010000
00000010
,  // measure 60
00000100
00000001
00000010
00000100
,  // measure 61
00001000
00010000
00100000
01000000
,  // measure 62
10000000
01000000
10000000
00010000
,  // measure 63
01000000
00001000
00010000
00000100
,  // measure 64
00001000
00000010
00001000
00000010
,  // measure 65
00000100
00000001
00000010
00000100
,  // measure 66
00001000
00000100
00010000
00001000
,  // measure 67
00100000
00010000
01000000
00100000
,  // measure 68
10000000
00100000
01000000
00010000
,  // measure 69
10000000
01000000
00100000
00010000
,  // measure 70
10000000
00010000
01000000
00001000
,  // measure 71
00010000
00000100
00001000
00000010
,  // measure 72
00001000
00000010
00000100
00000001
,  // measure 73
00001000
00000100
00010000
00000010
,  // measure 74
00001000
00000010
00000100
00000010
,  // measure 75
00001000
00000100
00010000
00000010
,  // measure 76
00001000
00000001
00001000
00000100
,  // measure 77
00010000
00001000
01000000
00100000
,  // measure 78
10000000
00100000
01000000
00010000
,  // measure 79
00100000
01000000
10000000
00010000
,  // measure 80
10000000
00000000
00010000
10000000
00000000
00000000
10000000
00000000
00020000
20000000
00000000
00000000
30030000
00000000
10000000
00000000
,  // measure 81
00010000
00000000
10000000
00000000
00010000
00000000
10000000
00010000
00000000
00000000
10000000
00000000
00010000
00000000
00001000
00000000
,  // measure 82
00000001
00000000
00001000
00000001
00000000
00000000
00001000
00000000
00000002
00002000
00000000
00000000
00003003
00000000
00000001
00000000
,  // measure 83
00001000
00000000
00000001
00000000
00001000
00000000
00000001
00001000
00000000
00000000
00000001
00000000
00000100
00000000
00001000
00000000
,  // measure 84
00010000
00000000
00001000
00010000
00000000
00000000
00010000
00000000
00002000
00020000
00000000
00000000
00000000
00000000
00000000
00000000
,  // measure 85
00L00000
000000L0
00L33000
00001000
,  // measure 86
00010000
01000000
10000000
00010000
,  // measure 87
10010000
00000000
00000000
00000000
00011000
00000000
00000000
00000000
0MM01MM1
0MM00MM0
0MM00MM0
0MM00MM0
MMMMMMMM
00000000
00000000
00000000
,  // measure 88
00002000
00003100
00000002
00000103
00002000
00003100
00000002
00000103
,  // measure 89
00001001
00000100
00010000
01000000
,  // measure 90
00200000
10300000
00200000
00310000
00200000
10300000
00200000
00310000
,  // measure 91
10010000
00100000
00001000
00000010
,  // measure 92
00000002
00001003
00000002
00001003
00000002
00001003
00000002
00001003
,  // measure 93
00001001
00000000
00001000
00001000
00010000
00010000
01000000
10000000
,  // measure 94
00010000
01000000
00010000
00100000
01000000
10000000
00010000
01000000
,  // measure 95
00100000
00100000
00100000
00100000
,  // measure 96
20000000
00000000
00000000
00000000
00020000
30000000
00000000
00200000
,  // measure 97
00000000
00000000
00000000
00030000
00000000
00000000
00302000
00000000
,  // measure 98
00020000
00000000
00003000
00000000
00000200
00000000
00030000
00000002
,  // measure 99
00000000
00000300
00000000
00000000
00000000
00000000
00000000
00000000
,  // measure 100
00000003
00000000
00000000
00000000
;

//---------------dance-single - Single Performance----------------
#NOTEDATA:;
#CHARTNAME:;
#STEPSTYPE:dance-single;
#DESCRIPTION:Single Performance;
#CHARTSTYLE:Freestyle;
#DIFFICULTY:Beginner;
#METER:18;
#RADARVALUES:0.564687,0.741697,0.139614,0.619535,0.039266,453.000000,437.000000,16.000000,71.000000,36.000000,3.000000,0.000000,12.000000,0.000000,0.564687,0.741697,0.139614,0.619535,0.039266,453.000000,437.000000,16.000000,71.000000,36.000000,3.000000,0.000000,12.000000,0.000000;
#CREDIT:S.Kyoufu;
#DISPLAYBPM:128.000000;
#NOTES:
0000
0000
0000
0000
,
0000
0000
0000
0000
,
0000
0000
0000
0000
,
0000
0000
0000
0000
,
2000
0000
0000
0000
0000
0000
0000
3000
L002
0000
0000
0000
0000
0000
0000
0003
,
200L
0000
0000
0000
0000
0000
0000
3000
L002
0000
0000
0000
0000
0000
0000
0003
,
200L
0000
0000
0000
0000
0000
0000
3000
L020
0000
0000
0000
0000
0000
0000
0000
,
0200
0000
0000
0000
0000
0000
0000
0000
0000
0000
0000
0330
0LL0
0000
0000
0000
,
1001
0000
1000
0000
0100
0000
0020
0200
,
0330
1000
1100
1000
,
1001
0000
0001
0100
0010
1000
0002
2000
,
3003
0000
0001
0100
1000
0000
1000
0100
,
0001
0000
0001
0010
1000
0010
0002
2000
,
3003
0000
1000
1000
0010
0100
0001
0010
,
0200
0000
0300
0000
1000
0000
0001
0000
0010
M00M
0010
0000
2000
0000
0002
0000
,
0000
0000
0000
0000
0000
0000
0000
3003
L00L
0000
0010
0000
0100
0000
0000
0000
,
0100
0100
0001
0001
,
1000
1000
0100
0100
,
1000
1000
0010
0010
,
0100
0100
0001
0001
,
1000
0100
0010
0100
,
1000
0001
0010
0100
,
0010
0001
0010
0100
0010
0001
1000
0100
,
M01M
M00M
M01M
M00M
M01M
MMMM
MMMM
0000
,
2000
3100
0020
0031
2000
3100
0020
0031
,
2000
3100
0020
0031
2000
3100
0020
0031
,
0020
1030
0002
0103
0020
1030
0002
0103
,
0020
1030
0002
0103
0020
1030
0002
0103
,
0002
0013
0200
1300
0002
0013
0200
1300
,
0002
0013
0200
1300
0002
0013
0200
1300
,
0200
0301
2000
3010
0200
0301
2000
3010
,
0100
0101
1001
0110
,
1000
0010
0100
0001
,
0100
0010
0100
0010
,
1000
0010
0100
0010
,
1000
0001
1000
0100
,
0010
0001
1000
0001
,
0100
0010
0100
0001
,
1000
0100
0010
0001
,
0010
0100
1000
0001
,
0100
0010
0100
0001
,
1000
0100
0010
0001
,
1000
0010
2000
0000
,
3000
0000
0000
0000
,
0001
0010
0001
0100
,
0010
0100
0001
1000
,
0100
0010
0001
1000
,
0001
0100
0010
1000
,
0001
1000
0100
0010
,
0001
1000
0001
0100
,
0010
1000
0010
0100
,
0001
1000
0100
0010
,
0001
0010
0100
1000
,
0001
0100
0010
0100
,
0001
1000
0002
0000
,
0003
0000
0000
0000
,
1000
0100
0010
0001
,
0010
0100
1000
0010
,
0100
0001
0100
0010
,
1000
0010
0100
0001
,
1000
0100
0010
0001
,
1000
0010
0100
0001
,
0010
0100
1000
0010
,
0100
0001
1000
0001
,
1000
0100
0010
0001
,
1000
0001
1000
0001
,
0100
0010
0100
0010
,
1000
0001
1000
0001
,
1000
0010
0100
0001
,
1000
0100
0010
0001
,
1000
0001
0010
0001
,
1000
0001
0010
0100
,
1000
0001
0100
0010
,
1000
0010
0100
0010
,
1000
0010
0100
0010
,
1000
0001
1000
0001
,
0100
0001
0100
0001
,
1000
0001
0100
0001
,
0100
0010
1000
0010
,
0100
0001
1000
0001
,
1000
0000
0001
1000
0000
0000
1000
0000
0002
2000
0000
0000
3003
0000
1000
0000
,
0001
0000
1000
0000
0001
0000
1000
0001
0000
0000
0100
0000
0010
0000
0100
0000
,
0010
0000
0100
0010
0000
0000
0010
0000
0200
0020
0000
0000
0030
0300
0010
0000
,
0100
0000
0010
0000
0100
0000
0010
0100
0000
0000
0100
0000
0001
0000
1000
0000
,
0100
0000
0010
0001
0000
0000
0100
0000
0002
0200
0000
0000
0000
0000
0000
0000
,
00L0
00L0
03L3
0001
,
1000
0100
0010
0001
0010
0100
1000
0100
,
M11M
M00M
M11M
M00M
M11M
M00M
MMMM
0000
,
2000
3100
0002
0103
2000
3100
0002
0103
,
1000
1000
0001
0001
,
0020
1030
0020
0031
0020
1030
0020
0031
,
1000
0000
1000
0100
0001
0000
0001
0100
,
2000
3100
0020
0031
2000
3100
0020
0031
,
1000
1000
0010
0010
,
0100
0001
0100
0000
0001
0010
0001
0000
,
0001
0100
0010
1000
0010
0100
0001
0000
,
2000
0000
0000
0000
0020
0000
3000
0200
,
0000
0030
0000
0000
0002
0000
0300
0000
,
0020
0000
0000
0003
0200
0000
0030
2000
,
0000
0000
0000
0000
0000
0000
0000
0300
,
3000
0000
0000
0000
;
