#VERSION:0.83;
#TITLE:Chains;
#SUBTITLE:;
#ARTIST:Nick Jonas;
#TITLETRANSLIT:;
#SUBTITLETRANSLIT:;
#ARTISTTRANSLIT:;
#GENRE:;
#ORIGIN:;
#CREDIT:;
#BANNER:Chains.png;
#BACKGROUND:Chains-bg.png;
#PREVIEWVID:;
#JACKET:Chains-jacket.png;
#CDIMAGE:;
#DISCIMAGE:;
#LYRICSPATH:;
#CDTITLE:;
#MUSIC:Chains.ogg;
#OFFSET:0.015000;
#SAMPLESTART:63.126156;
#SAMPLELENGTH:12.599999;
#SELECTABLE:YES;
#DISPLAYBPM:152.000000;
#BPMS:0.000=152.000,
214.000=608.000,
224.000=152.000;
#STOPS:;
#DELAYS:;
#WARPS:222.000=2.000;
#TIMESIGNATURES:0.000=4=4;
#TICKCOUNTS:0.000=4;
#COMBOS:0.000=1;
#SPEEDS:0.000=1.000=0.000=0,
47.000=0.000=0.200=1,
47.500=1.000=0.200=1,
62.000=0.000=0.200=1,
62.500=1.000=0.200=1,
62.750=0.000=0.200=1,
63.000=1.000=0.200=1,
63.500=0.000=0.200=1,
64.000=1.000=0.200=1,
79.000=0.000=0.200=1,
80.000=1.000=0.200=1,
145.000=0.000=0.000=1,
146.000=1.000=0.200=1,
147.000=0.000=0.000=1,
148.000=1.000=0.200=1,
149.000=0.000=0.000=1,
150.000=1.000=0.200=1,
246.000=3.000=0.200=1,
246.500=1.000=0.200=1,
247.500=0.500=0.200=1,
248.500=5.000=0.200=1,
249.500=1.000=0.200=1,
254.000=0.000=0.200=1,
256.000=1.000=0.000=1,
263.000=10.000=0.000=1,
264.000=3.000=0.000=1,
264.333=0.000=1.000=1,
270.000=0.100=0.800=1;
#SCROLLS:0.000=1.000,
47.000=0.000,
48.000=1.000,
62.000=0.000,
64.000=1.000,
79.000=0.000,
80.000=1.000,
160.000=0.500,
168.000=-0.200,
175.000=1.000,
184.000=-0.200,
194.000=1.000,
230.000=0.000,
232.000=1.000,
242.000=-1.000,
243.000=1.000,
244.000=3.000,
245.000=0.200,
247.000=1.000,
251.000=0.000,
251.500=1.000,
253.000=0.500,
256.000=1.000;
#FAKES:;
#LABELS:0.000=Song Start;
#BGCHANGES:;
#KEYSOUNDS:;
#ATTACKS:
;

//---------------dance-single - ----------------
#NOTEDATA:;
#CHARTNAME:;
#STEPSTYPE:dance-single;
#DESCRIPTION:;
#CHARTSTYLE:;
#DIFFICULTY:Challenge;
#METER:17;
#RADARVALUES:0.652937,1.618739,0.809370,0.542754,0.204723,480.000000,395.000000,85.000000,57.000000,82.000000,0.000000,13.000000,0.000000,0.000000,0.652937,1.618739,0.809370,0.542754,0.204723,480.000000,395.000000,85.000000,57.000000,82.000000,0.000000,13.000000,0.000000,0.000000;
#CREDIT:S.Kyoufu;
#DISPLAYBPM:152.000000;
#NOTES:
// measure 0
0000
0000
0000
0000
,  // measure 1
0000
0000
0000
0000
,  // measure 2
0000
0000
0000
0000
,  // measure 3
0000
0000
0000
0000
,  // measure 4
0000
0000
0000
0000
,  // measure 5
0000
0000
0000
0000
,  // measure 6
0000
0000
0000
0000
,  // measure 7
0000
0000
0000
0000
0000
0000
1000
0010
,  // measure 8
0100
0000
0001
0010
0100
0000
1000
0010
,  // measure 9
0100
0000
0100
0001
0010
0010
0000
0000
,  // measure 10
0110
0000
0100
1100
,  // measure 11
0000
1001
0000
0101
,  // measure 12
0101
0000
0000
0000
0100
0010
0100
0010
1000
0000
0000
0000
1000
0000
0100
0000
,  // measure 13
0010
0000
0000
0000
0010
0000
0100
0000
1000
0010
1000
0000
0000
0000
0000
0000
,  // measure 14
1010
0000
0000
0010
0100
0000
0101
0000
,  // measure 15
0000
0000
0000
0000
0011
0000
0000
0000
0001
0000
0001
0001
0001
0000
0001
0000
,  // measure 16
0001
0000
0010
0100
2000
0000
3010
0100
,  // measure 17
0002
0000
0013
0010
0400
0000
0300
0000
,  // measure 18
1100
0000
0000
1000
1010
0000
0110
0000
,  // measure 19
0000
0000
0000
0101
0000
0000
0004
0000
0003
0101
0000
0000
,  // measure 20
0101
0000
0000
0000
0000
0000
0001
0100
0001
0100
0001
0100
0002
0000
0000
0000
0000
0000
0103
0000
0000
0010
0000
0000
,  // measure 21
2000
0000
0000
0000
3100
0000
0010
0000
0001
0010
0004
0000
0000
0000
0003
0000
,  // measure 22
0001
0010
0004
0000
0000
0000
0003
0000
0001
0010
0004
0000
0000
0000
0003
0000
,  // measure 23
0001
0010
0004
0000
0003
0000
0001
0000
0010
0000
0100
0000
1000
0000
0000
0000
,  // measure 24
1001
0001
0100
0010
0100
0001
0100
0010
,  // measure 25
0100
0001
0100
0010
1000
0100
0010
0001
,  // measure 26
1000
0010
0100
0010
1000
0010
0100
0010
,  // measure 27
1000
0010
0100
0001
0010
0100
1000
0010
,  // measure 28
1000
0100
0010
0100
1000
0100
0010
0100
,  // measure 29
1000
0001
0100
0010
0100
0001
0100
0010
,  // measure 30
0100
0100
0100
0100
0010
0010
0010
1000
,  // measure 31
1000
1000
1000
0001
0001
0001
0001
0001
,  // measure 32
0011
0100
0011
0100
0011
0100
0011
1100
,  // measure 33
1010
0100
1010
0100
1010
0100
1010
0101
,  // measure 34
1001
0010
1001
0100
1001
0010
1001
0100
,  // measure 35
0110
0001
0110
1000
0110
0001
0110
1000
,  // measure 36
0110
0000
0010
0000
0100
0100
0100
0100
0100
0000
0010
0000
0100
0100
0100
0100
,  // measure 37
0100
0000
0010
0000
0100
0100
0100
0100
0100
0000
1001
0000
0110
0000
0000
0000
,  // measure 38
0210
0010
0010
0010
0320
1000
1000
1000
,  // measure 39
2030
0100
0100
0100
3100
0010
0001
1000
,  // measure 40
1001
0000
0000
0000
,  // measure 41
0000
0000
0000
0000
,  // measure 42
2M00
3000
0000
0000
0000
0000
M200
0300
0000
0000
0000
0000
0M2M
0030
0000
0000
0000
0000
0002
0003
0000
0000
0000
0000
02M0
0300
0000
0000
0000
0000
0M20
0030
0000
0000
0000
0000
20M0
3000
0000
0000
0000
0000
M020
0030
0000
0000
0000
0000
,  // measure 43
02M0
0300
0000
0000
0000
0000
0M20
0030
0000
0000
0000
0000
0002
0003
0000
0000
0000
0000
0M20
0030
0000
0000
0000
0000
2M00
3000
0000
0000
0000
0000
0000
0000
0000
0000
0000
0000
00M2
0003
0000
0000
0000
0000
0000
0000
0000
0000
0000
0000
,  // measure 44
1001
0000
1000
1000
0100
0010
0001
0000
0000
0001
0100
0010
,  // measure 45
1010
0110
0101
0011
0110
0000
MMMM
0000
,  // measure 46
200M
3000
0000
0000
0000
0000
0M20
0030
0000
0000
0000
0000
M002
0003
0000
0000
0000
0000
0M20
0030
0000
0000
0000
0000
200M
3000
0000
0000
0000
0000
02M0
0300
0000
0000
0000
0000
M002
0003
0000
0000
0000
0000
02M0
0300
0000
0000
0000
0000
,  // measure 47
200M
3000
0000
0000
0000
0000
2M00
3000
0000
0000
0000
0000
0M20
0030
0000
0000
0000
0000
002M
0030
0000
0000
0000
0000
020M
0300
0000
0000
0000
0000
M000
0000
0000
0000
0000
0000
M002
0003
0000
0000
0000
0000
0M00
0000
0000
0000
0000
0000
,  // measure 48
20M0
3000
0000
0000
0000
0000
020M
0300
0000
0000
0000
0000
M020
0030
0000
0000
0000
0000
00M2
0003
0000
0000
0000
0000
M200
0300
0000
0000
0000
0000
0000
0000
0000
0000
0000
0000
0010
0000
0000
0000
0000
0000
0010
0000
0000
0000
0000
0000
,  // measure 49
0010
0000
1000
0100
0010
0000
0001
0000
,  // measure 50
2000
0000
3010
0100
0002
0000
0013
0100
,  // measure 51
2000
0000
3010
0100
0002
0000
2000
3003
,  // measure 52
0020
0000
0130
0001
0020
0000
0130
1000
,  // measure 53
0020
0000
0130
0100
0440
0000
0000
0000
,  // measure 54
0330
MMMM
MMMM
MMMM
MMMM
MMMM
MMMM
MMMM
,  // measure 55
MMMM
MMMM
MMMM
MMMM
0000
0000
0000
0000
,  // measure 56
0110
0100
0001
0010
0100
1000
0001
0010
,  // measure 57
0100
0000
0000
0000
0000
0000
1000
0000
0000
0000
0000
0000
0001
0000
0000
0000
0000
0000
0010
0000
0000
0000
0000
0000
0200
0300
0000
0000
0000
0000
1000
0000
0000
0000
0000
0000
0100
0000
0000
0000
0000
0000
2000
3000
0000
0000
0000
0000
,  // measure 58
0010
0100
0001
0100
0010
1000
0100
0010
,  // measure 59
1001
0000
0000
0000
0004
0000
0000
0003
,  // measure 60
1010
0000
0000
0000
0000
0000
0101
0000
0000
0000
0000
0000
0011
0000
0000
0000
0000
0000
0110
0000
0000
0000
0000
0000
2200
3300
0000
0000
0000
0000
2200
3300
0000
0000
0000
0000
1010
0000
0000
0000
0000
0000
1010
0000
0000
0000
0000
0000
,  // measure 61
1001
1001
1001
0000
0101
0101
0101
0101
0101
0000
0011
0000
0101
0000
0110
0110
,  // measure 62
0110
0000
0110
0110
0110
0000
1010
1010
1010
1010
1010
0000
1001
1001
1001
0000
,  // measure 63
0022
0000
0033
0000
0101
0101
0101
0101
0404
0000
0000
0000
0303
0000
0000
0000
,  // measure 64
0001
0100
0010
0100
0004
0000
0103
0010
,  // measure 65
1000
0000
0000
0100
0000
0000
0010
0000
0000
0001
0000
0000
4000
0000
0000
0000
0000
0000
3001
1000
0001
1000
0001
1000
,  // measure 66
0001
0000
0000
1000
0000
0000
0001
0000
1000
0000
0001
0000
1000
0000
1000
0000
1000
0000
1000
0000
1000
0000
1000
0000
,  // measure 67
1000
1000
1000
0000
2000
0000
0000
0000
,  // measure 68
3010
0000
0000
0000
;
