#VERSION:0.83;
#TITLE:Bad Memories;
#SUBTITLE:(Safe Edit);
#ARTIST:MEDUZA & James Carter ft. FAST BOY & Elley Duhe;
#TITLETRANSLIT:;
#SUBTITLETRANSLIT:;
#ARTISTTRANSLIT:;
#GENRE:;
#ORIGIN:;
#CREDIT:;
#BANNER:Bad Memories (Safe Edit).png;
#BACKGROUND:Bad Memories (Safe Edit)-bg.png;
#PREVIEWVID:;
#JACKET:Bad Memories (Safe Edit)-jacket.png;
#CDIMAGE:;
#DISCIMAGE:;
#LYRICSPATH:;
#CDTITLE:;
#MUSIC:Bad Memories (Safe Edit).ogg;
#OFFSET:0.040000;
#SAMPLESTART:38.647961;
#SAMPLELENGTH:14.999996;
#SELECTABLE:YES;
#BPMS:0.000=124.000;
#STOPS:;
#DELAYS:;
#WARPS:;
#TIMESIGNATURES:0.000=4=4;
#TICKCOUNTS:0.000=4;
#COMBOS:0.000=1;
#SPEEDS:0.000=1.000=0.000=0;
#SCROLLS:0.000=1.000;
#FAKES:;
#LABELS:0.000=Song Start;
#BGCHANGES:;
#KEYSOUNDS:;
#ATTACKS:
;

//---------------dance-single - Single Performance----------------
#NOTEDATA:;
#CHARTNAME:;
#STEPSTYPE:dance-single;
#DESCRIPTION:Single Performance;
#CHARTSTYLE:Freestyle;
#DIFFICULTY:Challenge;
#METER:12;
#RADARVALUES:0.379888,0.462479,0.156025,0.488427,0.020351,392.000000,369.000000,23.000000,72.000000,96.000000,0.000000,0.000000,6.000000,0.000000,0.379888,0.462479,0.156025,0.488427,0.020351,392.000000,369.000000,23.000000,72.000000,96.000000,0.000000,0.000000,6.000000,0.000000;
#CREDIT:G.Shawn;
#NOTES:
// measure 0
0000
0000
0000
0000
,  // measure 1
0000
0000
0000
0000
,  // measure 2
0000
0000
0000
0000
0000
0000
0000
0000
0000
MMMM
0000
0000
0000
0000
0000
MMMM
,  // measure 3
0000
0000
0000
0000
,  // measure 4
2000
0000
0000
0000
3010
0000
0000
MMMM
0000
0000
0100
0000
0002
0000
0000
0000
,  // measure 5
0003
0010
0100
1000
0100
0010
0001
2000
,  // measure 6
3000
0020
0030
0100
0001
0010
0002
0003
,  // measure 7
0000
0000
2000
3000
0001
0100
0001
0000
,  // measure 8
1000
1100
0001
0101
,  // measure 9
1000
1100
0001
0101
,  // measure 10
1000
0000
0000
0000
1010
0000
0000
0000
0001
0000
0000
0000
0022
0000
0000
0033
,  // measure 11
00LL
MMMM
MMMM
MMMM
,  // measure 12
2000
0000
0000
0000
3010
0000
0000
MMMM
0000
0000
0100
0000
0020
0000
0000
0000
,  // measure 13
0030
0100
0000
0100
0001
0000
0010
0100
,  // measure 14
0000
1100
0000
1000
0100
0010
0001
1000
,  // measure 15
0000
1000
0001
0000
0100
0001
0100
MMMM
,  // measure 16
0002
0000
0000
0000
0013
0000
0000
MMMM
0000
0000
0100
0000
2000
0000
0000
0000
,  // measure 17
3000
0010
0100
0010
0100
0010
0100
0001
,  // measure 18
0010
0000
0100
0000
1000
0000
0100
0000
0010
0000
0001
0000
2000
0000
0002
3003
,  // measure 19
L00L
MMMM
MMMM
MMMM
,  // measure 20
2000
3100
0020
0031
2000
3100
0020
0031
,  // measure 21
2000
3100
0020
0031
2000
3100
0020
0031
,  // measure 22
2000
3100
0020
0031
2000
3100
0020
0031
,  // measure 23
1010
0101
0011
0110
,  // measure 24
0002
0103
0020
1030
0002
0103
0020
1030
,  // measure 25
0002
0103
0020
1030
0002
0103
0020
1030
,  // measure 26
0001
0001
1000
1000
,  // measure 27
0110
0110
0110
0110
,  // measure 28
2000
3100
0100
0000
0100
0000
0001
0000
,  // measure 29
0002
0103
0100
0000
0100
0000
1000
0000
,  // measure 30
2000
3100
0010
0000
0010
0000
0100
0000
,  // measure 31
0020
0031
0100
0000
0100
0000
0010
0000
,  // measure 32
0010
0100
1000
0000
1000
0000
0010
0000
,  // measure 33
0100
0001
0010
0100
0100
1000
0001
0001
,  // measure 34
0100
0010
1000
0010
,  // measure 35
0100
0100
0100
0100
,  // measure 36
0002
0000
0000
0000
,  // measure 37
2003
0000
0000
0000
,  // measure 38
3020
0000
0000
0000
,  // measure 39
0030
MMMM
MMMM
MMMM
,  // measure 40
0200
0000
0010
0000
,  // measure 41
0320
0000
1000
0000
,  // measure 42
2030
0000
3001
MMMM
,  // measure 43
1001
0100
0100
0010
,  // measure 44
0010
1000
0100
0001
,  // measure 45
0010
0000
1000
0000
0100
0100
0001
0000
,  // measure 46
0010
1000
0100
1000
,  // measure 47
0010
0000
0001
0000
0100
0100
1000
1000
,  // measure 48
0100
0001
0100
0001
,  // measure 49
1000
0001
1000
0100
,  // measure 50
0010
0010
0001
0001
1000
1000
0010
0010
,  // measure 51
0100
0100
0100
0100
0100
0100
0100
0100
,  // measure 52
0200
0000
0000
0000
0301
0000
0000
MMMM
0000
0000
0001
0000
0200
0000
0000
0000
,  // measure 53
0300
0100
0000
0100
0001
0000
0000
1000
,  // measure 54
0100
0000
0000
0110
0000
0110
1000
0000
,  // measure 55
0000
0000
2000
0000
3100
0010
0001
0000
,  // measure 56
1000
0010
0100
0001
0100
0010
1000
0010
,  // measure 57
0100
0001
0100
0010
1000
0100
0010
0001
,  // measure 58
0000
MMMM
MMMM
MMMM
MMMM
MMMM
MMMM
MMMM
,  // measure 59
1000
1000
0100
0010
0001
0010
0100
0100
,  // measure 60
2000
3100
0002
0103
2000
3100
0002
0103
,  // measure 61
0020
1030
0020
0031
0020
1030
0020
0031
,  // measure 62
2000
3100
0020
0031
2000
3100
0020
0031
,  // measure 63
0020
1030
0002
0103
0020
1030
0002
0103
,  // measure 64
1000
0010
0001
0010
1000
0100
0001
0100
,  // measure 65
1000
0010
0100
0001
0001
0001
0010
0010
,  // measure 66
0100
0100
1000
1000
,  // measure 67
0020
0000
0000
0000
0230
0000
0000
0000
0020
0000
0000
0330
0LL0
0000
0000
0000
,  // measure 68
2000
3100
0020
0031
1000
0100
0001
0000
,  // measure 69
0000
0001
0100
1000
0010
0001
0010
1000
,  // measure 70
0000
1100
0000
1000
0100
0010
0001
0000
,  // measure 71
1001
0000
2000
0000
3010
0100
0010
0000
,  // measure 72
2000
3100
0020
0031
1000
0010
0001
0000
,  // measure 73
0000
0001
0010
1000
0100
0001
0100
1000
,  // measure 74
0010
0100
0001
0100
0010
1000
0010
0100
,  // measure 75
0001
0000
0002
0000
0013
0100
1000
0000
;
