#VERSION:0.83;
#TITLE:BABY BABY GIMME YOUR WISH;
#SUBTITLE:;
#ARTIST:Porter Robinson vs DIVAS;
#TITLETRANSLIT:;
#SUBTITLETRANSLIT:;
#ARTISTTRANSLIT:;
#GENRE:;
#ORIGIN:;
#CREDIT:;
#BANNER:BABY BABY GIMME YOUR WISH.png;
#BACKGROUND:BABY BABY GIMME YOUR WISH-bg.png;
#PREVIEWVID:;
#JACKET:BABY BABY GIMME YOUR WISH-jacket.png;
#CDIMAGE:;
#DISCIMAGE:;
#LYRICSPATH:;
#CDTITLE:;
#MUSIC:BABY BABY GIMME YOUR WISH.ogg;
#OFFSET:-0.020000;
#SAMPLESTART:73.328056;
#SAMPLELENGTH:14.999991;
#SELECTABLE:YES;
#BPMS:0.000=95.000;
#STOPS:;
#DELAYS:;
#WARPS:;
#TIMESIGNATURES:0.000=4=4;
#TICKCOUNTS:0.000=4;
#COMBOS:0.000=1;
#SPEEDS:0.000=1.000=0.000=0;
#SCROLLS:0.000=1.000;
#FAKES:;
#LABELS:0.000=Song Start;
#BGCHANGES:;
#KEYSOUNDS:;
#ATTACKS:
;

//---------------dance-single - ----------------
#NOTEDATA:;
#CHARTNAME:;
#STEPSTYPE:dance-single;
#DESCRIPTION:;
#CHARTSTYLE:;
#DIFFICULTY:Challenge;
#METER:15;
#RADARVALUES:0.717321,0.961412,0.156143,0.230106,1.392964,611.000000,592.000000,19.000000,28.000000,88.000000,0.000000,5.000000,0.000000,0.000000,0.717321,0.961412,0.156143,0.230106,1.392964,611.000000,592.000000,19.000000,28.000000,88.000000,0.000000,5.000000,0.000000,0.000000;
#CREDIT:G.Shawn;
#NOTES:
// measure 0
0000
0000
0000
0000
,  // measure 1
1000
0000
0010
0000
1000
0000
0010
0000
0000
0000
0000
0000
0100
0000
0000
0001
0000
0000
0000
0000
0000
0001
0000
0000
0000
0000
0000
1000
0000
0000
0000
0000
0000
0100
0000
0000
0000
0000
0000
0000
0000
0000
0110
0000
0000
0000
0000
0000
,  // measure 2
0100
0000
1000
0000
0001
0000
0100
0000
0000
0000
0000
0000
0010
0000
0000
1000
0000
0000
0000
0000
0000
0010
0000
0000
0000
0000
0000
1000
0000
0000
0000
0000
0000
0001
0000
0000
0000
0000
0000
1000
0000
0000
0000
0000
0000
0001
0000
0000
,  // measure 3
0100
0000
0010
0000
1000
0000
0001
0000
0000
0000
0000
0000
0100
0000
0000
0010
0000
0000
0000
0000
0000
0100
0000
0000
0000
0000
0000
0001
0000
0000
0000
0000
0000
0010
0000
0000
0000
0000
0000
0000
0000
0000
0100
0000
0000
0000
0000
0000
,  // measure 4
1000
0000
0000
0000
0000
0000
0000
0000
0100
0000
0000
0000
0000
0000
0000
0000
0010
0000
0000
0000
0000
0000
0000
0000
0001
0000
0000
0000
0000
0000
0000
0000
0000
0000
0000
0000
0000
0000
0000
0000
0000
0000
0000
0000
0000
0000
0000
0000
1000
0000
0000
0000
0000
0000
0000
0000
0000
0000
0000
0000
0001
0000
0000
0000
0000
0000
0000
0000
0000
0000
0000
0000
0000
0000
0000
0000
0000
0000
0000
0000
0000
0000
0000
0000
0100
0000
0000
0000
0000
0000
0000
0000
0000
0000
0000
0000
0001
0000
0000
0000
0000
0000
0100
0000
0000
0000
0000
0000
0001
0000
0000
0000
0000
0000
0100
0000
0000
0000
0000
0000
0010
0000
0000
0000
0000
0000
0000
0000
0000
0000
0000
0000
1000
0000
0000
0000
0000
0000
0000
0000
0000
0000
0000
0000
0000
0000
0000
0000
0000
0000
0000
0000
0000
0000
0000
0000
1100
0000
0000
0000
0000
0000
0000
0000
0000
0000
0000
0000
0000
0000
0000
0000
0000
0000
0000
0000
0000
0000
0000
0000
0110
0000
0000
0000
0000
0000
0000
0000
0000
0000
0000
0000
,  // measure 5
0000
0000
0010
0001
0100
0010
0100
0001
2000
0000
0100
3100
0000
0110
0000
0020
,  // measure 6
0002
0000
0030
0000
0100
0000
0100
0000
0003
0000
0101
0000
0000
0000
0001
0000
0100
0001
0100
0001
0010
0000
0100
0000
0000
0000
1100
0000
0000
0000
0011
0000
,  // measure 7
0000
0000
1000
0100
MMMM
MMMM
MMMM
1000
0100
1000
0010
0100
MMMM
MMMM
MMMM
0001
,  // measure 8
0100
0000
0001
0000
1000
0000
0100
0000
MMMM
0000
MMMM
0000
MMMM
0000
0010
0001
0010
0000
0100
0000
1000
0000
1010
0000
0000
0000
0110
0000
0000
0000
0401
0000
,  // measure 9
0000
0000
0000
0001
0000
0001
0000
0001
0000
0000
0000
0000
1000
0000
0000
0000
,  // measure 10
0010
0000
0000
0000
0000
0001
0000
0010
0000
1000
0000
0010
0300
0001
0000
1000
,  // measure 11
0100
0000
0100
0000
0100
0000
0100
0000
0000
0000
0000
0000
0100
0000
0000
0100
0000
0000
0000
0000
0000
0100
0000
0000
0000
0000
0000
0100
0000
0000
0000
0000
0000
0100
0000
0000
0000
0000
0000
0000
0000
0000
0100
0000
0000
0000
0000
0000
,  // measure 12
0100
0100
0100
0100
0000
0000
0200
0000
0000
2300
0000
0000
3002
0000
0000
0203
0000
0000
0320
0000
0000
0230
0000
0000
,  // measure 13
0301
0100
0001
0100
0010
1000
0010
1000
0001
1000
0001
1000
0010
0100
0010
0100
,  // measure 14
0001
1000
0001
1000
0200
0000
0320
0000
0031
0010
0001
0100
0010
0100
0001
1000
,  // measure 15
0002
0000
0103
1000
0100
0000
0001
0000
0020
0000
1030
0010
0001
0000
0100
0000
,  // measure 16
0020
0000
0130
1000
0100
0000
0001
0000
0010
0000
0010
0000
0100
0000
0100
0000
,  // measure 17
1100
0000
0110
0000
0011
0000
0101
0101
,  // measure 18
0001
0000
0100
0010
1000
0000
0000
0000
1000
0000
0100
0010
0001
0000
1000
0000
,  // measure 19
1001
0000
0001
0100
0001
0000
1000
0000
1001
0000
1000
0010
1000
0000
0001
0000
,  // measure 20
1001
0010
0100
0001
1000
0100
0010
0001
,  // measure 21
1000
0000
0000
0010
0000
0000
0001
0000
0M00
0000
0000
0000
10M0
0000
0000
0100
0000
0000
0001
0000
M0M0
0000
0000
0000
0001
0000
0000
0100
00M0
0000
1000
0000
0000
0000
0000
0000
100M
0000
0000
0010
0M00
0000
0001
0000
0000
0000
0000
0000
,  // measure 22
0M01
0000
0000
0010
M000
0000
0100
0000
000M
0000
0000
0000
M10M
0000
0000
0010
0000
0000
1000
0000
0M00
0000
0000
0000
100M
0000
0000
0100
0000
0000
0010
0000
000M
0000
0000
0000
M100
0000
0000
0010
0000
0000
1000
0000
000M
0000
0000
0000
,  // measure 23
0M10
0000
0000
0001
M000
0000
0100
0000
M0M0
0000
0000
0000
010M
0000
0000
0010
0000
0000
1000
0000
0M00
0000
0000
0000
00M1
0000
0000
1000
00M0
0000
0100
0000
0000
0000
0000
0000
0M10
0000
0000
0001
M000
0000
0100
0000
0000
0000
0000
0000
,  // measure 24
001M
0000
0000
1000
0M0M
0000
0010
0000
0000
0000
0000
0000
01M0
0000
0000
0001
0MM0
0000
1000
0000
00M0
0000
0000
0000
010M
0000
0000
0010
000M
0000
0100
0000
000M
0100
0000
0000
10M0
0000
0000
0001
0M00
0000
1000
0000
0M00
0010
0000
0000
,  // measure 25
001M
0000
0000
0100
M000
0000
0010
0000
000M
0100
0000
0000
00M1
0000
0000
1000
0000
0000
0100
0000
0000
0010
0000
0000
0M01
0000
0000
1000
0000
0000
0001
0000
00M0
0100
0000
0000
0010
0000
0000
1000
000M
0000
0010
0000
0000
0100
0000
0000
,  // measure 26
0001
0000
0000
1000
00M0
0000
0001
0000
0M00
1000
0000
0000
01M0
0000
0000
0010
0000
0000
0004
0000
0M00
4000
0000
0000
00M0
0000
0000
0000
0000
0000
0003
0000
0000
0000
0000
0000
3010
0000
0000
0000
0000
0000
0100
0000
0000
0000
0000
0000
,  // measure 27
0100
0101
0000
0001
1000
0100
0100
0010
,  // measure 28
0001
0001
1000
2000
0000
3004
0000
0000
,  // measure 29
1003
0010
0100
0001
1000
0100
0020
0000
0000
0000
0000
0000
0031
0100
0010
1000
0010
0100
0002
0000
0000
0000
0000
0000
,  // measure 30
1003
0100
0010
0100
1000
0010
0100
0010
1000
0100
0010
0001
2000
0000
0000
0000
0000
0000
0010
0000
0000
0000
0000
0000
,  // measure 31
3010
0100
0001
1000
0100
0010
0200
0000
0000
0000
0000
0000
1300
0001
0100
0010
0100
0001
0020
0000
0000
0000
0000
0000
,  // measure 32
0031
0100
0001
0100
0001
0100
0010
1000
0010
1000
0010
1000
0001
1000
0001
1000
0001
1000
0010
0100
0010
0100
0010
0100
,  // measure 33
0010
1000
0001
1000
0100
0010
0002
0000
0000
0000
0000
0000
0103
0001
0010
0100
1000
0010
0200
0000
0000
0000
0000
0000
,  // measure 34
0301
1000
0001
1000
0100
0010
0001
1000
0001
1000
0010
0100
0010
0100
0001
1000
0100
0010
0001
1000
0001
1000
0010
0100
,  // measure 35
0001
0000
0100
0000
1000
0000
0100
0000
0001
0000
0100
0000
2000
0000
0000
0000
0000
0000
0000
0000
0000
0000
0000
0000
3001
0000
0010
0000
1000
0000
0010
0000
0001
0000
0010
0000
2000
0000
0000
0000
0000
0000
0000
0000
0000
0020
0000
0000
,  // measure 36
3000
0000
0000
0200
0030
0000
0000
0020
0300
0000
0000
2000
0030
0000
0000
0000
,  // measure 37
3001
0100
0001
0010
0100
1000
0001
1000
0100
0010
0001
1000
0001
0100
0010
1000
,  // measure 38
0010
0100
0010
1000
0001
1000
0100
0010
0001
1000
0001
0010
0100
0010
1000
0010
,  // measure 39
0001
0100
0010
1000
0010
0100
0001
0100
1000
0100
0001
0100
0001
0010
0100
1000
,  // measure 40
0001
1000
0001
1000
0100
1000
0010
0100
0001
0100
0001
0010
0100
1000
0001
1000
,  // measure 41
0001
0010
0100
1000
0100
0010
0001
1000
0001
0100
0010
1000
0010
0100
0001
1000
0001
1000
0100
0010
0001
1000
0001
0100
,  // measure 42
0010
0100
0001
1000
0001
0010
0100
1000
0001
0010
0100
1000
0100
1000
0001
1000
0100
0010
0001
1000
0001
0100
0010
1000
,  // measure 43
0010
0100
0010
1000
0001
1000
0100
0010
0001
1000
0001
0100
0010
1000
0010
0100
0001
1000
0001
0010
0100
1000
0001
0100
,  // measure 44
0010
0100
0010
1000
0001
1000
0100
0010
0001
1000
0001
0010
0100
1000
0001
0100
0010
1000
0010
0100
0001
1000
0001
0010
,  // measure 45
0100
1000
0001
0100
0010
1000
0010
0100
0001
0100
0010
1000
0004
0000
0000
0000
0000
0000
0000
0000
0000
0000
0000
0000
,  // measure 46
0000
0000
0003
0000
,  // measure 47
0100
0010
0100
0010
0000
0000
0010
0000
0000
0000
0000
0000
0010
0000
0000
0000
0000
0000
0010
0000
0000
0000
0000
0000
;
