#VERSION:0.83;
#TITLE:You Were Wrong. Go Back.;
#SUBTITLE:;
#ARTIST:OMORI;
#TITLETRANSLIT:;
#SUBTITLETRANSLIT:;
#ARTISTTRANSLIT:;
#GENRE:OMORI;
#ORIGIN:;
#CREDIT:[Ness];
#BANNER:OMORI - You Were Wrong Go Back.png;
#BACKGROUND:OMORI - You Were Wrong Go Back-bg.png;
#PREVIEWVID:;
#JACKET:OMORI - You Were Wrong Go Back-jacket.png;
#CDIMAGE:;
#DISCIMAGE:;
#LYRICSPATH:;
#CDTITLE:;
#MUSIC:OMORI - You Were Wrong Go Back.mp3;
#OFFSET:-0.043000;
#SAMPLESTART:40.034935;
#SAMPLELENGTH:12.799999;
#SELECTABLE:YES;
#BPMS:0.000=150.000;
#STOPS:;
#DELAYS:;
#WARPS:;
#TIMESIGNATURES:0.000=4=4;
#TICKCOUNTS:0.000=2;
#COMBOS:0.000=1;
#SPEEDS:0.000=1.000=0.000=0;
#SCROLLS:0.000=1.000;
#FAKES:;
#LABELS:0.000=Song Start;
#LASTSECONDHINT:83.274933;
#BGCHANGES:97.000=Angry.png=1.000=0=0=1===CrossFade_Faster==,
129.000=Engraged.png=1.000=0=0=1===CrossFade_Faster==,
161.000=Furious.png=1.000=0=0=1===CrossFade_Faster==,
199.000=Defeat.png=1.000=0=0=1=====,
201.500=Defeat.png=1.000=0=0=1===CrossFade_Fastest=#808080=,
99999=-nosongbg-=1.000=0=0=0 // don't automatically add -songbackground-
;
#KEYSOUNDS:;
#ATTACKS:
;

//---------------dance-single - ----------------
#NOTEDATA:;
#CHARTNAME:[Ness];
#STEPSTYPE:dance-single;
#DESCRIPTION:[Ness];
#CHARTSTYLE:;
#DIFFICULTY:Challenge;
#METER:9;
#RADARVALUES:0.760636,0.762311,0.304925,0.304925,0.709536,454.000000,428.000000,26.000000,26.000000,18.000000,0.000000,0.000000,0.000000,0.000000,0.760636,0.762311,0.304925,0.304925,0.709536,454.000000,428.000000,26.000000,26.000000,18.000000,0.000000,0.000000,0.000000,0.000000;
#CREDIT:[Ness];
#NOTES:
0000
0000
0000
0000
,
1001
0000
1000
0001
0100
0000
0010
0000
0000
1000
0100
0000
0010
0001
1000
0100
,
0010
0000
0001
1000
0010
0000
0100
0000
0000
0001
0010
0000
0100
1000
0001
0000
,
1000
0000
0100
0010
0001
0000
0100
0000
0000
0010
1000
0000
0001
0100
0010
1000
,
0100
0000
0010
0001
1000
0000
0010
0000
0000
0100
0001
0000
0010
0100
0010
0000
,
0001
0000
1000
0100
0010
0000
0001
0000
0000
1000
0010
0000
0100
0001
1000
0010
,
0100
0000
0001
1000
0100
0000
0010
0000
0000
0001
1000
0000
0010
0100
0001
0000
,
1000
0000
0100
0010
0100
0000
1000
0000
0000
0010
0100
0000
0001
0010
0100
1000
,
0001
0000
1000
0100
1000
0000
0001
0000
0000
0100
0001
0000
0010
0100
1000
0000
,
0010
0100
0001
1000
0100
0000
0010
0000
0000
0001
0100
0000
0010
1000
0100
1000
,
0010
0000
0100
0001
0010
0000
0100
0000
0000
0010
0001
0000
1000
0100
1000
0000
,
0001
1000
0010
0100
0001
0000
1000
0000
0000
0100
1000
0000
0010
0100
0010
1000
,
0001
0000
0010
0001
1000
0000
0100
0010
0001
1000
0010
0000
0100
0001
1000
0000
,
1000
0100
0010
0001
0010
0000
0100
0000
0000
1000
0010
0000
0100
0001
0100
0010
,
1000
0000
0001
0100
0010
0000
1000
0000
0000
0001
0010
0000
0100
1000
0100
0000
,
1000
0000
0001
1000
0100
0000
0010
0000
0000
0001
1000
0000
0010
0100
0001
1000
,
0100
0000
0010
0001
0100
0000
0010
0000
0000
1000
0001
0000
0010
0100
1000
0100
,
0010
0001
1000
0100
0010
0000
0001
0000
0000
1000
0100
0000
1000
0001
0100
0010
,
1000
0000
0001
1000
0100
0000
0010
0000
0000
0001
1000
0000
0010
0100
0001
0000
,
1000
0100
0010
0001
0100
0000
0010
0000
0000
0100
0001
0000
0010
0100
0010
0001
,
0100
0000
0010
1000
0100
0000
0010
0001
1000
0100
1000
0000
0001
1000
0010
0000
,
0100
0001
1000
0100
0010
0000
0001
0000
0000
1000
0100
0000
1000
0001
0100
0010
,
1000
0000
0001
1000
0100
0000
0010
0000
0000
0001
1000
0000
0010
1000
0002
0000
,
0000
0013
1000
0010
0001
1000
0100
0010
,
0001
0101
1001
1010
,
1001
0000
1000
0010
1000
0000
0001
0000
0000
1000
0200
0000
0010
0300
0200
0000
,
1000
0300
1000
0001
0010
0000
0200
0000
0000
1300
0010
0000
0100
0000
0001
1000
,
0100
0000
0010
0001
0100
0000
0010
0000
0000
1000
0020
0000
0100
0030
0200
0000
,
0001
0300
0001
1000
0100
0000
0010
0000
0000
0001
0010
0000
0100
0000
0100
0000
,
1000
0000
1000
0001
0100
0000
0010
0000
0000
0010
2000
0000
0001
3000
2000
0000
,
0100
3000
0010
0001
0100
0000
0020
0000
0000
1030
0001
0000
1000
0000
0100
0010
,
0001
0000
0010
0100
0010
0000
0002
0000
0000
1003
0100
0000
0010
0000
0001
0000
,
0011
1001
1100
0110
,
1001
0000
0100
0001
0010
0000
0100
0000
0000
1000
0200
0000
0010
0300
0002
0000
,
0100
0003
0010
1000
0100
0000
0020
0000
0000
0031
1000
0000
0100
0000
0002
0000
,
0000
0000
0103
1000
0100
0000
0010
0000
0000
0001
0200
0000
0010
0300
0200
0000
,
0001
0300
0001
1000
0100
0000
1000
0000
0000
0001
0100
0000
0010
0000
1000
0000
,
0001
0000
0010
0001
0100
0000
0010
0000
0000
1000
0200
0000
0010
0000
0300
0000
,
0001
0000
0100
0010
1000
0000
0100
0000
0020
0000
0000
0000
0031
0000
1000
0010
,
0100
0000
0010
1000
0100
0000
0010
0000
0001
0000
1000
0000
0100
0000
0010
0000
,
0011
1001
1100
0110
,
2001
0000
0000
0000
001M
0000
0000
0001
0001
0000
0001
0000
3M10
0000
0000
0000
,
0102
0000
0000
0000
M010
0000
0000
1000
1003
0000
1001
0000
0M00
0000
1020
0000
,
0000
0000
0000
0000
010M
0000
0000
1000
1000
0000
0000
0000
M130
0000
0000
0000
,
0210
0000
0000
0000
00M1
0000
0000
0010
0310
0000
1010
0000
0M00
0000
1002
0000
,
0000
0000
0000
0000
M010
0000
0000
0100
0100
0000
0000
0000
0M13
0000
0000
0000
,
0120
0000
0000
0000
M001
0000
0000
0100
0130
0000
1001
0000
00M0
0000
1100
0000
,
0100
1000
0001
0100
0M0M
0100
0010
0100
,
2002
0000
0000
3003
,
1001
0000
0000
0000
,
0000
0000
0000
0000
,
0000
0000
0000
0000
,
MMMM
0000
0000
0000
;

//---------------dance-single - ----------------
#NOTEDATA:;
#CHARTNAME:[Ness];
#STEPSTYPE:dance-single;
#DESCRIPTION:[Ness];
#CHARTSTYLE:;
#DIFFICULTY:Hard;
#METER:8;
#RADARVALUES:0.566288,0.488466,0.574665,0.340108,0.140734,338.000000,289.000000,49.000000,29.000000,0.000000,0.000000,0.000000,0.000000,0.000000,0.566288,0.488466,0.574665,0.340108,0.140734,338.000000,289.000000,49.000000,29.000000,0.000000,0.000000,0.000000,0.000000,0.000000;
#CREDIT:[Ness];
#NOTES:
0000
0000
0000
0000
,
1000
0100
1000
0010
0000
0001
0100
0010
,
0000
1000
0010
0100
0000
0101
0000
1100
,
0100
1000
0001
0100
0000
0010
0001
1000
,
0000
0010
1000
0001
0000
1010
0000
0110
,
1000
0100
0010
0001
0000
1000
0010
1000
,
0000
0001
0100
0010
0000
1100
0000
0101
,
0010
0001
0100
0010
0000
1000
0001
1000
,
2100
0000
0000
0010
0000
0000
3001
0000
0000
0000
1001
0000
0000
0000
0000
0000
,
1000
0100
1000
0100
1000
0000
0001
0000
0000
0000
0010
0000
0100
0000
1000
0000
,
0000
0010
1000
0001
0000
1000
0000
0100
,
0010
0001
0010
0001
0010
0000
0100
0000
0000
0000
1000
0000
0001
0000
0100
0000
,
0000
0000
0010
0000
1000
0000
0001
0100
0001
0000
1000
0000
0000
0000
0010
0000
,
0100
0001
0100
0001
0100
0000
0010
0000
0000
0000
1000
0000
0100
0000
1000
0000
,
0000
0001
0010
0100
0000
0010
0000
0001
,
1000
0010
1000
0010
1000
0000
0100
0000
0000
0000
0010
0000
0001
0000
1000
0000
,
0102
0000
0000
0010
0000
0000
1003
0000
0000
0000
1001
0000
0000
0000
0000
0000
,
0010
0100
0010
0100
0010
0000
1000
0000
0000
0000
0001
0000
1000
0000
0100
0000
,
0000
0010
0001
0100
0000
0001
0000
1000
,
0010
1000
0010
1000
0010
0000
0100
0000
0000
0000
0001
0000
1000
0000
0100
0000
,
0000
0000
0010
0000
0001
0000
0100
0001
1000
0000
0100
0000
0000
0000
0010
0000
,
0001
1000
0001
1000
0001
0000
0010
0000
0000
0000
0100
0000
1000
0000
0001
0000
,
0000
1000
0010
0100
0000
0101
0000
1001
,
0000
1000
0010
0100
0001
0010
0100
1000
,
1100
0110
0011
0101
,
2002
0003
0100
0000
3010
0100
0001
0021
,
0000
0130
2000
0001
3000
0100
0020
0000
,
1030
0001
0010
0100
0000
0110
0000
1020
,
0000
1030
0100
0001
0000
1000
0200
0000
,
1300
0010
0100
0201
0300
1020
0030
2100
,
0000
3000
0001
1002
0003
0001
1000
0010
,
0200
0001
0000
1000
0000
0010
0300
0100
,
0110
1010
0101
1100
,
2002
3000
0100
0000
0013
0100
1000
1020
,
0000
0130
0002
1000
0003
0100
0000
0201
,
0000
0301
1000
0100
0000
0110
0000
0011
,
0001
0010
0100
1000
0000
0001
0200
0000
,
0301
0010
0100
1100
0000
0010
0011
0000
,
1001
0000
0001
1000
0010
0000
0100
0001
,
2000
0000
3001
0010
0100
1000
0001
0100
,
0110
1001
1100
0101
,
1002
0000
0000
0000
0013
0000
0000
0001
1000
0000
0100
0000
1000
0000
0000
0000
,
0020
0000
0000
0000
0130
0000
0000
0001
1000
0000
1100
0000
0000
0000
0021
0000
,
0000
0000
0000
0000
0130
0000
0000
1000
0010
0000
0100
0000
0001
0000
0000
0000
,
2000
0000
0000
0000
3001
0000
0000
0010
0100
0000
1001
0000
0000
0000
1200
0000
,
0000
0000
0000
0000
0310
0000
0000
0001
0100
0000
0001
0000
1000
0000
0000
0000
,
0002
0000
0000
0000
0013
0000
0000
0100
1000
0000
1010
0000
0000
0000
0101
0000
,
0100
0001
1000
0100
0000
0010
0100
0010
,
2002
0000
0000
3003
,
1001
0000
0000
0000
;

//---------------dance-single - ----------------
#NOTEDATA:;
#CHARTNAME:[Ness];
#STEPSTYPE:dance-single;
#DESCRIPTION:[Ness];
#CHARTSTYLE:;
#DIFFICULTY:Medium;
#METER:6;
#RADARVALUES:0.392046,0.402266,0.480843,0.293197,0.011728,234.000000,193.000000,41.000000,25.000000,0.000000,0.000000,0.000000,0.000000,0.000000,0.392046,0.402266,0.480843,0.293197,0.011728,234.000000,193.000000,41.000000,25.000000,0.000000,0.000000,0.000000,0.000000,0.000000;
#CREDIT:[Ness];
#NOTES:
0000
0000
0000
0000
,
0101
0001
0010
1000
,
0010
0100
0101
0000
,
1100
0001
0010
0100
,
1000
0010
0100
0110
,
1001
1000
0010
0100
,
0001
0010
1001
0000
,
1010
1000
0100
0010
,
0001
0000
0000
1000
0000
0000
0100
0000
0000
0000
0110
0000
0000
0000
0000
0000
,
1001
0100
0001
0010
,
0001
0100
1000
0000
0010
0000
0100
0000
,
1010
0100
0010
0001
,
1000
0100
0001
0000
0010
0000
0100
0000
,
0110
0001
1000
0001
,
0010
0001
0100
0000
1000
0000
0100
0000
,
1001
0100
1000
0010
,
0100
0000
0000
0001
0000
0000
1000
0000
0000
0000
1001
0000
0000
0000
0000
0000
,
0010
1000
1100
1100
,
0100
0000
0001
0000
0100
0010
0100
0000
,
0001
0010
0011
0011
,
1000
0000
0010
1000
0001
0200
0000
0300
,
0001
1000
1010
1010
,
0100
0000
1000
0000
0010
0100
0001
0000
,
0010
0001
1000
0100
,
1100
0101
1100
0101
,
2002
0000
0000
0000
3003
0010
0000
2000
,
0000
0000
3001
0020
0000
0031
1000
0000
,
0200
0000
0310
0001
0000
1000
0000
0002
,
0000
0000
0013
0100
0000
1000
0001
0000
,
2000
0000
3010
1000
0000
0010
0000
0200
,
0000
0000
0301
0020
0000
0130
1000
0001
,
0100
0010
0000
0200
0000
0000
0300
0000
,
0101
1100
0101
1100
,
2002
0000
0000
0000
3003
0010
0000
0002
,
0000
0000
1003
0010
0000
0100
0000
0202
,
0000
0000
0303
0000
0000
2000
0000
3001
,
0020
0000
0000
0000
0030
0100
1000
0000
,
0002
0000
0013
0200
0000
1300
0001
0000
,
0200
0000
0300
0010
1000
0000
0001
0100
,
0002
0000
0003
1000
0010
0100
0001
1000
,
0020
0030
0200
0300
,
1001
0010
0001
0010
,
1001
0000
0010
0000
0000
1100
0000
0101
,
0000
1000
0001
0100
,
1001
0000
0010
0000
0000
0011
0000
1010
,
0000
1000
0100
0010
,
1001
0000
0100
0000
0000
0101
0000
1100
,
0100
1000
0100
1000
0000
0001
1000
0002
,
0000
0000
0000
0003
,
1001
0000
0000
0000
;

//---------------dance-single - ----------------
#NOTEDATA:;
#CHARTNAME:[Ness];
#STEPSTYPE:dance-single;
#DESCRIPTION:[Ness];
#CHARTSTYLE:;
#DIFFICULTY:Easy;
#METER:4;
#RADARVALUES:0.244610,0.287333,0.046911,0.164190,0.000000,146.000000,142.000000,4.000000,14.000000,0.000000,0.000000,0.000000,0.000000,0.000000,0.244610,0.287333,0.046911,0.164190,0.000000,146.000000,142.000000,4.000000,14.000000,0.000000,0.000000,0.000000,0.000000,0.000000;
#CREDIT:[Ness];
#NOTES:
// measure 0
0000
0000
0000
0000
,  // measure 1
0100
0001
0000
1000
,  // measure 2
0000
0100
0000
0010
,  // measure 3
0010
0001
0000
1000
,  // measure 4
0000
0001
0000
0100
,  // measure 5
1000
0100
0000
0010
,  // measure 6
0000
1000
0000
0001
,  // measure 7
0010
0010
0000
0100
,  // measure 8
0100
1000
0001
0100
,  // measure 9
0100
0010
0000
1000
,  // measure 10
0100
0010
0000
0001
,  // measure 11
1000
0001
0000
0100
,  // measure 12
0001
0001
1000
0001
,  // measure 13
0100
0010
0000
1000
,  // measure 14
0100
1000
0000
0001
,  // measure 15
0010
0100
0000
0010
,  // measure 16
0001
1000
0100
0100
,  // measure 17
0010
0100
0000
1000
,  // measure 18
0001
1000
0000
0010
,  // measure 19
1000
0100
0000
1000
,  // measure 20
0100
0001
0000
0100
,  // measure 21
0010
0001
0000
1000
,  // measure 22
0001
0100
0000
0010
,  // measure 23
1000
1000
0001
0001
,  // measure 24
1000
0100
0001
0100
,  // measure 25
2002
0000
3003
0010
,  // measure 26
1000
0100
0001
0010
,  // measure 27
0100
0100
0010
0010
,  // measure 28
0001
1000
0001
1000
,  // measure 29
0100
0010
0000
0001
,  // measure 30
0100
0010
0000
0100
,  // measure 31
1000
0100
0001
0100
,  // measure 32
0010
0010
0100
0100
,  // measure 33
1001
0100
0001
0100
,  // measure 34
1000
0100
0010
0100
,  // measure 35
0002
0000
1003
0001
,  // measure 36
0020
0000
0130
1000
,  // measure 37
0100
0100
0010
0010
,  // measure 38
0002
0003
1000
0001
,  // measure 39
0200
0300
0010
1000
,  // measure 40
0002
0003
2000
3000
,  // measure 41
2002
0000
0000
3003
,  // measure 42
0020
0000
0000
0000
0030
0100
0000
0100
,  // measure 43
0000
0000
0000
0000
,  // measure 44
0002
0000
0000
0000
0003
1000
0000
1000
,  // measure 45
0000
0000
0000
0000
,  // measure 46
0200
0000
0000
0300
,  // measure 47
0010
0001
1000
0001
,  // measure 48
0200
0000
0000
0300
,  // measure 49
1001
0000
0000
0000
;

//---------------dance-single - ----------------
#NOTEDATA:;
#CHARTNAME:[Ness];
#STEPSTYPE:dance-single;
#DESCRIPTION:[Ness];
#CHARTSTYLE:;
#DIFFICULTY:Beginner;
#METER:1;
#RADARVALUES:0.170892,0.229866,0.011728,0.000000,0.000000,102.000000,101.000000,1.000000,0.000000,0.000000,0.000000,0.000000,0.000000,0.000000,0.170892,0.229866,0.011728,0.000000,0.000000,102.000000,101.000000,1.000000,0.000000,0.000000,0.000000,0.000000,0.000000,0.000000;
#CREDIT:[Ness];
#NOTES:
// measure 0
0000
0000
0000
0000
,  // measure 1
0001
0000
0001
0000
,  // measure 2
0001
0000
0100
0000
,  // measure 3
1000
0000
1000
0000
,  // measure 4
1000
0000
0100
0000
,  // measure 5
0001
0000
0001
0000
,  // measure 6
0001
0000
0100
0000
,  // measure 7
1000
0000
1000
0000
,  // measure 8
0010
0000
0100
0000
,  // measure 9
0001
0000
0001
0000
,  // measure 10
1000
0000
1000
0000
,  // measure 11
0100
0000
0100
0000
,  // measure 12
0010
0000
0010
0000
,  // measure 13
0001
0000
0001
0000
,  // measure 14
1000
0000
1000
0000
,  // measure 15
0010
0000
0010
0000
,  // measure 16
0100
0000
0100
0000
,  // measure 17
0001
0000
0001
0000
,  // measure 18
1000
0000
1000
0000
,  // measure 19
0100
0000
0100
0000
,  // measure 20
1000
0000
0001
0000
,  // measure 21
0100
0000
0100
0000
,  // measure 22
0100
0000
0010
0000
,  // measure 23
1000
0000
0100
0000
,  // measure 24
0010
0010
0010
0010
,  // measure 25
0010
0000
0000
0001
,  // measure 26
0001
0000
0100
0000
,  // measure 27
1000
1000
0000
1000
,  // measure 28
0000
0001
0000
0001
,  // measure 29
0001
0000
0010
0000
,  // measure 30
0100
0000
0010
0000
,  // measure 31
0001
0001
0001
0000
,  // measure 32
1000
1000
1000
1000
,  // measure 33
1000
0000
0000
0010
,  // measure 34
0010
0000
0100
0000
,  // measure 35
0001
0000
0000
0010
,  // measure 36
0010
0000
0000
0100
,  // measure 37
0100
0000
0100
0000
,  // measure 38
1000
0000
0001
0000
,  // measure 39
0100
0000
0010
0000
,  // measure 40
1000
1000
1000
1000
,  // measure 41
1000
0000
0000
0000
,  // measure 42
0001
0000
0000
0010
,  // measure 43
0010
0000
0000
0000
,  // measure 44
0100
0000
0000
0010
,  // measure 45
0010
0000
0000
0000
,  // measure 46
0001
0000
0000
0100
,  // measure 47
0100
0000
0010
0000
,  // measure 48
0100
0000
0000
0000
,  // measure 49
1001
0000
0000
0000
;
