#TITLE:White Surf Style 6;
#SUBTITLE:;
#ARTIST:OMORI;
#TITLETRANSLIT:;
#SUBTITLETRANSLIT:;
#ARTISTTRANSLIT:;
#GENRE:OMORI;
#CREDIT:[Ness];
#BANNER:OMORI - White Surf Style 6.png;
#BACKGROUND:OMORI - White Surf Style 6-bg.png;
#LYRICSPATH:;
#CDTITLE:;
#MUSIC:OMORI - White Surf Style 6.mp3;
#OFFSET:-0.040000;
#SAMPLESTART:0.011938;
#SAMPLELENGTH:14.222222;
#LASTBEATHINT:219.000000;
#SELECTABLE:YES;
#BPMS:0.000000=135.000000
;
#STOPS:
;
#BGCHANGES:209.875=Defeat1.png=1.000=0=0=1=====,
211.667=Defeat2.png=1.000=0=0=1===CrossFade_Fastest==,
99999=-nosongbg-=1.000=0=0=0 // don't automatically add -songbackground-
;
#KEYSOUNDS:;
#ATTACKS:;

//---------------dance-single - ----------------
#NOTES:
     dance-single:
     :
     Challenge:
     10:
     0.658481,0.747127,0.192057,0.859202,0.646929,456.000000,437.000000,19.000000,85.000000,124.000000,0.000000,0.658481,0.747127,0.192057,0.859202,0.646929,456.000000,437.000000,19.000000,85.000000,124.000000,0.000000:
0000
0000
0000
0000
,
0000
0000
0000
0000
,
0000
0000
0000
0000
,
0000
0000
0000
0000
,
1M0M
0000
0010
1M0M
0000
0010
1M0M
0000
M0M1
0000
0100
M0M1
0000
0100
M0M1
0000
,
M01M
0000
0100
10MM
0000
0100
10MM
0000
0020
0000
M100
0000
M130
0001
0100
0000
,
0MM1
0000
0001
1MM0
0000
0001
1MM0
0000
0M1M
0000
1000
0MM0
1001
0000
1MM1
0000
,
0001
0000
0010
M10M
0000
0010
M10M
0000
1000
0000
0001
0MM0
1001
0000
0000
0000
,
0110
0000
1000
0020
0M0M
0000
1030
0000
0001
0000
0100
2000
00MM
0000
3100
0000
,
0010
0000
1000
0002
0MM0
0000
0013
0000
0100
0000
0020
0000
MM01
0000
0031
0000
,
1000
0000
01MM
1000
0000
01MM
1000
0000
0001
0000
M1M0
0001
0000
M1M0
0001
0000
,
1000
0000
0010
010M
0000
0001
10M0
0000
0100
0000
0010
0001
1000
0010
0100
0000
,
0001
0000
0010
0200
M00M
0000
0310
0000
0001
0000
1000
0200
00MM
0000
0310
0000
,
0001
0000
1000
0020
0M0M
0000
0130
0000
0001
0000
2000
0000
01MM
0000
3100
0000
,
0010
0000
0001
1MM0
0000
0001
1MM0
0000
0010
0000
0100
M0M1
0000
0100
M0M1
0000
,
1000
0000
0010
M100
0000
0001
M010
0000
0100
0000
1000
0001
0100
0010
1000
0000
,
0001
0000
0010
0200
00MM
0000
1300
0000
1000
0000
0001
0200
M0M0
0000
0310
0000
,
0010
0000
0001
0020
MM00
0000
1030
0000
1000
0000
0002
0000
M1M0
0000
0103
0000
,
0010
0000
1000
010M
0000
0010
M001
0000
0010
0000
0100
10M0
0000
0001
M100
0000
,
0010
0000
1000
001M
0000
0100
00M1
0000
1000
0000
0001
1000
0010
0100
0001
0010
,
0100
0000
1000
0002
0MM0
0000
1003
0000
0020
0000
0100
0000
M13M
0000
1000
0000
,
0100
0000
0010
0200
M00M
0000
1300
0000
0001
0000
2000
0000
01MM
0000
3100
0000
,
0010
0000
0001
M100
0000
0010
100M
0000
0010
0000
0100
00M1
0000
1000
010M
0010
,
0001
0000
1000
0M10
0000
0100
00M1
0000
1000
0010
0100
0001
0010
0100
1000
0001
,
0200
0000
0020
0300
2000
0030
0002
3000
0200
0003
0020
0300
2000
0030
0002
3000
,
0200
0003
0020
0300
2000
0030
0002
3000
0200
0003
0020
0300
0002
0030
0020
0003
,
0200
0030
2000
0300
0200
3000
0020
0300
2000
0030
0200
3000
0020
0300
0001
1030
,
0002
0000
0020
0003
0200
0030
1000
0300
1000
0000
0001
0010
0000
1000
0010
0000
,
0100
0000
0001
1000
0000
0100
1000
0000
0010
0000
1000
0001
0000
0010
0001
0100
,
0010
0000
1000
0100
0000
0010
0001
0000
0100
0000
0000
0101
0000
0000
1100
0000
,
1001
0000
0001
1000
0000
0010
0100
0000
0001
0000
1000
0100
0000
0010
0001
0000
,
0010
0000
0100
1000
0000
0010
0100
0000
0001
0000
0000
1000
0000
0000
1001
0000
,
0100
0000
0010
1000
0000
1000
0010
0000
0100
0000
0001
0000
0010
0000
0100
0000
,
0010
0000
0001
0010
0000
0010
0001
0000
1000
0000
0010
0000
0100
0001
1000
0000
,
0100
0000
0100
0010
0000
0001
0010
0000
0001
0000
1000
0001
0000
0100
0010
0000
,
1000
0000
1000
0100
0000
0010
0001
0000
1000
0000
0010
0100
0010
0000
1000
0000
,
0100
0000
0010
1000
0000
1000
0100
0000
1000
0000
0010
0000
0100
0000
0001
0000
,
0010
0000
0100
1000
0000
0010
0100
0000
0001
0000
1000
0000
0100
0010
0001
0000
,
0100
0000
1000
0100
0000
0010
0100
0000
0001
0000
0100
0001
0000
1000
0100
0000
,
1000
0010
1000
0001
0010
0100
0010
0001
0100
0001
1000
0100
0010
0001
1000
0010
,
0200
0000
0002
0300
0020
0003
0200
0030
2000
0300
0002
3000
0020
0003
0200
0030
,
2000
0300
0002
3000
0020
0003
0100
1030
0200
0000
0020
0300
0002
0030
2000
0003
,
0200
3000
0002
0300
2000
0003
0020
3000
0002
0030
0200
0003
0020
0300
2000
0030
,
0002
3000
0200
0003
2000
0300
0002
3000
0013
0100
0001
1000
0001
0000
0001
0000
,
M100
0000
0001
1000
0000
0010
0100
0000
00M1
0000
1000
0100
0000
0010
0001
0000
,
1M00
0000
0001
0000
0100
0020
0000
0000
203M
0000
0000
0000
0M01
0000
3020
0000
,
023M
0000
0000
0301
0000
0000
1001
0000
0M20
0000
0000
1030
0000
0000
1100
0000
,
020M
0000
0000
0310
0000
0000
0011
0000
M002
0000
0000
1003
0000
0000
0110
0000
,
1001
0000
1000
0010
0M00
1000
0001
0000
0010
0000
0100
1000
00M0
0001
0100
0000
,
0010
0000
1000
0000
0M01
0020
0000
0000
0230
0000
0000
0000
100M
0000
0320
0000
,
0032
0000
0000
1003
0M00
0000
1001
0000
0020
0000
0000
0130
000M
0000
0110
0000
,
0002
0000
0000
0013
M000
0000
0110
0000
1001
0000
0000
2M2M
0000
0000
3030
0000
,
0110
0000
0000
0000
,
0000
0000
0000
0000
,
0000
0000
0000
MMMM
;

//---------------dance-single - ----------------
#NOTES:
     dance-single:
     :
     Hard:
     8:
     0.456316,0.499348,0.060650,0.374006,0.262815,316.000000,310.000000,6.000000,37.000000,0.000000,0.000000,0.456316,0.499348,0.060650,0.374006,0.262815,316.000000,310.000000,6.000000,37.000000,0.000000,0.000000:
0000
0000
0000
0000
,
0000
0000
0000
0000
,
0000
0000
0000
0000
,
0000
0000
0000
0000
,
1000
0000
0000
0010
0000
0000
0100
0000
0001
0000
0000
0010
0000
0000
0100
0000
,
1000
0000
0000
0010
0000
0000
0100
0000
0001
0000
1000
0000
0010
0000
0100
0000
,
0001
0000
0000
1000
0000
0000
0100
0000
1000
0000
0010
0000
0100
0000
0100
0000
,
0001
0000
0000
0010
0000
0000
0100
0000
1000
0000
0000
0000
1001
0000
0000
0000
,
0010
0000
1000
0020
0000
0000
0130
0000
0001
0000
0000
0000
1001
0000
0000
0000
,
0010
0000
0100
2000
0000
0000
3001
0000
0100
0000
0010
0000
0010
0000
0000
0000
,
1000
0000
0000
1000
0000
0000
0100
0000
0001
0000
0000
0001
0000
0000
0100
0000
,
1000
0000
0000
0010
0000
0000
0100
0000
0001
0000
1000
0000
0100
0000
0010
0000
,
0001
0000
0010
0200
0000
0000
0310
0000
0001
0000
0000
0000
0100
0000
0000
0000
,
0010
0000
1000
0020
0000
0000
0130
0000
0001
0000
1000
0000
0100
0000
0100
0000
,
0010
0000
0000
0010
0000
0000
0001
0000
1000
0000
0000
1000
0000
0000
0010
0000
,
0100
0000
0000
0100
0000
0000
0001
0000
0010
0000
0100
0000
1000
0000
0000
0000
,
0001
0000
0010
0200
0000
0000
1300
0000
0001
0000
0000
0000
0100
0000
0000
0000
,
0010
0000
1000
0020
0000
0000
0130
0000
0001
0000
1000
0000
0100
0000
0100
0000
,
0010
0000
0000
0001
0000
0000
0100
0000
0001
0000
0000
1000
0000
0000
0100
0000
,
0010
0000
0000
0001
0000
0000
0100
0000
0010
0000
1000
0000
0001
0000
0010
0000
,
0100
0000
1000
0002
0000
0000
1003
0000
0010
0000
0100
0000
0100
0000
0001
0000
,
1000
0000
0100
2000
0000
0000
3001
0000
0010
0000
0100
0000
1000
0000
1000
0000
,
0001
0000
0000
0100
0000
0000
0010
0000
1000
0000
0000
0100
0000
0000
0010
0000
,
0001
0000
0000
1000
0000
0000
0010
0000
0100
0000
0001
0000
1000
0000
0100
0000
,
0010
0001
0200
0000
0301
1000
0020
0000
,
0130
0001
2000
0000
3100
0010
0002
0000
,
1003
0100
2000
0000
3001
0010
0200
0000
,
1300
0000
0001
0000
0200
0000
0000
0000
0310
0000
0000
1000
0000
0000
0001
0000
,
0100
0010
2000
0000
3100
0010
0200
0000
,
0310
0001
2000
0000
3001
0100
0020
0000
,
1030
0100
2000
0000
3001
0010
0200
0000
,
0310
0000
0001
0000
0100
0000
0000
0000
0001
0000
0000
1000
0000
0000
0100
0000
,
0010
0000
0001
0100
0000
0001
0100
0000
0001
0000
0000
0000
1000
0000
0000
0000
,
0010
0000
0100
0001
0000
0100
0001
0000
1000
0000
0010
0000
0100
0000
0000
0000
,
0101
0000
0000
0001
0000
0000
0001
0000
1000
0000
0000
1000
0000
0000
1000
0000
,
0010
0000
0000
0100
0000
0000
0010
0000
1000
0000
0001
0000
0100
0000
0010
0000
,
1000
0000
0100
0010
0000
0100
0010
0000
0001
0000
1000
0000
0010
0000
0100
0000
,
0001
0000
1000
0100
0000
1000
0100
0000
0010
0000
0001
0000
0100
0000
0000
0000
,
1010
0000
0000
1000
0000
0000
1000
0000
0001
0000
0000
0001
0000
0000
0001
0000
,
0010
0100
1000
0001
0100
0010
1000
0001
,
0100
0010
2000
0000
3010
0100
0002
0000
,
1003
0100
0010
0100
1000
0001
2000
0000
,
3010
0100
0002
0000
0013
0100
0020
0000
,
0031
1000
0100
0010
0001
0100
0101
0000
,
0200
0000
0000
0001
0000
0000
0301
0000
1000
0000
0000
0100
0000
0000
0010
0000
,
0001
0000
0000
0000
0100
0020
0000
0000
1000
0000
0000
0000
1030
0000
0002
0000
,
0020
0000
0000
0000
0000
0000
0033
0000
0100
0000
0000
1000
0000
0000
0001
0000
,
0100
0000
0000
0010
0000
0000
1000
0000
0002
0000
0000
2003
0000
0000
3100
0000
,
0020
0000
0000
0100
0000
0000
0130
0000
0010
0000
0000
0001
0000
0000
1000
0000
,
0010
0000
0000
0000
0100
0002
0000
0000
1000
0000
0000
0000
1003
0000
0020
0000
,
0200
0000
0000
0000
0000
0000
0330
0000
0001
0000
0000
0010
0000
0000
0100
0000
,
1000
0000
0000
0001
0000
0000
0100
0000
0002
0000
0000
1003
0000
0000
0000
0000
,
1001
0000
0000
0000
;

//---------------dance-single - ----------------
#NOTES:
     dance-single:
     :
     Medium:
     6:
     0.324908,0.367941,0.141516,0.242598,0.030325,225.000000,211.000000,14.000000,24.000000,0.000000,0.000000,0.324908,0.367941,0.141516,0.242598,0.030325,225.000000,211.000000,14.000000,24.000000,0.000000,0.000000:
0000
0000
0000
0000
,
0000
0000
0000
0000
,
0000
0000
0000
0000
,
0000
0000
0000
0000
,
1000
0100
0001
0100
,
0010
0000
0000
0000
0001
1000
0000
0000
0200
0000
0000
0000
0300
0000
0010
0000
,
0010
0001
0100
0100
,
0010
0000
0000
0000
1000
0000
0000
0000
0001
0000
0000
0010
0000
0000
0000
0000
,
0100
0000
0100
0000
1000
0100
1000
0000
,
0001
0000
0001
0000
1000
0001
0100
0000
,
0010
0010
1000
1100
,
0010
0100
0001
1001
,
0001
0000
0010
0000
0100
1000
0100
0000
,
0010
0000
0001
0000
1000
0001
0010
0000
,
0100
0100
0010
0110
,
0001
1000
0100
1001
,
0010
0000
0010
0000
0001
0100
0001
0000
,
1000
0000
0100
0000
1000
0010
0100
0000
,
0010
0010
1000
1001
,
0010
0001
0100
1001
,
0010
0000
0100
0000
0010
1000
1000
0000
,
0001
0000
0100
0000
0010
0100
0100
0000
,
0001
0010
0001
1100
,
1000
0100
1000
0000
0001
0010
0100
0000
,
0020
0000
0031
0000
1000
0001
0100
0000
,
0020
0000
0130
0000
0001
1000
0001
0000
,
2000
0000
3100
0000
0010
0100
1000
0000
,
0002
0000
0013
0000
0100
0010
0001
0000
,
2000
0000
3001
0000
0100
0010
0100
0000
,
0002
0000
0013
0000
0100
1000
0100
0000
,
0020
0000
0031
0000
1000
0001
1000
0000
,
0020
0130
0002
1003
,
2100
0010
0100
3100
,
0012
0100
0010
0013
,
0001
0100
0001
0000
1000
0100
1000
0000
,
0001
0010
0001
0000
1000
0010
1000
0000
,
0102
0010
0100
0103
,
2010
0100
0010
3010
,
1000
0001
0100
0000
0001
1000
0010
0000
,
0100
0001
1000
0000
0001
0010
0100
0000
,
0020
0001
0100
0001
,
0100
0001
0130
0010
,
0002
0100
1000
0100
,
1000
0100
1003
0010
,
2002
0000
0000
0000
,
3003
0000
0000
0000
0001
1000
0000
0000
0200
0000
0000
0000
0300
0000
0010
0000
,
0002
0000
1000
0010
,
0100
0000
0000
0000
0103
0000
0000
0000
0010
0000
0000
1000
0000
0000
0000
0000
,
2002
0000
0000
0000
,
3003
0000
0000
0000
1000
0001
0000
0000
0200
0000
0000
0000
0300
0000
0010
0000
,
2000
0000
0001
0010
,
0100
0000
0000
0000
3100
0000
0000
0000
0010
0000
0000
0001
0000
0000
0000
0000
,
1001
0000
0000
0000
;

//---------------dance-single - ----------------
#NOTES:
     dance-single:
     :
     Easy:
     4:
     0.209385,0.236533,0.010108,0.515521,0.000000,145.000000,144.000000,1.000000,51.000000,0.000000,0.000000,0.209385,0.236533,0.010108,0.515521,0.000000,145.000000,144.000000,1.000000,51.000000,0.000000,0.000000:
// measure 0
0000
0000
0000
0000
,  // measure 1
0000
0000
0000
0000
,  // measure 2
0000
0000
0000
0000
,  // measure 3
0000
0000
0000
0000
,  // measure 4
2000
0000
3002
0000
,  // measure 5
0203
0000
0310
0100
,  // measure 6
0020
0000
1030
1000
,  // measure 7
0200
0000
0301
0001
,  // measure 8
1000
0001
0200
0300
,  // measure 9
0001
1000
0001
0001
,  // measure 10
0010
0100
0010
0100
,  // measure 11
1000
0100
1000
0100
,  // measure 12
0010
0001
0020
0030
,  // measure 13
0001
0100
0001
0001
,  // measure 14
1000
0010
1000
0010
,  // measure 15
0100
0001
0100
0001
,  // measure 16
1000
0100
0020
0030
,  // measure 17
0001
1000
0010
0010
,  // measure 18
0100
0100
0001
0001
,  // measure 19
1000
1000
0100
0100
,  // measure 20
0020
0030
0001
1000
,  // measure 21
1000
0100
0100
0010
,  // measure 22
0002
0003
0200
0300
,  // measure 23
0020
0030
2000
3000
,  // measure 24
0001
0002
1003
2000
,  // measure 25
3001
0002
1003
0010
,  // measure 26
0200
0310
0020
0130
,  // measure 27
0200
0310
1000
0001
,  // measure 28
0010
0200
1300
2000
,  // measure 29
3100
0200
1300
0001
,  // measure 30
0020
0130
0200
0310
,  // measure 31
0020
0130
0010
0001
,  // measure 32
0200
0000
0310
0100
,  // measure 33
0002
0000
1003
0001
,  // measure 34
2000
0000
3100
0000
,  // measure 35
0002
0000
0013
0000
,  // measure 36
0200
1300
2000
3001
,  // measure 37
0002
0103
0200
0310
,  // measure 38
2000
3000
0200
0300
,  // measure 39
0002
0003
0020
0030
,  // measure 40
0200
0000
1000
0000
,  // measure 41
0010
0000
1300
0000
,  // measure 42
0020
0000
0100
0000
,  // measure 43
0001
0000
0130
0000
,  // measure 44
0002
0000
0000
0000
,  // measure 45
0003
2000
3100
0000
,  // measure 46
0020
0030
0200
0300
,  // measure 47
0020
0030
0200
0300
,  // measure 48
2000
0000
0000
0000
,  // measure 49
3000
0002
0103
0000
,  // measure 50
0020
0030
0200
0300
,  // measure 51
0020
0030
0200
0300
,  // measure 52
1001
0000
0000
0000
;

//---------------dance-single - ----------------
#NOTES:
     dance-single:
     :
     Beginner:
     2:
     0.112635,0.131407,0.020217,0.495305,0.000000,78.000000,76.000000,2.000000,49.000000,0.000000,0.000000,0.112635,0.131407,0.020217,0.495305,0.000000,78.000000,76.000000,2.000000,49.000000,0.000000,0.000000:
// measure 0
0000
0000
0000
0000
,  // measure 1
0000
0000
0000
0000
,  // measure 2
0000
0000
0000
0000
,  // measure 3
0000
0000
0000
0000
,  // measure 4
0002
0000
0000
0003
,  // measure 5
0000
0010
0020
0030
,  // measure 6
0200
0000
0300
0000
,  // measure 7
2000
0000
3000
0000
,  // measure 8
0010
0000
0010
0000
,  // measure 9
0100
0000
0100
0000
,  // measure 10
0002
0003
0002
0003
,  // measure 11
0002
0003
0002
0003
,  // measure 12
0010
0000
0010
0000
,  // measure 13
0100
0000
0100
0000
,  // measure 14
2000
3000
2000
3000
,  // measure 15
2000
3000
2000
3000
,  // measure 16
0010
0000
0010
0000
,  // measure 17
1000
0000
1000
0000
,  // measure 18
0200
0300
0200
0300
,  // measure 19
0200
0300
0200
0300
,  // measure 20
1000
0000
1000
0000
,  // measure 21
0100
0000
0100
0000
,  // measure 22
0020
0030
0020
0030
,  // measure 23
0020
0030
0020
0030
,  // measure 24
0002
0000
0000
0003
,  // measure 25
2000
0000
0000
3000
,  // measure 26
0200
0000
0000
0300
,  // measure 27
0020
0000
0000
0030
,  // measure 28
0002
0000
0000
0003
,  // measure 29
0200
0000
0000
0300
,  // measure 30
0020
0000
0000
0030
,  // measure 31
2000
0000
0000
3000
,  // measure 32
0200
0300
0200
0300
,  // measure 33
0200
0300
0200
0300
,  // measure 34
0010
0000
0010
0000
,  // measure 35
0010
0000
0010
0000
,  // measure 36
0002
0003
0002
0003
,  // measure 37
0002
0003
0002
0003
,  // measure 38
1000
0000
1000
0000
,  // measure 39
1000
0000
1000
0000
,  // measure 40
0020
0000
0030
0000
,  // measure 41
0200
0000
0300
0000
,  // measure 42
0002
0000
0003
0000
,  // measure 43
2000
0000
3000
0000
,  // measure 44
0220
0000
0000
0330
,  // measure 45
0000
1000
2000
3000
,  // measure 46
0002
0000
0000
0003
,  // measure 47
0000
0000
0010
0000
,  // measure 48
2002
0000
3003
0000
,  // measure 49
0000
0010
0020
0030
,  // measure 50
0002
0000
0003
0000
,  // measure 51
2000
0000
3000
0000
,  // measure 52
0100
0000
0000
0000
;
