#TITLE:Wandering Rose;
#SUBTITLE:;
#ARTIST:OMORI;
#TITLETRANSLIT:;
#SUBTITLETRANSLIT:;
#ARTISTTRANSLIT:;
#GENRE:OMORI;
#CREDIT:[Ness];
#BANNER:OMORI - Wandering Rose.png;
#BACKGROUND:OMORI - Wandering Rose-bg.png;
#LYRICSPATH:;
#CDTITLE:;
#MUSIC:OMORI - Wandering Rose.mp3;
#OFFSET:-0.040000;
#SAMPLESTART:0.031938;
#SAMPLELENGTH:24.000002;
#LASTBEATHINT:312.000000;
#SELECTABLE:YES;
#BPMS:0.000000=180.000000
;
#STOPS:
;
#BGCHANGES:;
#KEYSOUNDS:;
#ATTACKS:;

//---------------dance-single - ----------------
#NOTES:
     dance-single:
     :
     Hard:
     8:
     0.547386,0.624734,0.472021,0.564574,0.037021,414.000000,363.000000,51.000000,61.000000,0.000000,0.000000,0.547386,0.624734,0.472021,0.564574,0.037021,414.000000,363.000000,51.000000,61.000000,0.000000,0.000000:
0000
0000
0000
0000
,
0000
0000
0000
0000
,
0000
0000
0000
0000
,
1001
0100
0010
0100
,
0001
1000
0010
0100
0001
0000
0011
0000
,
1010
0100
1100
0101
,
2001
0100
3010
1002
,
0100
0013
2001
0100
,
0010
0000
3001
0000
1000
0100
0010
0001
,
2001
0010
3100
1002
,
0010
0103
2001
0010
,
0100
0000
0000
3001
0010
0100
1000
0001
0000
1000
0000
0000
,
1001
0000
0000
0000
0000
0000
0001
0100
0001
0000
0000
0000
0010
0000
0000
0000
,
0100
0000
0110
0000
1001
0000
1000
0100
,
0010
0000
1001
0000
0110
0000
0000
1000
,
0001
0101
0101
0001
,
1100
1100
2001
0010
,
3001
1001
0110
1001
,
0012
0100
0010
0103
,
0001
0100
1000
0100
0001
0000
0101
0000
,
1100
0110
1001
0011
,
2001
0001
0010
3100
,
1000
0010
0100
0001
0010
0000
1010
0000
,
0011
0100
1001
0110
,
0101
0000
1000
0010
0100
0000
1100
0000
,
0001
0010
0100
0000
1002
0000
1000
0000
,
0010
0000
1003
0000
0001
1000
0010
0100
,
0002
0010
2003
0100
,
0001
0010
0002
3003
,
0000
1000
0100
0000
1100
0000
0011
0000
,
1200
0001
1300
0021
,
1000
0031
0201
1000
,
0301
1020
0001
1030
,
0100
0001
1000
0100
0010
0001
1000
0010
,
0100
1000
0100
0001
1000
0010
0100
0001
,
0010
0100
2000
0000
3001
0000
0100
1000
,
0200
0010
0310
0001
,
1000
0001
0100
0010
2000
0000
0100
0000
,
3100
0000
0010
0000
0001
1000
0010
0100
,
0002
0000
0000
0000
0000
0000
0013
0001
0010
0000
0000
0000
0100
0000
0000
0000
,
0010
0000
0000
0000
0001
0000
0000
0000
0200
0000
0000
0000
0000
0000
0310
1000
,
0010
0100
0001
1000
,
0100
0000
0100
0001
0100
1000
0010
1000
,
0001
1000
0100
1000
0001
0000
0100
1000
,
0100
0001
0010
0001
1000
0001
0100
0001
,
1000
0000
0100
0001
0100
0010
0001
0010
,
0100
0000
0001
0000
0100
0000
1000
0000
0100
0000
0000
0000
0010
0000
0001
0100
,
0001
0100
1000
0100
0010
0100
0001
1000
,
0002
1000
1000
0103
,
0001
0100
0010
1000
0200
0000
0010
0000
,
0010
0000
1300
0000
1000
0100
0010
0001
,
2000
0000
3010
0100
0010
0000
0120
0000
,
0000
0000
0130
0001
0100
0000
0000
0000
1002
0000
0000
0000
0100
0000
0000
0000
,
0013
0011
0011
1010
,
0011
0001
0100
0010
1000
0001
0100
1000
,
0100
0010
0100
0001
1000
0010
0100
0010
,
0001
0010
1000
0000
0001
0000
1000
0000
,
1200
0001
1000
0320
,
0001
1000
0230
0001
,
1000
0320
0032
0203
,
0320
0001
1000
0230
,
1000
0001
0320
0001
,
1000
0230
0302
2003
,
3200
0001
1000
0320
,
1000
0001
0230
2300
,
3002
0023
0230
2300
,
3020
0001
1000
0230
,
1000
0001
0320
2030
,
3002
0203
0320
2030
,
3200
0001
0010
2300
,
0100
0001
3020
1000
,
0100
0032
0010
1000
,
0203
0001
0010
2300
,
0001
0000
0100
0000
3010
0100
0001
1000
,
0100
0010
0001
1000
0010
0100
0001
1000
,
0001
0000
0000
0000
;

//---------------dance-single - ----------------
#NOTES:
     dance-single:
     :
     Medium:
     6:
     0.331869,0.416489,0.018511,0.314681,0.000000,251.000000,249.000000,2.000000,34.000000,0.000000,0.000000,0.331869,0.416489,0.018511,0.314681,0.000000,251.000000,249.000000,2.000000,34.000000,0.000000,0.000000:
0000
0000
0000
0000
,
0000
0000
0000
0000
,
0000
0000
0000
0000
,
2002
0000
0000
3003
,
1000
0001
0100
0010
1000
0000
0001
0000
,
0100
0001
1000
0100
,
0020
0030
0001
0200
,
0300
1000
0200
0000
,
0300
0000
0000
0000
0010
0001
1000
0010
,
0200
0300
0010
2000
,
3000
0001
0020
0000
,
0030
0000
0100
1000
0100
0000
1000
0000
,
0002
0003
0100
0010
,
1000
0100
0020
0030
,
0001
0000
1000
0000
0001
0000
0000
0100
,
0020
0000
0000
0030
,
0000
1000
0200
0000
,
0300
0001
1000
0100
,
2002
0000
0000
3003
,
1000
0001
0100
0010
1000
0000
0001
0000
,
0010
0100
1000
0010
,
0200
0000
0000
0300
,
1000
0001
0100
0010
1000
0000
0001
0000
,
0010
0100
1000
0010
,
0200
0300
0001
0020
,
0030
1000
0200
0000
,
0300
0000
0000
0000
1000
0010
0100
0010
,
2000
3000
0001
0010
,
0100
0010
0002
0000
,
0003
0000
1000
0100
1000
0000
0001
0000
,
0020
0100
0130
2000
,
0001
3001
0200
0010
,
0310
0002
1000
1003
,
0010
1000
0010
0000
0100
0000
0001
1000
,
0001
0000
0010
0000
0100
1000
0100
0000
,
0010
0000
0001
0000
1000
0000
0100
0010
,
0200
0000
0300
0000
,
1000
0100
0010
0001
0200
0000
0000
0000
,
0300
0000
0000
0000
1000
0100
0010
0001
,
0200
0300
0010
0100
,
0001
0010
0200
0300
,
1000
0010
0100
0000
0001
0000
0010
0000
,
0200
0000
0000
0300
,
1000
0100
1000
0100
2000
0000
0000
0000
,
0000
0000
3000
0000
0001
0100
0001
0100
,
0001
1000
0010
1000
,
0001
0010
0100
0010
,
0001
0100
0010
1000
,
0200
0000
0000
0300
,
0010
0100
0010
0100
0020
0000
0000
0000
,
0000
0000
0030
0000
0001
1000
0001
1000
,
0001
0000
0000
0100
0010
0000
2000
0000
,
3000
0000
0100
0010
0002
0000
0003
0000
,
1000
0001
0100
0010
,
1000
0100
0001
0010
,
1000
0010
0001
0100
,
1000
0001
0010
0100
,
1000
0001
0001
0000
,
1000
1000
0000
0010
,
0010
0100
0001
0010
,
0100
1000
1000
0000
,
0001
0001
0000
0100
,
0010
1000
0100
0010
,
0001
1000
1000
0000
,
0010
0010
0000
0001
,
0001
0010
0100
1000
,
0010
0100
0100
0000
,
1000
1000
0000
0001
,
0001
1000
0001
0100
,
0001
0010
0010
0000
,
0100
0100
0000
1000
,
1000
0000
0001
0001
,
0000
0100
0100
0000
,
1000
1000
0000
0001
,
0001
0010
1000
0100
,
0001
0000
0000
0000
;

//---------------dance-single - ----------------
#NOTES:
     dance-single:
     :
     Easy:
     3:
     0.212872,0.312367,0.009255,0.240638,0.000000,161.000000,160.000000,1.000000,26.000000,0.000000,0.000000,0.212872,0.312367,0.009255,0.240638,0.000000,161.000000,160.000000,1.000000,26.000000,0.000000,0.000000:
// measure 0
0000
0000
0000
0000
,  // measure 1
0000
0000
0000
0000
,  // measure 2
0000
0000
0000
0000
,  // measure 3
0000
1000
0001
0000
,  // measure 4
0001
1000
0000
0010
,  // measure 5
0100
0000
0100
0010
,  // measure 6
2000
3000
0100
0020
,  // measure 7
0030
0001
0200
0000
,  // measure 8
0300
0000
0001
1000
,  // measure 9
0200
0300
0010
0002
,  // measure 10
0003
1000
0020
0000
,  // measure 11
0030
1000
0001
0100
,  // measure 12
0001
0000
0000
0010
,  // measure 13
0000
0000
0100
0000
,  // measure 14
1000
0001
1000
0000
,  // measure 15
0010
0000
0000
0100
,  // measure 16
0000
0000
0001
0000
,  // measure 17
0000
1000
0100
1000
,  // measure 18
0010
1000
0001
0000
,  // measure 19
0001
1000
0000
1000
,  // measure 20
0001
0100
0010
1000
,  // measure 21
0001
0010
0100
0000
,  // measure 22
0100
0010
0001
1000
,  // measure 23
0010
1000
0001
1000
,  // measure 24
0200
0300
0010
0002
,  // measure 25
0003
1000
0200
0000
,  // measure 26
0300
0000
0010
0001
,  // measure 27
0200
0300
0001
0020
,  // measure 28
0030
0100
2000
0000
,  // measure 29
3000
2000
0000
3000
,  // measure 30
0002
0000
0003
0200
,  // measure 31
0000
0300
2000
0000
,  // measure 32
3000
0020
0000
0030
,  // measure 33
1000
0100
1000
0100
,  // measure 34
0010
0100
0010
0001
,  // measure 35
0010
0001
0000
0000
,  // measure 36
2002
0000
3003
0000
,  // measure 37
0001
0100
0002
0000
,  // measure 38
0003
0000
1000
0010
,  // measure 39
1000
0000
0100
0000
,  // measure 40
0001
0000
0010
0000
,  // measure 41
0100
0000
1000
0000
,  // measure 42
0001
0000
0000
0100
,  // measure 43
0000
0000
0010
0000
,  // measure 44
0000
1000
0000
0000
,  // measure 45
0100
0000
0010
0001
,  // measure 46
0000
1000
0100
0000
,  // measure 47
0010
0001
0000
1000
,  // measure 48
0020
0000
0000
0030
,  // measure 49
1000
0100
2000
0000
,  // measure 50
0000
3000
0001
0010
,  // measure 51
0100
0000
0010
0000
,  // measure 52
0001
0000
1000
0000
,  // measure 53
0100
0010
0100
0010
,  // measure 54
0200
0000
0300
2000
,  // measure 55
0000
3000
0002
0000
,  // measure 56
0003
0020
0000
0030
,  // measure 57
0100
0000
0000
0100
,  // measure 58
0000
0000
0100
0000
,  // measure 59
0000
1000
0001
1000
,  // measure 60
0001
0000
0000
0100
,  // measure 61
0000
0000
0010
0000
,  // measure 62
0000
1000
0001
1000
,  // measure 63
0001
0000
0000
0010
,  // measure 64
0000
0000
0100
0000
,  // measure 65
0000
1000
0001
1000
,  // measure 66
0001
0000
0000
0100
,  // measure 67
0000
0000
0010
0000
,  // measure 68
0000
1000
0001
1000
,  // measure 69
0001
0000
0000
0010
,  // measure 70
0000
0000
0100
0000
,  // measure 71
0000
1000
0000
0000
,  // measure 72
0001
0000
0000
0100
,  // measure 73
0000
0000
0010
0000
,  // measure 74
0000
1000
0001
1000
,  // measure 75
0001
0000
0000
0000
;

//---------------dance-single - ----------------
#NOTES:
     dance-single:
     :
     Beginner:
     1:
     0.091231,0.104122,0.000000,0.000000,0.000000,69.000000,69.000000,0.000000,0.000000,0.000000,0.000000,0.091231,0.104122,0.000000,0.000000,0.000000,69.000000,69.000000,0.000000,0.000000,0.000000,0.000000:
// measure 0
0000
0000
0000
0000
,  // measure 1
0000
0000
0000
0000
,  // measure 2
0000
0000
0000
0000
,  // measure 3
0001
0000
0000
0000
,  // measure 4
0000
0000
1000
0000
,  // measure 5
0000
1000
0000
0000
,  // measure 6
0100
0000
0000
0100
,  // measure 7
0000
0000
0100
0000
,  // measure 8
0000
0000
0000
0000
,  // measure 9
0010
0000
0000
0010
,  // measure 10
0000
0000
0001
0000
,  // measure 11
0000
0000
0000
0000
,  // measure 12
0100
0000
0000
0000
,  // measure 13
0000
0000
0010
0000
,  // measure 14
0000
0010
0000
0000
,  // measure 15
1000
0000
0000
0000
,  // measure 16
0000
0000
0100
0000
,  // measure 17
0000
0100
0000
0000
,  // measure 18
0010
0000
0000
0000
,  // measure 19
0000
0000
0100
0000
,  // measure 20
0000
0100
0000
0000
,  // measure 21
1000
0000
0000
0000
,  // measure 22
0000
0000
0001
0000
,  // measure 23
0000
0001
0000
0000
,  // measure 24
0100
0000
0000
0100
,  // measure 25
0000
0000
0010
0000
,  // measure 26
0000
0000
0000
0000
,  // measure 27
1000
0000
0000
1000
,  // measure 28
0000
0000
0001
0000
,  // measure 29
0000
0010
0000
0000
,  // measure 30
0100
0000
0000
0000
,  // measure 31
0000
0000
0100
0000
,  // measure 32
0000
0000
0000
0000
,  // measure 33
1000
0000
0000
1000
,  // measure 34
0000
0000
1000
0000
,  // measure 35
0000
1000
0000
0000
,  // measure 36
0001
0000
0000
0000
,  // measure 37
0000
0000
0100
0000
,  // measure 38
0000
0000
0000
0000
,  // measure 39
0010
0000
0000
0010
,  // measure 40
0000
0000
1000
0000
,  // measure 41
0000
0100
0000
0000
,  // measure 42
0010
0000
0000
0000
,  // measure 43
0000
0000
0010
0000
,  // measure 44
0000
0000
0000
0000
,  // measure 45
0010
0000
0000
0010
,  // measure 46
0000
0000
0010
0000
,  // measure 47
0000
0010
0000
0000
,  // measure 48
0010
0000
0000
0000
,  // measure 49
0000
0000
0100
0000
,  // measure 50
0000
0000
0000
0000
,  // measure 51
0100
0000
0000
0100
,  // measure 52
0000
0000
0100
0000
,  // measure 53
0000
0100
0000
0000
,  // measure 54
0100
0000
0000
1000
,  // measure 55
0000
0000
0001
0000
,  // measure 56
0000
0010
0000
0000
,  // measure 57
0100
0000
0000
0000
,  // measure 58
0000
0000
0000
0000
,  // measure 59
0000
1000
0000
0000
,  // measure 60
0001
0000
0000
0000
,  // measure 61
0000
0000
0000
0000
,  // measure 62
0000
0100
0000
0000
,  // measure 63
0010
0000
0000
0000
,  // measure 64
0000
0000
0000
0000
,  // measure 65
0000
1000
0000
0000
,  // measure 66
0100
0000
0000
0000
,  // measure 67
0000
0000
0000
0000
,  // measure 68
0000
0010
0000
0000
,  // measure 69
0001
0000
0000
0000
,  // measure 70
0000
0000
0100
0000
,  // measure 71
0000
0000
0000
0000
,  // measure 72
0010
0000
0000
0000
,  // measure 73
0000
0000
1000
0000
,  // measure 74
0000
0000
0000
0000
,  // measure 75
0100
0000
0000
0000
;
