#VERSION:0.83;
#TITLE:Those Who Forget History;
#SUBTITLE:;
#ARTIST:OMORI;
#TITLETRANSLIT:;
#SUBTITLETRANSLIT:;
#ARTISTTRANSLIT:;
#GENRE:OMORI;
#ORIGIN:;
#CREDIT:[Ness];
#BANNER:OMORI - Those Who Forget History.png;
#BACKGROUND:OMORI - Those Who Forget History-bg.png;
#PREVIEWVID:;
#JACKET:OMORI - Those Who Forget History-jacket.png;
#CDIMAGE:;
#DISCIMAGE:;
#LYRICSPATH:;
#CDTITLE:;
#MUSIC:OMORI - Those Who Forget History.mp3;
#OFFSET:-0.040000;
#SAMPLESTART:0.238806;
#SAMPLELENGTH:27.927183;
#SELECTABLE:YES;
#BPMS:0.000=145.000;
#STOPS:;
#DELAYS:;
#WARPS:;
#TIMESIGNATURES:0.000=4=4;
#TICKCOUNTS:0.000=2;
#COMBOS:0.000=1;
#SPEEDS:0.000=1.000=0.000=0;
#SCROLLS:0.000=1.000;
#FAKES:;
#LABELS:0.000=Song Start;
#LASTSECONDHINT:86.347794;
#BGCHANGES:197.750=Defeat1.png=1.000=0=0=1=====,
200.000=Defeat2.png=1.000=0=0=1===CrossFade_Fastest==,
99999=-nosongbg-=1.000=0=0=0 // don't automatically add -songbackground-
;
#KEYSOUNDS:;
#ATTACKS:
;

//---------------dance-single - ----------------
#NOTEDATA:;
#CHARTNAME:[Ness];
#STEPSTYPE:dance-single;
#DESCRIPTION:[Ness];
#CHARTSTYLE:;
#DIFFICULTY:Challenge;
#METER:10;
#RADARVALUES:0.812931,0.804086,1.622598,0.502777,0.645611,498.000000,356.000000,142.000000,44.000000,28.000000,0.000000,0.000000,0.000000,0.000000,0.812931,0.804086,1.622598,0.502777,0.645611,498.000000,356.000000,142.000000,44.000000,28.000000,0.000000,0.000000,0.000000,0.000000;
#CREDIT:[Ness];
#NOTES:
// measure 0
0000
0000
1010
0000
1001
0000
1010
0000
1001
0000
0000
0110
0000
0000
0101
0000
,  // measure 1
2000
0000
0000
0010
0000
0000
0200
0000
0000
3300
1100
0000
0011
0000
0110
0000
,  // measure 2
0011
0000
0000
1001
0000
0000
0201
0000
0000
0000
1000
0000
0000
0000
0310
0000
,  // measure 3
2000
0000
0000
0010
0000
0000
0002
0000
0000
3003
1001
0000
0011
0000
1010
0000
,  // measure 4
0110
0000
0000
0101
0000
0000
1200
0000
0000
0000
0001
0000
0000
0000
0300
0000
,  // measure 5
0110
0000
0000
0002
0000
0000
0200
0000
0000
0303
0101
0000
1010
0000
1100
0000
,  // measure 6
0110
0000
0000
1001
0000
0000
0110
0000
0001
0000
0000
1000
0000
0000
0100
0000
,  // measure 7
1200
0000
0000
0010
0000
0000
2000
0000
0000
3300
1100
0000
0011
0000
1010
0000
,  // measure 8
0110
0000
0000
0101
0000
0000
1100
0000
0001
0010
0100
1000
0010
1000
0001
0010
,  // measure 9
0200
0000
0000
0001
0000
0000
2000
0000
0000
3300
1100
0000
1010
0000
0101
0000
,  // measure 10
0011
0000
0000
0110
0000
0000
2100
0000
0000
0000
3020
0000
0000
0000
0130
0000
,  // measure 11
0002
0000
0000
1000
0000
0000
0020
0000
0000
0033
0011
0000
1010
0000
0110
0000
,  // measure 12
1001
0000
0000
1100
0000
0000
0201
0000
0000
0000
1000
0000
0000
0000
0300
0000
,  // measure 13
0110
0000
0000
2000
0000
0000
0002
0000
0000
3003
1001
0000
0011
0000
1010
0000
,  // measure 14
0110
0000
0000
0101
0000
0000
1100
0000
0200
0000
0000
0001
0000
0000
1300
0000
,  // measure 15
0020
0000
0000
0001
0000
0000
0200
0000
0000
0330
0110
0000
0101
0000
1001
0000
,  // measure 16
0011
0000
0000
1100
0000
0000
0110
0000
1000
0100
0010
0001
1000
0001
0100
0010
,  // measure 17
1000
0000
0000
MMMM
0000
0000
0100
0000
0110
0010
0100
0010
0100
0010
0100
0010
,  // measure 18
0110
0000
0000
MMMM
0000
0000
0110
0000
1001
0001
0100
0010
1000
0000
0000
0000
,  // measure 19
1001
0000
0000
MMMM
0000
0000
0010
0000
1001
1000
0001
1000
0001
1000
0001
1000
,  // measure 20
1001
0000
0000
1100
0000
0000
0101
0000
0110
0100
0001
1000
0010
0000
0000
0000
,  // measure 21
0101
0000
0000
1000
0100
0000
0010
0000
0001
1000
0010
0100
0001
0100
0010
1000
,  // measure 22
0100
0000
0000
0010
0001
0000
1000
0000
0100
0010
0100
1000
0001
0000
0000
0000
,  // measure 23
0010
0000
0000
0100
1000
0000
1000
0000
0100
1000
0001
0100
0010
1000
0001
0010
,  // measure 24
0100
0000
0101
0000
0110
0000
1010
0000
1001
0000
0000
1100
0000
0000
0101
0000
,  // measure 25
0200
0000
0000
0010
0000
0000
0002
0000
0000
0303
0101
0000
1010
0000
1001
0000
,  // measure 26
1100
0000
0000
0110
0000
0000
0021
0000
0000
0000
0100
0000
0000
0000
0031
0000
,  // measure 27
2000
0000
0000
0010
0000
0000
0200
0000
0000
3300
1100
0000
0011
0000
0110
0000
,  // measure 28
1001
0000
0000
0110
0000
0000
0201
0000
0000
0000
1000
0000
0000
0000
0300
0000
,  // measure 29
0101
0000
0000
0200
0000
0000
2000
0000
0000
3300
1100
0000
0110
0000
1010
0000
,  // measure 30
1001
0000
0000
0101
0000
0000
0110
0000
1000
0000
0000
0100
0000
0000
0010
0000
,  // measure 31
0021
0000
0000
0100
0000
0000
0002
0000
0000
0033
0011
0000
1100
0000
0101
0000
,  // measure 32
0110
0000
0000
1010
0000
0000
0011
0000
1000
0100
0010
0001
0100
0001
1000
0100
,  // measure 33
0020
0000
0000
1000
0000
0000
0002
0000
0000
0033
0011
0000
1001
0000
0110
0000
,  // measure 34
1100
0000
0000
0101
0000
0000
1002
0000
0000
0000
0023
0000
0000
0000
0130
0000
,  // measure 35
2000
0000
0000
0010
0000
0000
0200
0000
0000
3300
1100
0000
0011
0000
1001
0000
,  // measure 36
0110
0000
0000
0101
0000
0000
1020
0000
0000
0000
0001
0000
0000
0000
0030
0000
,  // measure 37
0110
0000
0000
0002
0000
0000
0200
0000
0000
0303
0101
0000
0110
0000
1010
0000
,  // measure 38
1001
0000
0000
1100
0000
0000
0101
0000
0020
0000
0000
0100
0000
0000
1030
0000
,  // measure 39
0200
0000
0000
0001
0000
0000
0020
0000
0000
0330
0110
0000
1010
0000
1001
0000
,  // measure 40
1100
0000
0000
0011
0000
0000
0110
0000
0001
0010
0100
1000
1000
0100
0010
0001
,  // measure 41
1000
0000
0000
MMMM
0000
0000
0001
0000
0101
0100
0001
0100
0001
0100
0001
0100
,  // measure 42
0101
0000
0000
MMMM
0000
0000
0110
0000
1001
1000
0010
0100
0010
0000
0000
0000
,  // measure 43
1010
0000
0000
MMMM
0000
0000
0100
0000
1100
0100
1000
0100
1000
0100
1000
0100
,  // measure 44
1100
0000
0000
0011
0000
0000
1010
0000
0110
0010
1000
0001
0100
0000
0000
0000
,  // measure 45
1010
0000
0000
0001
0010
0000
0100
0000
1000
0001
0100
0010
1000
0010
0100
0001
,  // measure 46
0010
0000
0000
0100
1000
0000
0001
0000
0010
0100
0010
0001
1000
0000
0000
0000
,  // measure 47
0100
0000
0000
1000
0001
0000
0010
0000
0100
1000
0010
0100
0001
1000
0100
0010
,  // measure 48
0001
0000
0011
0000
1100
0000
1010
0000
0101
0000
0000
0110
0000
0000
1001
0000
,  // measure 49
0000
0000
0000
0000
,  // measure 50
0000
0000
0000
0000
,  // measure 51
0000
0000
0000
0000
,  // measure 52
0000
MMMM
0000
0000
0000
0000
0000
0000
;

//---------------dance-single - ----------------
#NOTEDATA:;
#CHARTNAME:[Ness];
#STEPSTYPE:dance-single;
#DESCRIPTION:[Ness];
#CHARTSTYLE:;
#DIFFICULTY:Hard;
#METER:8;
#RADARVALUES:0.499512,0.474710,0.114267,0.468496,0.405649,306.000000,296.000000,10.000000,41.000000,0.000000,0.000000,0.000000,0.000000,0.000000,0.499512,0.474710,0.114267,0.468496,0.405649,306.000000,296.000000,10.000000,41.000000,0.000000,0.000000,0.000000,0.000000,0.000000;
#CREDIT:[Ness];
#NOTES:
0000
0000
1000
0000
0001
0000
1000
0000
0010
0000
0000
0100
0000
0000
0001
0000
,
0020
0000
0000
0100
0000
0000
0002
0000
0033
0000
1000
0000
0010
0000
0100
0000
,
0001
0000
0000
0010
0000
0000
0100
0000
0000
0000
1000
0000
0000
0000
0001
0000
,
0200
0000
0000
0010
0000
0000
0002
0000
0303
0000
1000
0000
0010
0000
0100
0000
,
0001
0000
0000
1000
0000
0000
0020
0000
0000
0000
0100
0000
0000
0000
0030
0000
,
0001
0000
0000
2000
0000
0000
0200
0000
3300
0000
0010
0000
0001
0000
1000
0000
,
0010
0000
0000
0100
0000
0000
0001
0000
1000
0000
0000
0100
0000
0000
1000
0000
,
0002
0000
0000
0010
0000
0000
2000
0000
3003
0000
1000
0000
0001
0000
0100
0000
,
0001
0000
0000
0010
0000
0000
0100
0000
1000
0000
0000
1001
0000
0000
1001
0000
,
2000
0000
0000
0010
0000
0000
0200
0000
3300
0000
1000
0000
0100
0000
0010
0000
,
0001
0000
0000
1000
0000
0000
0020
0000
0000
0000
0200
0000
0330
0000
0001
0000
,
2000
0000
0000
0001
0000
0000
0200
0000
3300
0000
0010
0000
0001
0000
0100
0000
,
0010
0000
0000
1000
0000
0000
0100
0000
0000
0000
0010
0000
0000
0000
0000
0000
,
0001
0000
0000
0200
0000
0000
0020
0000
0330
0000
1000
0000
0010
0000
0100
0000
,
0001
0000
0000
1000
0000
0000
0100
0000
0020
0000
0000
0001
0000
0000
0100
0000
,
0032
0000
0000
1000
0000
0000
0200
0000
0303
0000
0010
0000
1000
0000
0001
0000
,
0010
0000
0000
0100
0000
0000
1000
0000
0010
0000
0000
0110
0000
0000
0110
0000
,
0100
0000
0000
0000
0000
0000
0100
0000
0001
0000
0000
0001
1000
0000
0000
1000
,
0100
0000
1000
0000
0100
0000
0010
0000
0001
0000
0000
1000
0000
0000
0001
0000
,
0100
0000
0000
0000
0000
0000
0010
0000
1000
0000
0000
1000
0100
0000
0000
0100
,
0010
0000
0000
0001
0000
0000
0001
0000
0100
0000
0000
0010
0100
0000
0000
0000
,
0001
0000
0000
0001
1000
0000
0000
1000
0010
0000
0000
0100
0001
0000
0000
1000
,
0100
0010
0001
1000
0010
0100
0010
1000
,
0001
0000
0000
0010
0000
0000
0100
0000
1000
0000
0000
1000
0001
0000
0000
0001
,
0100
0000
0001
0000
1000
0000
0001
0000
0100
0000
0000
0010
0000
0000
1000
0000
,
0200
0000
0000
0010
0000
0000
2000
0000
3300
0000
0001
0000
1000
0000
0010
0000
,
0100
0000
0000
0001
0000
0000
0010
0000
0000
0000
0100
0000
0000
0000
1000
0000
,
0020
0000
0000
0100
0000
0000
2000
0000
3030
0000
0001
0000
0010
0000
0100
0000
,
1000
0000
0000
0010
0000
0000
0200
0000
0000
0000
0001
0000
0000
0000
0300
0000
,
1000
0000
0000
0002
0000
0000
0200
0000
0303
0000
0010
0000
1000
0000
0001
0000
,
0010
0000
0000
0001
0000
0000
0100
0000
0001
0000
0000
1000
0000
0000
0100
0000
,
2000
0000
0000
0001
0000
0000
0020
0000
3030
0000
0100
0000
0001
0000
1000
0000
,
0100
0000
0000
0010
0000
0000
0001
0000
1000
0000
0000
1001
0000
0000
1001
0000
,
0002
0000
0000
0010
0000
0000
0200
0000
0303
0000
0001
0000
0010
0000
0100
0000
,
1000
0000
0000
0001
0000
0000
0200
0000
0000
0000
0020
0000
0330
0000
1000
0000
,
0002
0000
0000
2003
0000
0000
3020
0000
0000
0000
0130
0000
0001
0000
0010
0000
,
0100
0000
0000
1000
0000
0000
0001
0000
0000
0000
0101
0000
0000
0000
0000
0000
,
1000
0000
0000
0020
0000
0000
0200
0000
0330
0000
0001
0000
0100
0000
0010
0000
,
1000
0000
0000
0001
0000
0000
0010
0000
0200
0000
0000
1000
0000
0000
0010
0000
,
2300
0000
0000
0001
0000
0000
0020
0000
3030
0000
0100
0000
0001
0000
1000
0000
,
0100
0000
0000
0010
0000
0000
0001
0000
0100
0000
0000
0110
0000
0000
1001
0000
,
0010
0000
0000
0000
0000
0000
0010
0000
0100
0000
0000
0100
0001
0000
0000
0001
,
1000
0000
0010
0000
0100
0000
0010
0000
1000
0000
0000
0001
0000
0000
0100
0000
,
0001
0000
0000
0000
0000
0000
0010
0000
0100
0000
0000
0100
1000
0000
0000
1000
,
0001
0000
0000
0100
0000
0000
0001
0000
0010
0000
0000
0100
1000
0000
0000
0000
,
0010
0000
0000
0010
1000
0000
0000
1000
0001
0000
0000
0100
0010
0000
0000
1000
,
0001
0010
0100
1000
0001
1000
0100
0010
,
0001
0000
0000
0100
0000
0000
0010
0000
1000
0000
0000
1000
0100
0000
0000
0100
,
0010
0000
0001
0000
0100
0000
0001
0000
1000
0000
0000
0010
0000
0000
0110
0000
;

//---------------dance-single - ----------------
#NOTEDATA:;
#CHARTNAME:[Ness];
#STEPSTYPE:dance-single;
#DESCRIPTION:[Ness];
#CHARTSTYLE:;
#DIFFICULTY:Medium;
#METER:6;
#RADARVALUES:0.395039,0.363013,0.022853,0.000000,0.005713,242.000000,240.000000,2.000000,0.000000,0.000000,0.000000,0.000000,0.000000,0.000000,0.395039,0.363013,0.022853,0.000000,0.005713,242.000000,240.000000,2.000000,0.000000,0.000000,0.000000,0.000000,0.000000,0.000000;
#CREDIT:[Ness];
#NOTES:
0000
0000
0000
0000
,
1000
0000
0001
0000
1000
0010
0100
0010
,
1000
0100
0010
0001
,
0100
0000
0010
0000
0100
0001
0010
0001
,
0100
0010
1000
0100
,
0010
0000
0001
0000
1000
0100
0010
0100
,
1000
0001
0010
0100
,
1000
0000
0010
0000
0100
0001
1000
0100
,
1000
0000
0001
0000
0010
0100
0010
0000
,
0001
0000
1000
0000
0010
0100
0001
0100
,
0010
1000
0001
0010
,
0001
0000
0100
0000
0010
1000
0001
1000
,
0010
0100
0001
0010
,
0100
0000
1000
0000
0001
1000
0100
1000
,
0001
0010
0100
1000
,
0010
0000
0100
0000
0001
1000
0010
0100
,
0001
0000
0010
0000
0100
1000
0001
0000
,
1001
0000
0000
0010
0000
0000
0100
0000
,
0001
0000
0010
0000
0100
1000
0100
0000
,
0010
0000
0001
1000
,
0100
0000
0010
0000
0001
0100
0001
0000
,
0010
0000
0000
0000
0100
1000
0001
0100
,
0010
0000
0000
0000
1000
0100
0010
0000
,
0100
0000
0000
0000
1000
0001
0010
0100
,
1000
0010
0100
0010
1000
0000
1000
0000
,
0001
0000
0010
0000
0100
0010
0001
0010
,
0100
1000
0001
0010
,
0100
0000
1000
0000
0001
1000
0100
1000
,
0001
0010
0100
1000
,
0001
0000
0100
0000
0010
1000
0001
1000
,
0010
0100
0001
0010
,
0100
0000
1000
0000
0010
1000
0100
1000
,
0010
0000
0100
0000
0001
1000
0100
0000
,
0010
0000
0100
0000
1000
0001
0010
0100
,
1000
0010
0100
0001
,
0100
0000
0010
0000
1000
0001
0010
0001
,
0100
0010
1000
0100
,
0010
0000
0001
0000
0100
0010
1000
0010
,
0001
0010
0100
1000
,
0001
0000
1000
0000
0100
0010
0001
1000
,
0010
0000
0100
0000
0001
1000
0100
0000
,
1100
0000
0000
0100
0000
0000
0010
0000
,
0001
0100
0001
0010
0100
0000
1000
0000
,
0001
0000
0000
0000
0010
0100
0010
0100
,
1000
0001
0100
0010
,
1000
0000
0001
0000
0010
0001
1000
0001
,
0010
0000
0100
0000
1000
0010
0100
0010
,
1000
0000
0001
0000
0100
0010
1000
0001
,
0100
0000
0000
0000
0000
0000
0000
0000
0010
0000
0000
0010
0000
0000
0010
0000
;

//---------------dance-single - ----------------
#NOTEDATA:;
#CHARTNAME:[Ness];
#STEPSTYPE:dance-single;
#DESCRIPTION:[Ness];
#CHARTSTYLE:;
#DIFFICULTY:Easy;
#METER:4;
#RADARVALUES:0.248124,0.274242,0.137121,0.000000,0.000000,152.000000,140.000000,12.000000,0.000000,0.000000,0.000000,0.000000,0.000000,0.000000,0.248124,0.274242,0.137121,0.000000,0.000000,152.000000,140.000000,12.000000,0.000000,0.000000,0.000000,0.000000,0.000000,0.000000;
#CREDIT:[Ness];
#NOTES:
0000
0000
0000
0000
,
1000
0100
0001
0000
,
0010
0001
0100
0100
,
0001
0100
1000
0000
,
0010
0000
0100
0000
,
0001
0010
1000
0000
,
0010
0100
1000
1000
,
0001
1000
0100
0000
,
0010
0000
0001
0001
,
0100
0010
1000
0000
,
0001
0010
0100
1000
,
1000
0100
0001
0000
,
1000
0001
0100
0000
,
0010
1000
0100
0000
,
0010
0001
1000
0001
,
0100
0010
1000
0000
,
0010
0001
0010
0100
,
0010
0000
1001
0000
,
0100
0000
1001
0000
,
0010
0000
1001
0000
,
0100
0100
1001
0010
,
0100
0000
1001
0100
,
0010
0000
1001
1000
,
0001
0000
1001
0100
,
0010
0000
0000
0000
,
0001
0100
1000
0000
,
0001
0010
0100
1000
,
0010
0100
0001
0000
,
1000
0000
0001
0000
,
1000
0100
0010
0000
,
0001
1000
0010
0001
,
0010
1000
0100
0000
,
0010
0001
0100
0000
,
0001
1000
0100
0000
,
0010
0001
0100
0100
,
1000
0100
0001
0000
,
1000
0000
0001
0000
,
0100
0010
1000
0000
,
0100
0010
0001
0100
,
0001
1000
0010
0000
,
1000
0001
0010
0000
,
0100
0000
1001
0000
,
0010
0000
1001
0000
,
0001
0000
1001
0000
,
0100
0000
1001
0000
,
0010
0000
1000
0001
,
0010
0000
1001
0100
,
0001
0000
0010
0100
,
1000
0000
0000
0000
;

//---------------dance-single - ----------------
#NOTEDATA:;
#CHARTNAME:[Ness];
#STEPSTYPE:dance-single;
#DESCRIPTION:[Ness];
#CHARTSTYLE:;
#DIFFICULTY:Beginner;
#METER:1;
#RADARVALUES:0.094679,0.109697,0.000000,0.000000,0.000000,58.000000,58.000000,0.000000,0.000000,0.000000,0.000000,0.000000,0.000000,0.000000,0.094679,0.109697,0.000000,0.000000,0.000000,58.000000,58.000000,0.000000,0.000000,0.000000,0.000000,0.000000,0.000000,0.000000;
#CREDIT:[Ness];
#NOTES:
0000
0000
0000
0000
,
1000
0000
0000
0000
,
0001
0000
0001
0000
,
0100
0000
0000
0000
,
0010
0000
0000
0000
,
1000
0000
0000
0000
,
0100
0000
0100
0000
,
0010
0000
0000
0000
,
0001
0000
0000
0000
,
1000
0000
0000
0000
,
0001
0000
0001
0000
,
0100
0000
0000
0000
,
0010
0000
0000
0000
,
1000
0000
0000
0000
,
0100
0000
0100
0000
,
0010
0000
0000
0000
,
0001
0000
0001
0000
,
0001
0000
0000
0000
,
1000
0000
0000
0000
,
0001
0000
0000
0000
,
0100
0000
0000
0000
,
1000
0000
0000
0000
,
0001
0000
0000
0000
,
1000
0000
0000
0000
,
0010
0000
0000
0000
,
0100
0000
0000
0000
,
0001
0000
0001
0000
,
0010
0000
0000
0000
,
0100
0000
0000
0000
,
1000
0000
0000
0000
,
0010
0000
0010
0000
,
0100
0000
0000
0000
,
0001
0000
0000
0000
,
1000
0000
0000
0000
,
0100
0000
0100
0000
,
0010
0000
0000
0000
,
0001
0000
0000
0000
,
1000
0000
0000
0000
,
0001
0000
0001
0000
,
0100
0000
0000
0000
,
0010
0000
0010
0000
,
0010
0000
0000
0000
,
1000
0000
0000
0000
,
0100
0000
0000
0000
,
0010
0000
0000
0000
,
0001
0000
0000
0000
,
1000
0000
0000
0000
,
0001
0000
0000
0000
,
0100
0000
0000
0000
;
