#TITLE:THE VENGEANCE OF THOSE FORGOTTEN IN DARKNESS;
#SUBTITLE:;
#ARTIST:OMORI;
#TITLETRANSLIT:;
#SUBTITLETRANSLIT:;
#ARTISTTRANSLIT:;
#GENRE:OMORI;
#CREDIT:[Ness];
#BANNER:OMORI - THE VENGEANCE OF THOSE FORGOTTEN IN DARKNESS.png;
#BACKGROUND:OMORI - THE VENGEANCE OF THOSE FORGOTTEN IN DARKNESS-bg.png;
#LYRICSPATH:;
#CDTITLE:;
#MUSIC:OMORI - THE VENGEANCE OF THOSE FORGOTTEN IN DARKNESS.mp3;
#OFFSET:-0.000000;
#SAMPLESTART:0.000000;
#SAMPLELENGTH:16.000000;
#LASTBEATHINT:236.000000;
#SELECTABLE:YES;
#BPMS:0.000000=270.000000
,152.000000=67.500000
,172.000000=270.000000
,204.000000=135.000000
,216.000000=270.000000
;
#STOPS:
;
#BGCHANGES:;
#KEYSOUNDS:;
#ATTACKS:;

//---------------dance-single - ----------------
#NOTES:
     dance-single:
     :
     Challenge:
     11:
     0.897722,2.100162,1.245859,0.492867,0.602393,459.000000,368.000000,91.000000,36.000000,28.000000,0.000000,0.897722,2.100162,1.245859,0.492867,0.602393,459.000000,368.000000,91.000000,36.000000,28.000000,0.000000:
0000
0000
0000
0000
,
0000
0000
0000
0000
0000
0000
0000
0000
0001
0000
1000
0000
0001
1000
0001
1000
,
0001
0010
0100
0000
1000
0010
1000
0000
,
0001
0100
0010
0000
1000
0100
0001
0000
,
1000
0100
0010
0000
0100
1000
0001
0000
,
0100
0010
1000
0000
0001
0010
0100
1000
,
0010
0001
0010
0000
1000
0001
1000
0000
,
0100
0001
0100
0000
1000
0001
1000
0000
,
0010
0100
0001
0000
1000
0010
0100
0000
,
0001
0000
1000
0000
0100
0000
2200
0000
0000
3300
0000
0000
,
0001
0100
0011
0000
0100
1000
0110
0000
,
0010
1000
0101
0000
0100
0001
1100
0000
,
0010
1000
1001
0000
0100
1000
0011
0000
,
0100
0010
1001
0000
0010
0100
1010
0010
,
0100
0001
1001
0000
0001
0010
0011
0000
,
1000
0100
0101
0000
0100
0001
1010
0000
,
0100
0010
1001
0000
0100
1000
0101
0000
,
1001
0000
0110
0000
1010
0000
2002
0000
0000
3003
0000
0000
,
2000
0000
0000
0000
0000
0000
3100
0010
,
0002
0000
2003
0000
,
3020
0000
0130
2000
0000
3100
0010
1000
,
0001
0010
0100
1000
0001
0100
0010
1000
0100
0010
0001
1000
,
0200
0000
0000
0000
0000
0000
0301
0100
,
0020
0000
0000
0032
0000
0000
2003
0000
,
3200
0000
0310
1001
,
0101
0000
1100
0000
0110
0000
2002
0000
0000
3003
0000
0000
,
0010
0000
1001
0000
0100
0000
1100
0001
,
0100
0110
0010
1001
,
0001
0000
0011
2000
0000
3010
1010
0001
,
0010
0100
0010
0001
1000
0100
0010
0001
0100
0010
1000
0001
,
0100
0000
1100
0000
0100
0000
0101
0100
,
0010
0000
1010
0002
0000
1003
1100
0000
,
0100
0101
0010
1100
,
0011
0000
1100
0000
0011
0000
2002
0000
0000
3003
0000
0000
,
0100
1000
0100
0000
0100
0001
0100
0000
,
0100
1000
0100
0000
0100
0001
0100
0010
,
0001
0101
1001
1100
,
0001
0000
0000
0000
0000
0000
0000
0000
0010
0000
0000
0000
0000
0000
0000
0000
0100
0000
0000
0000
0000
0000
0000
0000
1100
0000
0000
0000
0000
0000
0000
0000
0000
0000
0000
0000
1000
0000
0000
0001
0000
0000
1000
0000
0000
0001
0000
0000
,
1000
0000
0010
0000
M11M
0000
0100
0000
0001
1000
0001
1000
1MM1
0000
0110
0000
,
0001
0100
0001
0100
0001
0100
0001
0000
M1M1
0000
0000
0000
1000
0000
0010
1000
0001
1000
0001
1000
0001
1000
0001
0000
1MM1
0000
0000
0010
0002
0100
0000
0000
,
1003
0000
0000
0000
0000
0000
0100
0000
0000
0000
0000
0000
0010
0000
0000
0000
0000
0000
0100
0000
0000
0000
0000
0000
1000
0000
0000
0000
0000
0000
0100
0000
0000
0000
0000
0000
1000
0000
0000
0000
0000
0000
0000
0000
0000
0000
0000
0000
01M1
0000
0000
0000
0000
0000
0000
0000
0000
0000
0000
0000
0000
0000
0000
0000
0000
0000
0000
0000
0000
0000
0000
0000
0100
0000
0000
0000
0000
0000
0000
0000
0000
0000
0000
0000
0010
0000
0000
0000
0000
0000
0000
0000
0000
0000
0000
0000
1000
0000
0000
0000
0000
0000
0001
0000
0000
0000
0000
0000
0010
0000
0000
0000
0000
0000
0100
0000
0000
0000
0000
0000
1000
0000
0000
0000
0000
0000
0001
0000
0000
0000
0000
0000
0100
0000
0000
0000
0000
0000
0000
0000
0000
0000
0000
0000
0110
0000
0000
0000
0000
0000
0000
0000
1010
0000
0000
0000
0000
0000
0000
0000
1001
0000
0000
0000
0000
0000
0000
0000
1100
0000
0000
0000
0000
0000
0000
0000
0000
0000
0000
0000
0000
0000
0000
0000
0000
0000
0000
0000
0000
0000
0000
0000
,
0001
0010
0100
1000
0100
0010
0001
0000
M110
0000
0000
0000
0000
0000
0001
0100
0010
1000
0001
1000
0100
0010
0001
0000
11M0
0000
0100
0000
0010
0000
0001
0000
,
1000
0000
0000
0000
0000
0000
0010
0000
0000
0000
0000
0000
1000
0000
0000
0000
0000
0000
0001
0000
0000
0000
0000
0000
1000
0000
0000
0000
0000
0000
0100
0000
0000
0000
0000
0000
0010
0000
0000
0000
0000
0000
0000
0000
0000
0000
0000
0000
M011
0000
0000
0000
0000
0000
0000
0000
0000
0000
0000
0000
0000
0000
0000
0000
0000
0000
0000
0000
0000
0000
0000
0000
0110
0000
0000
0000
0000
0000
0000
0000
0000
0000
0000
0000
0000
0000
0000
0000
0000
0000
0000
0000
0000
0000
0000
0000
1100
0000
0000
0000
0000
0000
0000
0000
0000
0000
0000
0000
0000
0000
0000
0000
0000
0000
0000
0000
0000
0000
0000
0000
0000
0000
0000
0000
0000
0000
0000
0000
0000
0000
0000
0000
0001
0000
0000
0000
0000
0000
0000
0000
0000
0000
0000
0000
0011
0000
0000
0000
0000
0000
0000
0000
1010
0000
0000
0000
0000
0000
0000
0000
0110
0000
0000
0000
0000
0000
0000
0000
1001
0000
0000
0000
0000
0000
0000
0000
0000
0000
0000
0000
0000
0000
0000
0000
0000
0000
0000
0000
0000
0000
0000
0000
,
0001
0100
1001
0000
0100
1000
1001
0000
,
0010
1000
0110
0000
0100
1000
0101
0000
,
0010
0001
1010
0000
0100
0001
1100
0000
,
0010
0001
1000
0100
0000
0010
1001
0000
,
0100
0001
1001
0000
1000
0010
1010
0000
,
0001
0010
0011
0000
0010
0001
1100
0000
,
0100
1000
0101
0000
0010
0100
1010
0000
,
2MM2
0MM0
3MM3
0000
M22M
M00M
M33M
0000
,
0202
0000
0000
0000
0300
0000
1003
0000
0200
0000
0000
0000
0300
0000
0010
0001
,
1000
0001
0100
0010
0110
0000
1010
0000
,
2002
0000
0000
0000
0000
0000
0003
0000
0000
3100
0000
0000
0110
0000
0011
0000
0110
0000
1001
0000
0110
0000
1001
0000
,
0202
0000
0303
2200
0000
3300
2002
0000
,
0000
0000
0000
0000
3003
0000
0000
0000
0001
0000
1000
0000
0001
1000
0001
1000
,
0001
0000
0000
0000
,
0000
0000
0000
0000
,
0000
0000
0000
0000
,
MMMM
0000
0000
0000
;

//---------------dance-single - ----------------
#NOTES:
     dance-single:
     :
     Hard:
     8:
     0.451795,0.881684,0.082145,0.438104,0.150598,231.000000,225.000000,6.000000,32.000000,0.000000,0.000000,0.451795,0.881684,0.082145,0.438104,0.150598,231.000000,225.000000,6.000000,32.000000,0.000000,0.000000:
0000
0000
0000
0000
,
0000
0000
0000
0000
,
1000
0001
0100
0010
,
1000
0010
0100
0001
,
0010
0100
0010
0002
,
0000
1003
0100
0010
,
0001
0100
0001
0000
,
1000
0010
1000
0000
,
0100
0010
0100
1000
,
0001
0000
0010
0000
0100
0000
2000
0000
0000
0000
0000
0000
,
3001
0100
0010
1000
,
0100
0010
0100
1000
,
0001
0010
0100
2000
,
0000
3010
0100
0010
,
1000
0001
0100
0010
,
0100
0001
0010
0100
,
1000
0010
0100
0001
,
0010
0000
0100
0000
1000
0000
0002
0000
0000
0000
0000
0000
,
0023
0000
0000
0000
0000
0000
0130
1000
,
0200
0000
0320
0000
,
0032
0000
0000
0203
0000
0000
0320
0000
,
1030
0100
0010
0001
,
2000
0000
0000
0000
0000
0000
3001
1000
,
0002
0000
0000
0203
0000
0000
0310
0000
,
2000
0000
3020
0000
,
0130
0000
0001
0000
0010
0000
0200
0000
0000
0000
0000
0000
,
2300
0000
0000
0000
0000
0000
3001
1000
,
0002
0000
0023
0000
,
0032
0000
0000
0203
0000
0000
0310
0000
,
1000
0100
0010
0001
,
0200
0000
0000
0000
0000
0000
0310
1000
,
0020
0000
0000
2030
0000
0000
3001
0000
,
0020
0000
0000
0230
0000
0000
0310
0000
,
0001
0000
1000
0000
0001
0000
0020
0000
0000
0000
0000
0000
,
0130
1000
0010
0100
,
0001
0010
0001
0100
,
0010
1000
0100
0001
,
0100
0010
0001
1000
,
0010
0000
0100
0000
0001
0000
1000
0000
0100
0010
0100
0010
0001
0000
1000
0000
,
0100
0000
0010
0000
1001
0000
0010
0000
0001
0000
1000
0001
0100
0000
0010
0000
,
0110
0000
1000
0010
1000
0000
0100
0000
0010
0000
0001
0000
0010
0000
0100
0000
,
0010
0000
0000
0001
1000
0000
0001
0100
0010
0000
1000
0000
0001
0100
0010
0100
,
0001
0000
0010
0100
1000
0000
0001
0000
1001
0000
0000
0000
0010
0000
0100
0000
,
0110
1000
0100
1000
,
0001
0010
0100
0010
,
0001
0100
0010
1000
,
0001
0100
0001
1000
,
0010
1000
0100
0010
,
0001
1000
0100
0010
,
0001
1000
0010
1000
,
0002
0003
2000
3000
,
0010
0000
0000
0000
0100
0000
0000
0000
1001
0000
0000
0000
0010
0000
0001
1000
,
0100
0100
0010
0010
0001
0000
1000
0000
,
0020
0000
0000
0130
0000
0000
0001
1000
0001
0010
0100
0010
,
0100
0000
0000
0100
0000
0000
0220
0000
,
0000
0000
0000
0000
,
0330
0000
0000
0000
;

//---------------dance-single - ----------------
#NOTES:
     dance-single:
     :
     Medium:
     6:
     0.295329,0.498343,0.219052,0.205361,0.000000,151.000000,135.000000,16.000000,15.000000,0.000000,0.000000,0.295329,0.498343,0.219052,0.205361,0.000000,151.000000,135.000000,16.000000,15.000000,0.000000,0.000000:
0000
0000
0000
0000
,
0000
0000
0000
0000
,
1000
0000
1001
0000
,
0010
0000
0110
0000
,
0001
0000
0010
0100
,
0010
0000
0001
0000
,
0100
0000
0010
0000
,
0100
0000
0001
0000
,
0010
0000
0100
0000
,
1100
0000
1100
0000
,
1001
0000
0010
0000
,
0001
0000
0100
0000
,
0010
0000
0100
0000
,
0001
0000
0010
0100
,
0010
0000
0100
0000
,
1000
0000
0001
0000
,
0010
0000
0100
0000
,
0011
0000
0011
0000
,
1001
0000
0010
0000
,
1000
0000
0010
0000
,
1000
0000
0100
0000
,
0010
0000
0001
0000
,
0100
0000
0010
0000
,
0100
0000
0001
0000
,
0010
0000
0100
0000
,
0110
0000
0110
0000
,
1000
0000
0001
0000
,
1000
0000
0100
0000
,
0001
0000
0010
0000
,
0100
0000
1000
0000
,
0010
0000
0100
0000
,
0010
0000
1000
0000
,
0001
0000
0010
0000
,
1001
0000
1001
0000
,
0010
0000
0001
0000
,
0100
0000
0010
0000
,
1000
0001
1000
0001
,
1000
0000
0001
0000
,
0100
0000
0100
0000
0010
0010
0010
1000
,
0100
0000
0100
0010
0002
0000
2003
0000
,
3002
0000
0103
0010
2000
0000
3020
0000
,
0230
0000
0302
0000
0023
0000
0030
0100
,
2000
0000
3001
1000
0100
0000
0010
0010
,
0001
0100
0001
0000
,
1000
0000
0010
0000
,
1000
0100
1000
0000
,
0001
0000
0010
0000
,
0100
0010
0100
0000
,
1000
0000
0001
0000
,
0010
0100
0010
0000
,
0110
0000
0110
0000
,
2002
0000
3003
0020
0000
0000
0031
0000
,
0100
1000
0010
0100
,
0020
0000
1030
0001
,
1000
0000
0000
0001
0000
0000
2002
0000
,
0000
0000
0000
0000
,
3003
0000
0000
0000
;

//---------------dance-single - ----------------
#NOTES:
     dance-single:
     :
     Easy:
     4:
     0.191671,0.306673,0.013691,0.123217,0.000000,98.000000,97.000000,1.000000,9.000000,0.000000,0.000000,0.191671,0.306673,0.013691,0.123217,0.000000,98.000000,97.000000,1.000000,9.000000,0.000000,0.000000:
// measure 0
0000
0000
0000
0000
,  // measure 1
0000
0000
0000
0000
,  // measure 2
1000
0000
0001
0000
,  // measure 3
0010
0000
0100
0000
,  // measure 4
1000
0000
0000
0000
,  // measure 5
0001
0000
0010
0000
,  // measure 6
0001
0000
0000
0000
,  // measure 7
0100
0000
0010
0000
,  // measure 8
1000
0000
0000
0000
,  // measure 9
0001
0000
1000
0000
,  // measure 10
0010
0000
0100
0000
,  // measure 11
0001
0000
1000
0000
,  // measure 12
0100
0000
0000
0000
,  // measure 13
0010
0000
0100
0000
,  // measure 14
1000
0000
0000
0000
,  // measure 15
0001
0000
0010
0000
,  // measure 16
0100
0000
0000
0000
,  // measure 17
0010
0000
0001
0000
,  // measure 18
0100
0000
0000
0000
,  // measure 19
0010
0000
1000
0000
,  // measure 20
0100
0000
0010
0000
,  // measure 21
0100
0000
0000
0000
,  // measure 22
0010
0000
0000
0000
,  // measure 23
0001
0000
0001
0000
,  // measure 24
0100
0000
0000
0000
,  // measure 25
0010
0000
1000
0000
,  // measure 26
0010
0000
0000
0000
,  // measure 27
0100
0000
0100
0000
,  // measure 28
0001
0000
1000
0000
,  // measure 29
0010
0000
0100
0000
,  // measure 30
0001
0000
0000
0000
,  // measure 31
0010
0000
0010
0000
,  // measure 32
0100
0000
0100
0000
,  // measure 33
1000
0000
0000
0000
,  // measure 34
0001
0000
0000
0000
,  // measure 35
1000
0000
0000
0000
,  // measure 36
0001
0000
0001
0000
,  // measure 37
0010
0000
0100
0000
,  // measure 38
1000
0010
0100
0001
,  // measure 39
2000
3000
0002
0003
,  // measure 40
0020
0130
0200
0310
,  // measure 41
0002
0003
2000
3000
,  // measure 42
0020
0130
0200
0301
,  // measure 43
1001
0000
0000
0000
,  // measure 44
0010
0000
0000
0000
,  // measure 45
0001
0000
0010
0000
,  // measure 46
1000
0000
0100
0000
,  // measure 47
0001
0000
0000
0000
,  // measure 48
0001
0000
0000
0000
,  // measure 49
1000
0000
0100
0000
,  // measure 50
0010
0000
0001
0000
,  // measure 51
1000
0000
0001
0000
,  // measure 52
0100
0010
1000
0010
,  // measure 53
0100
0000
0001
1000
,  // measure 54
0100
0000
0000
0100
0000
0000
0200
0000
,  // measure 55
0000
0000
0000
0000
,  // measure 56
0300
0000
0000
0000
;

//---------------dance-single - ----------------
#NOTES:
     dance-single:
     :
     Beginner:
     2:
     0.125173,0.221790,0.000000,0.000000,0.000000,64.000000,64.000000,0.000000,0.000000,0.000000,0.000000,0.125173,0.221790,0.000000,0.000000,0.000000,64.000000,64.000000,0.000000,0.000000,0.000000,0.000000:
// measure 0
0000
0000
0000
0000
,  // measure 1
0000
0000
0000
0000
,  // measure 2
0010
0000
0010
0000
,  // measure 3
0010
0000
0000
0000
,  // measure 4
0001
0000
0000
0000
,  // measure 5
1000
0000
0000
0000
,  // measure 6
0100
0000
0000
0000
,  // measure 7
0000
0000
0000
0000
,  // measure 8
0010
0000
0000
0000
,  // measure 9
0100
0000
0000
0000
,  // measure 10
1000
0000
1000
0000
,  // measure 11
1000
0000
0000
0000
,  // measure 12
0001
0000
0000
0000
,  // measure 13
0100
0000
0000
0000
,  // measure 14
0010
0000
0000
0000
,  // measure 15
0000
0000
1000
0000
,  // measure 16
1000
0000
0000
0000
,  // measure 17
0001
0000
0000
0000
,  // measure 18
0010
0000
0000
0000
,  // measure 19
0001
0000
0000
0000
,  // measure 20
0100
0000
0000
0000
,  // measure 21
0010
0000
0000
0000
,  // measure 22
1000
0000
0000
0000
,  // measure 23
0100
0000
0100
0000
,  // measure 24
0100
0000
0000
0000
,  // measure 25
0010
0000
0000
0000
,  // measure 26
0001
0000
0000
0000
,  // measure 27
0010
0000
0010
0000
,  // measure 28
0010
0000
0000
0000
,  // measure 29
0100
0000
0000
0000
,  // measure 30
1000
0000
0000
0000
,  // measure 31
0001
0000
0001
0000
,  // measure 32
0001
0000
0000
0000
,  // measure 33
0100
0000
0000
0000
,  // measure 34
0010
0000
0000
0000
,  // measure 35
0010
0000
0000
0000
,  // measure 36
1000
0000
0000
0000
,  // measure 37
0100
0000
0000
0000
,  // measure 38
0010
0000
0010
0000
,  // measure 39
0001
0000
1000
0000
,  // measure 40
0010
0000
0100
0100
,  // measure 41
0100
0000
0001
0000
,  // measure 42
1000
0000
0010
0010
,  // measure 43
0010
0000
0000
0000
,  // measure 44
0000
0000
0000
0000
,  // measure 45
1000
0000
0000
0000
,  // measure 46
0100
0000
0000
0000
,  // measure 47
0010
0000
0000
0000
,  // measure 48
0001
0000
0000
0000
,  // measure 49
0010
0000
0000
0000
,  // measure 50
0100
0000
0000
0000
,  // measure 51
1000
0000
0000
0000
,  // measure 52
0001
0000
0000
0000
,  // measure 53
0100
0000
0010
0000
,  // measure 54
0100
0000
0000
0000
;
