#TITLE:Swirly 1000x;
#SUBTITLE:;
#ARTIST:OMORI;
#TITLETRANSLIT:;
#SUBTITLETRANSLIT:;
#ARTISTTRANSLIT:;
#GENRE:OMORI;
#CREDIT:[Ness];
#BANNER:OMORI - Swirly 1000x.png;
#BACKGROUND:OMORI - Swirly 1000x-bg.png;
#LYRICSPATH:;
#CDTITLE:;
#MUSIC:OMORI - Swirly 1000x.mp3;
#OFFSET:-0.020000;
#SAMPLESTART:1.457721;
#SAMPLELENGTH:11.566266;
#LASTBEATHINT:334.000000;
#SELECTABLE:YES;
#BPMS:0.000000=166.000000
;
#STOPS:
;
#BGCHANGES:;
#KEYSOUNDS:;
#ATTACKS:;

//---------------dance-single - ----------------
#NOTES:
     dance-single:
     :
     Challenge:
     10:
     0.773968,0.945280,0.460915,0.177897,0.432613,670.000000,613.000000,57.000000,22.000000,4.000000,0.000000,0.773968,0.945280,0.460915,0.177897,0.432613,670.000000,613.000000,57.000000,22.000000,4.000000,0.000000:
0000
0000
0000
0000
,
0001
0010
1000
0001
0010
0100
0001
0010
,
1000
0001
0010
0100
1000
0001
0010
1000
,
0001
0100
0010
0001
0100
0010
0001
0010
,
1000
0001
0100
1000
0001
0010
1000
0100
,
0010
0001
1000
0010
0001
1000
0100
0001
,
0010
1000
0001
0100
1000
0001
0010
0100
,
1000
0010
0001
1000
0100
0001
0010
0100
,
1000
0010
0100
0001
0010
0100
1000
0001
,
0100
1000
0000
0100
1000
0000
0110
0001
,
0000
0000
0100
0000
0001
0000
1000
0000
0100
0010
0001
0000
1000
0000
0001
0000
,
0110
1000
0000
0001
0100
0000
0110
1000
,
0000
0010
0001
1000
0100
0001
0100
1000
,
0100
0010
0000
1000
0001
0000
0011
0100
,
0000
0001
0100
0000
1000
0001
0100
0010
,
1000
0100
0000
0001
0100
0000
0110
1000
,
0000
0001
0010
0100
0100
1000
0010
0100
,
0002
1000
0000
0010
1000
0000
0010
1003
,
0000
0000
0100
0000
1000
0000
0000
0000
1000
0001
1000
0000
0010
0000
0000
0000
,
0200
0000
0301
2000
0000
3010
0200
0000
,
0300
0001
1000
0000
1000
0010
0100
0001
,
2000
0100
0000
0001
0100
0000
0001
3100
,
0000
0000
0010
0000
0001
0000
0000
0000
1000
0100
1000
0000
0110
0000
0000
0000
,
2002
0000
3003
0220
0000
0330
2002
0000
,
3003
0000
0000
0000
0000
0000
0000
0000
0001
0100
0010
1000
0100
0010
0001
1000
,
0010
0000
0010
0100
0000
0100
0001
0000
0000
0000
1000
0000
0100
0000
0001
0000
,
0100
0000
0100
0010
0000
0010
0001
0000
0000
0000
1000
0000
0100
0000
0010
0000
,
0001
0000
0000
0100
0000
0000
1100
0000
0000
0000
0010
0000
0001
0000
1000
0000
,
0010
0000
0000
0011
0000
0000
1010
0000
0000
0000
0001
0000
0100
0000
0010
0000
,
1000
0000
1000
0100
0000
0100
0001
0000
0000
0000
0110
0000
1000
0000
0010
0000
,
1000
0000
0001
0010
0000
1000
0010
0000
0000
0000
0110
0000
1000
0000
0001
0000
,
0100
0000
0010
1000
0000
1000
0001
0000
0000
0000
0010
0000
0001
0000
1000
0000
,
0010
0000
0010
0100
0001
1000
0010
0000
0100
0000
0001
0000
1000
0000
1000
0000
,
1100
0000
0100
0010
0000
0000
0001
0000
0000
0000
1000
0000
0010
0000
1000
0000
,
0001
0000
1000
0100
0000
0000
0101
0000
0000
0000
0001
0000
1000
0000
0010
0000
,
1000
0000
0001
0010
0000
0100
1000
0000
0000
0000
0010
0000
0000
0000
0100
0000
,
0001
1000
0100
1000
0010
0100
0001
0010
0001
1000
0010
1000
0001
0100
0010
1000
,
0100
0000
0000
1100
0000
0000
1001
0000
0000
1000
0001
0000
0001
1000
0100
1000
,
0001
0000
0000
0101
0000
0000
1001
0000
0001
1000
0001
1000
0001
1000
0001
1000
,
1001
0000
0000
0011
0000
0000
1010
0000
0000
0100
0010
0000
0010
0000
0010
0000
,
1000
0000
0000
1001
0000
0000
0101
0000
0001
0010
0100
1000
0001
0000
0000
0000
,
1000
0100
1000
0000
0101
0000
0000
0000
1000
0000
0010
0000
0001
0000
1000
0000
,
0010
0000
0100
0000
1000
0000
0010
0000
0001
0000
1000
0000
0010
0100
0001
1000
,
0001
0000
1000
0000
0010
0000
0100
0001
1000
0000
0100
0000
0010
0000
0001
0000
,
0100
0000
0010
0000
1000
0001
1000
0000
0010
0000
1000
0000
0100
0000
0001
0000
,
1000
0000
0010
0000
0001
0000
0100
0000
0010
0000
1000
0000
0001
0000
0010
1000
,
0010
0000
0001
0000
0100
0000
1000
0000
0010
0000
0001
0000
1000
0000
0100
0001
,
0100
0000
1000
0000
0010
0000
0100
0001
0010
0000
1000
0000
0001
0000
0100
0000
,
1000
0000
0010
0000
0100
0001
0100
0000
0001
0000
0010
0000
0100
0000
1000
0000
,
0010
0100
0001
1000
0100
0001
0000
0100
,
1000
0000
0011
0100
0000
0100
1010
0001
,
0100
0001
1000
0000
0010
0000
1000
0000
1100
0000
0001
0000
0000
0000
1001
0000
,
0100
0000
0101
0010
0000
1000
0001
0100
,
1000
0100
0001
1000
0100
0010
0000
0001
,
1000
0000
0000
0000
1010
0000
0100
0000
0000
0000
0011
0000
0100
0000
0001
1000
,
0001
0100
1001
0010
0001
0100
0000
1000
,
0100
0000
0000
0000
0110
0000
0001
0000
0000
0000
1000
0000
0010
0100
0001
1000
,
0010
0001
0010
0100
1002
0010
0000
1000
,
0010
0000
1000
0100
0000
0010
1003
0000
,
0001
1000
0001
0000
0010
0000
0100
0000
0200
0000
0000
0000
1300
0000
0002
0000
,
0000
0013
0200
0000
0300
1000
0001
0000
,
0001
0010
0100
1000
0020
0100
0000
1000
,
0100
0000
0001
0100
0030
0010
1000
0000
,
0001
0100
0001
0000
0110
0000
0000
0000
2002
0000
0000
0000
3003
0000
0220
0000
,
0000
0330
2002
0000
3003
0000
0000
0000
,
1000
0100
0010
0001
0100
0010
1000
0001
0010
0000
0010
0100
0000
0100
1000
0000
,
0000
0000
0001
0000
0100
0000
1000
0000
0100
0000
0100
0010
0000
0010
1000
0000
,
0000
0000
0001
0000
0100
0000
0010
0000
1000
0000
0000
0100
0000
0000
0101
0000
,
0000
0000
0010
0000
1000
0000
0001
0000
0010
0000
0000
1010
0000
0000
0011
0000
,
0000
0000
1000
0000
0100
0000
0010
0000
0001
0000
0001
0100
0000
0100
1000
0000
,
0000
0000
0110
0000
0001
0000
0010
0000
0001
0000
1000
0010
0000
0001
0010
0000
,
0000
0000
0110
0000
0001
0000
1000
0000
0100
0000
0010
0001
0000
0001
1000
0000
,
0000
0000
0010
0000
1000
0000
0001
0000
0010
0000
0010
0100
1000
0001
0010
0000
,
0100
0000
1000
0000
0001
0000
0001
0000
0101
0000
0100
0010
0000
0000
1000
0000
,
0000
0000
0001
0000
0010
0000
0001
0000
1000
0000
0001
0100
0000
0000
1100
0000
,
0000
0000
1000
0000
0001
0000
0010
0000
0001
0000
1000
0010
0000
0100
0001
0000
,
0000
0000
0010
0000
0000
0000
0100
0000
1000
0001
0100
0001
0010
0100
1000
0010
,
1000
0001
0010
0001
1000
0100
0010
0001
0100
0000
0000
0101
0000
0000
1001
0000
,
0000
0001
1000
0000
1000
0001
0100
0001
1000
0000
0000
1100
0000
0000
1001
0000
,
1000
0001
0100
0010
1000
0100
0010
0001
1001
0000
0000
1010
0000
0000
0011
0000
,
0000
0100
0010
0000
0010
0000
0010
0000
0001
0000
0000
1001
0000
0000
1100
0000
,
1000
0010
0100
0001
1000
0000
0000
0000
0001
0100
0001
0000
1100
0000
0000
0000
,
0000
0000
0000
0000
,
0000
0000
MMMM
0000
;

//---------------dance-single - ----------------
#NOTES:
     dance-single:
     :
     Hard:
     8:
     0.609933,0.629917,0.695416,0.501346,0.117250,528.000000,442.000000,86.000000,62.000000,0.000000,0.000000,0.609933,0.629917,0.695416,0.501346,0.117250,528.000000,442.000000,86.000000,62.000000,0.000000,0.000000:
0000
0000
0000
0000
,
0001
0100
0001
1000
0010
1000
0001
2002
,
0000
3003
0010
0000
0100
0010
0100
0000
,
1000
0100
1000
0001
0010
0100
1000
2002
,
0000
3003
0010
0001
0100
1000
0100
0000
,
0010
0001
0100
0010
1000
0001
1000
2002
,
0000
3003
0010
1000
0100
0010
0100
0000
,
1000
0010
0100
0001
0010
0100
0010
0210
,
0000
0301
0100
0010
1000
0100
0010
0001
,
0100
0010
0000
1000
0100
0000
0001
0100
,
0000
1000
0100
0000
0001
1000
0010
0100
,
0001
0010
0000
1000
0010
0000
0001
0010
,
0000
1000
0010
0000
0100
0001
0010
0100
,
0010
0001
0000
0010
1000
0000
0010
0001
,
0000
0010
1000
0000
0001
1000
0010
0100
,
0001
0010
0000
0100
1000
0000
1000
0010
,
0000
0100
0001
0000
1000
0100
0010
0001
,
0200
0000
0300
0220
0000
0330
2002
0000
,
3003
0220
0000
0330
0001
0100
1000
0100
,
0220
0000
0330
2200
0000
3300
0202
0000
,
0303
0000
0000
0000
0001
1000
0010
0100
,
0002
0000
0003
0022
0000
0033
2020
0000
,
3030
0000
1000
0000
0001
1000
0100
0000
,
2200
0000
3300
0022
0000
0033
2002
0000
,
0000
0000
3003
0000
0010
0100
0010
0100
,
0001
0000
0000
0011
0000
0000
1001
0000
0000
0000
1000
0000
0010
0000
1000
0000
,
0100
0000
0000
0110
0000
0000
1001
0000
0000
0000
1000
0000
0010
0000
1000
0000
,
0001
0000
0000
0011
0000
0000
0110
0000
0000
0000
1000
0000
0100
0000
1000
0000
,
0010
0000
0000
0110
0000
0000
1010
0000
0000
0000
1000
0000
0100
0000
0010
0000
,
0001
0000
0000
1001
0000
0000
0110
0000
0000
0000
1000
0000
0000
0000
0001
0000
,
0010
0000
0000
0100
0000
0000
1100
0000
0000
0000
0010
0000
0100
0000
0001
0000
,
0010
0000
0000
0011
0000
0000
1001
0000
0000
0000
0010
0000
0000
0000
0100
0000
,
0001
0010
0100
1000
0010
1000
0100
0010
,
0001
0000
0000
1000
0000
0000
1001
0000
0000
0000
0010
0000
0000
0000
0100
0000
,
0010
0000
0000
1000
0000
0000
1100
0000
0000
0000
0010
0000
0000
0000
0001
0000
,
1000
0000
0000
1001
0000
0000
0011
0000
0000
0000
0100
0000
0000
0000
0010
0000
,
1000
0100
0010
0100
1000
0001
0010
0100
,
1000
0000
0000
1100
0000
0000
0100
0000
0000
0000
0010
0000
0000
0000
0001
0000
,
0100
0000
0000
0010
0000
0000
0110
0000
0000
0000
0000
0000
0000
0000
0000
0000
,
1000
0000
0000
0001
0000
0000
0010
0000
0000
0000
1000
0000
0010
0000
1000
0000
,
0001
0000
0000
1000
0000
0000
2002
0000
0000
0000
3003
0000
0010
0000
0000
0000
,
0000
0000
0000
0000
0001
1000
0010
0100
,
0010
1000
0100
2200
0000
3300
0010
0001
,
0100
0010
1000
0000
0001
0100
0010
1000
,
0100
0010
0001
0021
0000
0031
1000
0000
,
0001
1000
0010
0000
0100
0010
1000
0001
,
0100
0010
0100
0202
0000
0303
0001
0010
,
0001
1000
0010
0000
1000
0010
0100
0001
,
0010
0100
0010
0022
0000
0033
1000
0100
,
0010
0001
0100
0010
1000
0100
0000
0001
,
0100
0000
1000
0100
0000
0010
0001
0000
,
0100
0010
0100
0001
1000
0010
0000
0001
,
0010
0000
0100
1000
0000
0010
0100
0000
,
0010
1000
0001
1000
0100
0010
0000
0001
,
0100
0000
1000
0001
0000
1000
0010
0000
,
0100
0010
1000
0100
0010
0001
0000
1000
,
0010
0000
0100
0001
0000
0010
0100
0000
,
1000
0010
1000
0001
0020
0000
0030
0022
,
0000
0033
2200
0000
3300
0220
0000
0330
,
0001
1000
0010
0100
0020
0000
0030
2002
,
0000
3003
0220
0000
0330
0000
0000
0000
,
0100
0001
1000
0100
0010
0001
0000
0001
,
1000
0000
2002
0000
3003
0220
0000
0330
,
0001
1000
0100
0010
0022
0000
0033
2020
,
0000
3030
0220
0000
0000
0000
0330
0000
,
0001
0000
1000
0000
0100
0000
0010
0000
0001
0000
0000
1100
0000
0000
1001
0000
,
0000
0000
0010
0000
0100
0000
0001
0000
0010
0000
0000
0110
0000
0000
1100
0000
,
0000
0000
1000
0000
0010
0000
1000
0000
0001
0000
0000
0110
0000
0000
0101
0000
,
0000
0000
1000
0000
0001
0000
0100
0000
0010
0000
0000
1001
0000
0000
0110
0000
,
0000
0000
1000
0000
0100
0000
1000
0000
0001
0000
0000
0011
0000
0000
0110
0000
,
0000
0000
0010
0000
0000
0000
0001
0000
0100
0000
0000
0110
0000
0000
1100
0000
,
0000
0000
0010
0000
1000
0000
0001
0000
0010
0000
0000
0000
0011
0000
0000
1001
,
0000
0000
0010
0000
0000
0000
0001
0000
0100
0000
0000
1100
0000
0000
0101
0000
,
0100
0000
0001
0000
1000
0000
0010
0000
0100
0000
0000
0011
0000
0000
1010
0000
,
0000
0000
1000
0000
0000
0000
0001
0000
1000
0000
0000
0110
0000
0000
1001
0000
,
0000
0000
1000
0000
0000
0000
0001
0000
0010
0000
0000
0110
0000
0000
0011
0000
,
0000
0110
0000
1000
0001
0100
1000
0100
,
0001
0000
0010
0000
1000
0000
0010
0000
0001
0000
0000
0110
0000
0000
1010
0000
,
0000
0000
1001
0000
0000
0000
0011
0000
0010
0000
0000
0110
0000
0000
1001
0000
,
0000
0000
0000
0000
0000
0000
0001
0000
1000
0000
0000
0110
0000
0000
0101
0000
,
0000
0000
1001
0000
1000
0000
0010
0000
1010
0000
0000
0101
0000
0000
1100
0000
,
0000
0110
0000
0000
,
1001
0000
0000
0000
;

//---------------dance-single - ----------------
#NOTES:
     dance-single:
     :
     Medium:
     6:
     0.378898,0.430996,0.266846,0.000000,0.016172,328.000000,295.000000,33.000000,0.000000,0.000000,0.000000,0.378898,0.430996,0.266846,0.000000,0.016172,328.000000,295.000000,33.000000,0.000000,0.000000,0.000000:
0000
0000
0000
0000
,
1000
0000
0001
0000
0010
0000
0000
0011
,
0000
0000
1001
0000
0000
0010
0000
0000
,
1000
0000
0100
0000
1100
0000
0000
1001
,
0000
0100
0010
0100
,
0001
0000
1000
0000
1001
0000
0000
0011
,
0000
0000
1010
0000
0000
0100
0000
0000
,
0010
0000
1000
0000
0100
0000
0000
1100
,
0000
0010
0001
0100
,
1001
0000
0000
0110
,
0000
0000
0000
0000
1000
0010
1000
0000
,
1001
0000
0000
0011
,
0000
0000
0000
0000
0100
0010
0100
0000
,
0101
0000
0000
1100
,
0000
0000
0000
0000
0001
1000
0001
0000
,
0110
0000
0000
1001
,
0000
0000
0000
0000
0010
0001
0100
0000
,
0001
0000
0000
0010
0000
0000
1000
0000
,
0000
0010
0000
0000
0001
0000
0100
0000
,
1000
0000
0000
0100
0000
0000
0001
0000
,
0000
0100
0000
0000
1000
0000
0010
0000
,
0100
0000
0000
0010
0000
0000
1000
0000
,
0000
0100
0000
0000
0010
0000
0001
0000
,
1000
0000
0000
0001
0000
0000
0100
0000
,
0000
0000
0010
1000
,
0001
0000
0010
0000
0001
0100
0001
0000
,
1000
0000
0010
0000
0100
0010
1000
0000
,
0100
0000
1000
0000
0001
0100
0001
0000
,
0010
0000
0001
0000
1000
0010
0100
0000
,
0010
0000
1000
0000
0100
1000
0100
0000
,
1000
0000
0001
0000
0010
0001
0100
0000
,
0001
0000
0100
0000
1000
0001
0100
0000
,
0010
1000
0100
0000
1000
0000
0001
0000
,
0010
0000
0100
0000
0010
0001
0010
0000
,
0100
0000
1000
0000
0001
1000
0100
0000
,
0010
0000
0001
0000
0100
0010
1000
0000
,
0001
0100
0001
0000
1000
0010
1000
0000
,
0001
0010
0001
0010
,
1000
0100
0010
0000
,
1000
0100
1000
0100
,
0001
0010
0100
1000
,
0110
0000
0000
0000
0001
0100
0001
0000
,
0010
0000
0000
1001
0000
0000
0010
0000
,
0000
1000
0000
0000
0001
0100
0001
0000
,
1000
0000
0010
1000
0000
0000
0110
0000
,
1001
0000
0100
0000
0010
1000
0010
0000
,
0100
0000
0000
1001
0000
0000
0110
0000
,
0000
1001
0000
0000
0010
0001
0010
0000
,
0100
0000
0000
1100
0000
0000
0100
0000
,
1000
0001
1001
0000
,
0000
0110
0000
0000
,
0001
0010
0001
0000
0011
0000
0000
0000
,
0000
1001
0000
0000
,
1000
0010
1010
0000
,
0000
1001
0000
0000
,
1000
0100
1000
0000
1100
0000
0000
0000
,
0000
1001
0000
0000
,
0100
0001
0100
0000
0010
0000
0000
1000
,
0000
0000
0100
0000
0000
0001
0000
0000
,
0010
0000
0100
0000
0010
0000
0000
0001
,
0000
0000
0100
0000
0000
0010
0000
0000
,
1000
0000
0001
0000
0010
0000
0000
0001
,
0000
0000
1000
0000
0000
0100
0000
0000
,
0010
0000
0100
0000
0010
0000
0000
0001
,
0000
0100
0000
0000
,
1000
0100
1000
0000
0010
0000
1000
0000
,
0001
0100
0010
0000
1000
0000
0100
0000
,
0010
0100
1000
0000
0001
0000
0010
0000
,
0001
1000
0010
0000
0100
0000
0010
0000
,
1000
0100
0010
0000
0001
0000
0100
0000
,
0010
0100
0001
0000
1000
0000
0010
0000
,
0100
0010
1000
0000
0100
0000
1000
0000
,
0001
0010
0100
0000
0010
0000
0001
0000
,
1000
0001
0100
0000
0010
0000
1000
0000
,
0100
1000
0001
0000
0010
0000
0001
0000
,
0100
0010
0100
0000
0001
0000
1000
0000
,
0010
1000
0100
0000
1000
0000
0001
0000
,
0100
0000
0000
0000
0010
0000
0000
0000
1000
0000
0000
0100
0000
0000
1000
0000
,
0000
0000
0000
0000
0001
0000
0000
0000
0010
0000
0000
0001
0000
0000
0010
0000
,
0000
0000
0000
0000
0000
0000
0000
0000
0001
0000
0000
0100
0000
0000
0001
0000
,
0000
0000
0000
0000
1000
0000
0000
0000
0010
0000
0000
0100
0000
0000
0010
0000
,
0000
1001
0000
0000
,
0010
0000
0000
0000
;

//---------------dance-single - ----------------
#NOTES:
     dance-single:
     :
     Easy:
     4:
     0.256449,0.298382,0.008086,0.000000,0.000000,222.000000,221.000000,1.000000,0.000000,0.000000,0.000000,0.256449,0.298382,0.008086,0.000000,0.000000,222.000000,221.000000,1.000000,0.000000,0.000000,0.000000:
// measure 0
0000
0000
0000
0000
,  // measure 1
1000
1000
0010
0100
,  // measure 2
0000
0001
0000
1000
,  // measure 3
0001
0001
0010
0100
,  // measure 4
0000
0010
0010
0010
,  // measure 5
0001
1000
0100
0100
,  // measure 6
0000
0010
0000
0001
,  // measure 7
0100
0100
0010
1000
,  // measure 8
0000
0001
1000
0100
,  // measure 9
0010
0000
0010
0000
,  // measure 10
0001
0000
0001
1000
,  // measure 11
0010
0000
0010
0000
,  // measure 12
0100
0000
0100
0001
,  // measure 13
0010
0000
0010
0000
,  // measure 14
0100
0000
0100
1000
,  // measure 15
0010
0000
0010
0000
,  // measure 16
1000
0000
1000
0001
,  // measure 17
0100
0000
0000
0010
,  // measure 18
0000
0000
1000
0100
,  // measure 19
0010
0000
0000
0001
,  // measure 20
0000
0000
0100
0001
,  // measure 21
1000
0000
0000
0010
,  // measure 22
0000
0000
0100
0010
,  // measure 23
1000
0000
0000
0100
,  // measure 24
0000
0000
0010
0001
,  // measure 25
1000
1000
0001
0000
,  // measure 26
0100
0100
0010
1000
,  // measure 27
0100
0100
0010
0000
,  // measure 28
0001
0001
0100
0000
,  // measure 29
0010
0010
1000
0000
,  // measure 30
0001
0001
0010
0100
,  // measure 31
1000
1000
0001
0000
,  // measure 32
1000
1000
0010
0000
,  // measure 33
0100
0100
0001
0000
,  // measure 34
0010
0010
0001
1000
,  // measure 35
0100
0100
0010
0100
,  // measure 36
0010
0010
0001
0001
,  // measure 37
0100
0000
1000
0000
,  // measure 38
0100
0100
0010
0000
,  // measure 39
0001
0000
1000
0000
,  // measure 40
0010
0010
0100
0000
,  // measure 41
0000
0000
0001
0000
,  // measure 42
0010
0010
0000
0100
,  // measure 43
0000
1000
1000
0000
,  // measure 44
0010
0100
0000
0001
,  // measure 45
0010
0100
1000
0000
,  // measure 46
1000
0001
0000
0100
,  // measure 47
0000
0100
0010
0000
,  // measure 48
1000
0100
0000
0010
,  // measure 49
0010
0010
0001
0000
,  // measure 50
1000
0000
0010
0000
,  // measure 51
0100
0100
0001
0000
,  // measure 52
0010
0000
0100
0000
,  // measure 53
1000
1000
0001
0000
,  // measure 54
0010
0000
0001
0000
,  // measure 55
0100
0010
1000
0000
,  // measure 56
0001
0000
0010
0000
,  // measure 57
0100
0100
1000
0000
,  // measure 58
0000
0001
0000
0000
,  // measure 59
0100
0010
1000
0000
,  // measure 60
0000
0001
0000
0000
,  // measure 61
0010
0001
1000
0000
,  // measure 62
0000
0001
0000
0000
,  // measure 63
1000
0010
0100
0000
,  // measure 64
0000
0010
0000
0000
,  // measure 65
1000
0100
0010
0001
,  // measure 66
0100
0000
0001
1000
,  // measure 67
0100
0010
0100
1000
,  // measure 68
0001
0000
1000
0010
,  // measure 69
0100
0000
0010
1000
,  // measure 70
0010
0000
1000
0001
,  // measure 71
0010
0100
0010
0001
,  // measure 72
0010
0000
0001
0100
,  // measure 73
0001
0000
1000
0100
,  // measure 74
1000
0000
0001
1000
,  // measure 75
0010
0100
0001
1000
,  // measure 76
0100
0000
1000
0000
,  // measure 77
0001
0000
1001
0000
,  // measure 78
0010
0001
0100
0100
,  // measure 79
0010
0000
1000
0000
,  // measure 80
0001
0000
0010
0010
,  // measure 81
0100
0000
0000
0000
,  // measure 82
1000
0000
0000
0000
;

//---------------dance-single - ----------------
#NOTES:
     dance-single:
     :
     Beginner:
     2:
     0.135156,0.165768,0.000000,0.000000,0.000000,117.000000,117.000000,0.000000,0.000000,0.000000,0.000000,0.135156,0.165768,0.000000,0.000000,0.000000,117.000000,117.000000,0.000000,0.000000,0.000000,0.000000:
// measure 0
0000
0000
0000
0000
,  // measure 1
1000
0000
1000
1000
,  // measure 2
0000
0000
0000
0000
,  // measure 3
0001
0000
0001
0001
,  // measure 4
0000
0000
0000
0000
,  // measure 5
0100
0000
0100
0100
,  // measure 6
0000
0000
0000
0000
,  // measure 7
1000
0000
1000
1000
,  // measure 8
0000
0000
0010
0000
,  // measure 9
0100
0000
0000
0100
,  // measure 10
0000
0000
0000
0000
,  // measure 11
0001
0000
0000
0001
,  // measure 12
0000
0000
0000
0000
,  // measure 13
0010
0000
0000
0010
,  // measure 14
0000
0000
0000
0000
,  // measure 15
0100
0000
0000
0100
,  // measure 16
0000
0000
0000
0000
,  // measure 17
1000
0000
0000
1000
,  // measure 18
0000
0000
0000
0000
,  // measure 19
0001
0000
0000
0001
,  // measure 20
0000
0000
0000
0000
,  // measure 21
0100
0000
0000
0100
,  // measure 22
0000
0000
0000
0000
,  // measure 23
0010
0000
0000
0010
,  // measure 24
0000
0000
1000
0000
,  // measure 25
0100
0000
0100
0000
,  // measure 26
0001
0000
0001
0000
,  // measure 27
0100
0000
0100
0000
,  // measure 28
1000
0000
1000
0000
,  // measure 29
0001
0000
0001
0000
,  // measure 30
0010
0000
1000
0000
,  // measure 31
0100
0000
0100
0000
,  // measure 32
1000
0000
0001
0000
,  // measure 33
0100
0000
0100
0000
,  // measure 34
0010
0000
1000
0000
,  // measure 35
0010
0000
0010
0000
,  // measure 36
0001
0000
0001
0000
,  // measure 37
1000
0000
0000
0000
,  // measure 38
0001
0000
0000
0000
,  // measure 39
0100
0000
0000
0000
,  // measure 40
0010
0000
0000
0000
,  // measure 41
0000
0000
0010
0000
,  // measure 42
0010
0010
0000
0000
,  // measure 43
0000
0000
0100
0000
,  // measure 44
0100
0100
0000
0000
,  // measure 45
0000
0000
0001
0000
,  // measure 46
0001
0001
0000
0000
,  // measure 47
0000
0000
1000
0000
,  // measure 48
1000
1000
0000
0000
,  // measure 49
0010
0000
0100
0000
,  // measure 50
0000
0100
0000
0000
,  // measure 51
0000
0000
0001
0000
,  // measure 52
0000
0001
0000
0000
,  // measure 53
0000
0000
0010
0000
,  // measure 54
0000
0010
0000
0000
,  // measure 55
0000
0000
0001
0000
,  // measure 56
0000
0001
0000
0000
,  // measure 57
0000
0000
1000
0000
,  // measure 58
0000
1000
0000
0000
,  // measure 59
0000
0000
0100
0000
,  // measure 60
0000
0100
0000
0000
,  // measure 61
0000
0000
0010
0000
,  // measure 62
0000
0010
0000
0000
,  // measure 63
0000
0000
0001
0000
,  // measure 64
0000
0001
0000
0000
,  // measure 65
1000
0000
0001
0000
,  // measure 66
0001
0000
0100
0000
,  // measure 67
0100
0000
0001
0000
,  // measure 68
0001
0000
1000
0000
,  // measure 69
1000
0000
0100
0000
,  // measure 70
0100
0000
0010
0000
,  // measure 71
0001
0000
0100
0000
,  // measure 72
0100
0000
0010
0000
,  // measure 73
1000
0000
0100
0000
,  // measure 74
0100
0000
0001
0000
,  // measure 75
1000
0000
0010
0000
,  // measure 76
0010
0000
0100
0000
,  // measure 77
0100
0000
0001
0000
,  // measure 78
0000
0000
0100
0000
,  // measure 79
0000
0000
1000
0000
,  // measure 80
0000
0000
0010
0000
,  // measure 81
0000
0000
0000
0000
,  // measure 82
0100
0000
0000
0000
;
