#VERSION:0.83;
#TITLE:Sweet Paralysis;
#SUBTITLE:;
#ARTIST:OMORI;
#TITLETRANSLIT:;
#SUBTITLETRANSLIT:;
#ARTISTTRANSLIT:;
#GENRE:OMORI;
#ORIGIN:;
#CREDIT:[Ness];
#BANNER:OMORI - Sweet Paralysis.png;
#BACKGROUND:OMORI - Sweet Paralysis-bg.png;
#PREVIEWVID:;
#JACKET:OMORI - Sweet Paralysis-jacket.png;
#CDIMAGE:;
#DISCIMAGE:;
#LYRICSPATH:;
#CDTITLE:;
#MUSIC:OMORI - Sweet Paralysis.mp3;
#OFFSET:-0.040000;
#SAMPLESTART:7.691361;
#SAMPLELENGTH:15.359997;
#SELECTABLE:YES;
#BPMS:0.000=125.000;
#STOPS:;
#DELAYS:;
#WARPS:;
#TIMESIGNATURES:0.000=4=4;
#TICKCOUNTS:0.000=2;
#COMBOS:0.000=1;
#SPEEDS:0.000=1.000=0.000=0;
#SCROLLS:0.000=1.000;
#FAKES:;
#LABELS:0.000=Song Start;
#BGCHANGES:151.500=Defeat.png=1.000=0=0=1=====,
153.000=Defeat.png=1.000=1=0=1===CrossFade=#808080=,
99999=-nosongbg-=1.000=0=0=0 // don't automatically add -songbackground-
;
#KEYSOUNDS:;
#ATTACKS:
;

//---------------dance-single - ----------------
#NOTEDATA:;
#CHARTNAME:[Ness];
#STEPSTYPE:dance-single;
#DESCRIPTION:[Ness];
#CHARTSTYLE:;
#DIFFICULTY:Challenge;
#METER:10;
#RADARVALUES:0.645068,0.847131,0.433690,0.127556,0.854625,354.000000,320.000000,34.000000,10.000000,72.000000,0.000000,0.000000,0.000000,0.000000,0.645068,0.847131,0.433690,0.127556,0.854625,354.000000,320.000000,34.000000,10.000000,72.000000,0.000000,0.000000,0.000000,0.000000;
#CREDIT:[Ness];
#NOTES:
0000
0000
0000
0000
,
0000
0000
0000
0000
,
0000
0000
0000
0000
,
0000
0000
0000
0000
,
0101
0000
0000
0000
1100
0000
0000
0000
0110
0000
0000
0010
1001
0000
0010
0000
,
0011
0000
1000
0000
0101
0000
0010
0000
1100
0000
0000
1000
0011
0000
0100
0000
,
1010
0000
0000
0000
1100
0000
0000
0000
0110
0000
0000
1000
0101
0000
0010
0000
,
0011
0000
0100
0000
1100
0000
0010
0000
0100
0100
0001
0001
1000
1000
0010
0010
,
0100
0001
1000
0010
0100
0001
1000
0010
0100
0001
1000
0010
0100
0001
1000
0010
,
0100
0001
1000
0010
0100
0001
1000
0010
0100
0001
1000
0010
0100
0001
1000
0010
,
1000
0001
0010
0100
1000
0001
0010
0100
1000
0001
0010
0100
1000
0001
0010
0100
,
1000
0001
0010
0100
1000
0001
0010
0100
1000
0001
0010
0100
1000
0001
0010
0100
,
1000
0000
0000
0000
0010
0000
0000
0000
0110
0000
0000
0000
0010
0000
0000
0000
1000
0000
0000
0000
0001
0000
0010
0000
0000
0000
0000
00MM
1100
0000
0000
0000
,
0001
0000
0000
0000
0100
0000
0000
0000
0010
0000
0000
0000
1000
0000
0000
0000
0100
0000
1000
0000
0001
0000
0100
0000
0000
0000
0000
0M0M
1010
0000
0000
0000
,
1000
0000
0000
0000
0100
0000
0000
0000
0010
0000
0000
0000
0001
0000
0000
0000
1000
0000
0000
0000
0100
0000
0010
0000
0000
0000
0000
0MM0
1001
0000
0000
0000
,
0100
0000
0000
0000
0010
0000
0000
0000
1000
0000
0000
0000
0001
0000
0000
0000
0010
0000
0100
0000
1000
0000
0001
0000
0000
0000
0000
M00M
0110
0000
0000
0000
,
001M
0100
1000
0100
001M
0100
1000
0100
001M
0100
1000
0100
001M
0100
1000
0100
,
001M
0100
1000
0100
001M
0100
1000
0100
001M
0100
1000
0100
001M
0100
1000
0100
,
M010
0001
0100
0001
M010
0001
0100
0001
M010
0001
0100
0001
M010
0001
0100
0001
,
M010
0001
0100
0001
M010
0001
0100
0001
M010
0001
0100
0001
M010
0001
0100
0001
,
M010
0000
0000
0100
00M0
0000
0010
0000
000M
0000
0M00
0000
M001
0000
0000
0M00
,
1000
00M0
0000
010M
0000
M000
0001
0000
00M0
0000
0000
0M00
1000
0000
000M
0000
,
0010
0M00
0000
M001
0000
0000
01M0
0000
0000
000M
0000
0M00
1000
000M
0000
00M0
,
0100
0000
M000
0010
0000
0M00
0001
M000
0000
00M0
0000
0000
100M
0000
0000
0M00
,
0020
0000
M000
0001
0000
0M00
2030
000M
0000
0M00
0000
00M0
3200
000M
0000
0000
,
M320
0000
000M
0100
0000
M000
0032
0000
0M00
0000
00M0
0000
2003
0M00
0000
0000
,
302M
0000
0000
0M01
0000
0000
M230
0000
0000
000M
0000
0000
M302
0000
0000
00M0
,
2003
0000
0000
010M
0000
0000
3010
0000
0110
0000
0000
0101
0000
0000
1001
0000
,
0001
0000
1000
0001
0100
0000
0010
0000
1000
0000
0100
1000
0010
0000
0100
0000
,
0001
0000
0010
0100
1000
0000
0001
0000
0100
0000
0010
0100
0001
0000
1000
0000
,
0100
0000
0010
0001
1000
0000
0010
0000
0100
0000
0010
1000
0001
0000
0010
0000
,
0001
0000
0100
0001
0010
0000
0100
0000
1000
0000
0010
1000
0000
0100
0001
0000
,
0101
0000
0010
0000
1001
0000
1000
0010
0100
0000
0010
0000
0101
0000
0001
1000
,
0100
0000
0010
0000
1100
0000
0010
0100
1000
0000
0001
0000
0101
0000
1000
0010
,
0100
0000
0010
0000
1001
0000
0100
0001
0010
0000
0100
0000
0110
0000
1000
0010
,
1000
0000
0001
0000
1001
0000
0100
0010
0100
0000
0001
0010
0100
1000
0100
1000
,
1100
0000
0000
0101
0000
0000
0110
0000
1000
1000
0001
0000
0011
0000
1000
0001
,
1000
0000
0000
0000
,
0000
0000
0000
0000
,
0000
0000
0000
0000
,
0000
MMMM
0000
0000
;

//---------------dance-single - ----------------
#NOTEDATA:;
#CHARTNAME:[Ness];
#STEPSTYPE:dance-single;
#DESCRIPTION:[Ness];
#CHARTSTYLE:;
#DIFFICULTY:Hard;
#METER:7;
#RADARVALUES:0.411823,0.471957,0.331645,0.178578,0.318890,226.000000,200.000000,26.000000,14.000000,0.000000,0.000000,0.000000,0.000000,0.000000,0.411823,0.471957,0.331645,0.178578,0.318890,226.000000,200.000000,26.000000,14.000000,0.000000,0.000000,0.000000,0.000000,0.000000;
#CREDIT:[Ness];
#NOTES:
0000
0000
0000
0000
,
0000
0000
0000
0000
,
0000
0000
0000
0000
,
0000
0000
0000
0000
,
1100
0000
0000
0000
0101
0000
0000
0000
0110
0000
0000
1001
0000
0000
0110
0000
,
0000
0000
0010
0000
0000
0000
1000
0000
0100
0000
0000
0010
0000
0000
0001
0000
,
0100
0000
0000
0000
0101
0000
0000
0000
1010
0000
0000
1100
0000
0000
1001
0000
,
0000
0000
0010
0000
0010
0000
0000
0000
0001
1000
0001
1000
0001
1000
0001
1000
,
0200
0000
0000
0000
0000
0000
0000
0000
0010
0000
0000
0010
0000
0000
0310
0000
,
0002
0000
0000
0000
0000
0000
0100
0000
0100
0000
0000
0100
0003
0000
0000
0000
,
2000
0000
0000
0000
,
3020
0000
0000
0000
0000
0000
0000
0000
0100
0000
0000
0100
0000
0000
0130
0000
,
0001
0000
0100
0000
0010
0000
1000
0000
0100
0000
0001
0100
0000
0000
1000
0000
,
0100
0000
0010
0000
0001
0000
0010
0000
0100
0000
1000
0010
0000
0000
1000
0000
,
0100
0000
0001
0000
0100
0000
1000
0000
0010
0000
0100
0010
0000
0000
1000
0000
,
0001
0000
0010
0000
1000
0000
0010
0000
0001
0000
0010
0100
0000
0000
0010
0000
,
0001
0000
0000
0011
0000
0000
0100
0000
1000
0000
0000
1100
0000
0000
0010
0000
,
0100
0000
0000
0110
0000
0000
0001
0000
1000
0000
0000
1001
0000
0000
0010
0000
,
1000
0000
0000
0011
0000
0000
1000
0000
0100
0000
0000
1010
0000
0000
0001
0000
,
0100
0000
0000
0011
0000
0000
1000
0000
0001
0000
0000
0110
0000
0000
1000
0000
,
0010
0000
0000
0010
0000
0000
0010
0000
0000
0000
0000
0000
1001
0000
0000
0000
,
0001
0000
0000
0001
0000
0000
0001
0000
0000
0000
0000
0000
1100
0000
0000
0000
,
0100
0000
0000
0100
0000
0000
0100
0000
0000
0000
0000
0000
1010
0000
0000
0000
,
1000
0000
0000
0001
0000
0000
0100
0000
0000
0000
0000
0000
1100
0000
0000
0000
,
0020
0000
0000
0001
0000
0000
2030
0000
0000
0000
0000
0000
3200
0000
0000
0000
,
0320
0000
0000
0100
0000
0000
0032
0000
0000
0000
0000
0000
2003
0000
0000
0000
,
3020
0000
0000
0001
0000
0000
0230
0000
0000
0000
0000
0000
0302
0000
0000
0000
,
2003
0000
0000
0100
0000
0000
3010
0000
0001
0000
0000
1001
0000
0000
1000
0000
,
0010
0000
0000
0010
1000
0000
0001
0000
0100
0000
0000
0100
0010
0000
1000
0000
,
0100
0000
0000
0100
0010
0000
0001
0000
1000
0000
0000
1000
0010
0000
0100
0000
,
0001
0000
0000
0001
0010
0000
1000
0000
0010
0000
0000
0010
0001
0000
1000
0000
,
0001
0000
0000
0001
0100
0000
0010
0000
1000
0000
0000
1001
0000
0000
0010
0000
,
0100
0000
0000
0001
1000
0000
0100
0000
0100
0000
0000
0010
0001
0000
1000
0000
,
1000
0000
0000
0010
0100
0000
0001
0000
0001
0000
0000
1000
0100
0000
0010
0000
,
0010
0000
0000
0001
1000
0000
0100
0000
0100
0000
0000
0010
0001
0000
0010
0000
,
0010
0000
0000
0001
1000
0000
0100
0000
0100
0000
0000
1001
0000
0000
0010
0000
,
0100
0000
0000
0101
0000
0000
1001
0000
0010
0100
0010
0000
1000
0000
0001
1000
,
0001
0000
0000
0000
;

//---------------dance-single - ----------------
#NOTEDATA:;
#CHARTNAME:[Ness];
#STEPSTYPE:dance-single;
#DESCRIPTION:[Ness];
#CHARTSTYLE:;
#DIFFICULTY:Medium;
#METER:6;
#RADARVALUES:0.300667,0.377565,0.165823,0.216845,0.025511,165.000000,152.000000,13.000000,17.000000,0.000000,0.000000,0.000000,0.000000,0.000000,0.300667,0.377565,0.165823,0.216845,0.025511,165.000000,152.000000,13.000000,17.000000,0.000000,0.000000,0.000000,0.000000,0.000000;
#CREDIT:[Ness];
#NOTES:
0000
0000
0000
0000
,
0000
0000
0000
0000
,
0000
0000
0000
0000
,
0000
0000
0000
0000
,
1000
0000
0000
0000
0001
0000
0000
0000
1000
0000
0000
0001
0000
0000
0100
0000
,
0000
0000
0001
0000
0000
0000
1000
0000
0001
0000
0000
0010
0000
0000
0100
0000
,
1000
0000
0000
0000
0010
0000
0000
0000
1000
0000
0000
0001
0000
0000
1000
0000
,
0000
0010
0100
0000
0220
0000
0330
0000
,
2002
0000
0000
3003
,
0002
0000
1003
0100
,
2000
0000
0000
3010
,
0220
0000
0000
0000
0330
0000
0000
0000
0001
0000
0000
1000
0000
0000
0100
0000
,
1000
0001
0010
0100
1000
0000
1100
0000
,
0001
0100
0010
1000
0100
0000
0110
0000
,
0010
0001
1000
0010
0100
0000
1001
0000
,
0001
0100
0001
1000
0010
0000
1010
0000
,
1000
0000
0001
0010
0100
0000
0010
0001
,
0100
0000
1000
0010
0001
0000
0001
0100
,
0010
0000
1000
0100
0001
0000
1000
0010
,
0100
0000
1000
0100
0001
0010
0100
0000
,
0020
0000
0000
0031
,
0200
0000
0000
0310
,
2000
0000
0000
3100
,
0002
0000
0000
0013
,
2100
0010
0100
3010
,
1002
0010
1000
0013
,
0102
0010
0100
0013
,
2010
0100
0010
3100
,
1001
0000
1000
0001
0100
0000
0010
1000
,
0100
0000
1000
0001
0010
0100
0010
0000
,
0001
0000
1000
0010
0100
0000
0010
1000
,
0001
0000
1000
0001
0100
0010
1000
0000
,
0001
0000
0100
0001
0010
0000
0001
0100
,
0010
0000
1000
0100
0010
0001
0100
0000
,
0010
0000
1000
0010
0100
0000
0010
1000
,
0100
0000
0010
0001
1000
0001
0010
0000
,
0200
0300
0010
0100
,
1001
0000
0000
0000
;

//---------------dance-single - ----------------
#NOTEDATA:;
#CHARTNAME:[Ness];
#STEPSTYPE:dance-single;
#DESCRIPTION:[Ness];
#CHARTSTYLE:;
#DIFFICULTY:Easy;
#METER:4;
#RADARVALUES:0.191334,0.212381,0.012756,0.038267,0.000000,105.000000,104.000000,1.000000,3.000000,0.000000,0.000000,0.000000,0.000000,0.000000,0.191334,0.212381,0.012756,0.038267,0.000000,105.000000,104.000000,1.000000,3.000000,0.000000,0.000000,0.000000,0.000000,0.000000;
#CREDIT:[Ness];
#NOTES:
0000
0000
0000
0000
,
0000
0000
0000
0000
,
0000
0000
0000
0000
,
0000
0000
0000
0000
,
0001
0100
0001
0001
,
1000
1000
0001
0001
,
1000
0100
1000
1000
,
0001
1000
0200
0000
,
0310
0000
0000
0000
,
0000
0000
0000
0000
,
0001
0000
0000
0000
,
0000
0000
1000
0000
,
0100
1000
0010
0100
,
0010
1000
0100
0000
,
0010
0001
0100
0010
,
1000
0010
0100
0000
,
0001
0010
1000
0100
,
0001
0010
1000
0100
,
0010
1000
0100
0001
,
0010
1000
0100
0001
,
0010
0000
0000
0100
,
1000
0000
0000
0100
,
0001
0000
0000
0100
,
0010
0000
0000
0001
,
0100
1000
0100
0001
,
0010
1000
0010
0001
,
0100
1000
0100
0001
,
0010
0100
1000
0000
,
0002
0000
1003
0001
,
0100
0010
1000
0100
,
0010
0100
1000
0001
,
0010
0100
1000
0000
,
0002
0000
1003
0010
,
0001
0010
0100
0001
,
1000
0100
0001
0100
,
0010
0100
1000
0001
,
1000
0000
0001
1000
,
1001
0000
0000
0000
;

//---------------dance-single - ----------------
#NOTEDATA:;
#CHARTNAME:[Ness];
#STEPSTYPE:dance-single;
#DESCRIPTION:[Ness];
#CHARTSTYLE:;
#DIFFICULTY:Beginner;
#METER:2;
#RADARVALUES:0.094756,0.117989,0.000000,0.000000,0.000000,52.000000,52.000000,0.000000,0.000000,0.000000,0.000000,0.000000,0.000000,0.000000,0.094756,0.117989,0.000000,0.000000,0.000000,52.000000,52.000000,0.000000,0.000000,0.000000,0.000000,0.000000,0.000000,0.000000;
#CREDIT:[Ness];
#NOTES:
// measure 0
0000
0000
0000
0000
,  // measure 1
0000
0000
0000
0000
,  // measure 2
0000
0000
0000
0000
,  // measure 3
0000
0000
0000
0000
,  // measure 4
0001
0000
0001
0000
,  // measure 5
1000
0000
1000
0000
,  // measure 6
0001
0000
0001
0000
,  // measure 7
1000
0000
0010
0000
,  // measure 8
0100
0000
0000
0000
,  // measure 9
0000
0000
0000
0000
,  // measure 10
0000
0000
0000
0000
,  // measure 11
0000
0000
0000
0000
,  // measure 12
0010
0000
0010
0000
,  // measure 13
1000
0000
0001
0000
,  // measure 14
0010
0000
0100
0000
,  // measure 15
0010
0000
0001
0000
,  // measure 16
1000
0000
1000
0000
,  // measure 17
1000
0000
1000
0000
,  // measure 18
0001
0000
0001
0000
,  // measure 19
0001
0000
0001
0000
,  // measure 20
0010
0000
0000
0000
,  // measure 21
0100
0000
0000
0000
,  // measure 22
0010
0000
0000
0000
,  // measure 23
0100
0000
0000
0000
,  // measure 24
1000
0000
0000
0000
,  // measure 25
0001
0000
0000
0000
,  // measure 26
1000
0000
0000
0000
,  // measure 27
0001
0000
0010
0000
,  // measure 28
0001
0000
0001
0000
,  // measure 29
1000
0000
1000
0000
,  // measure 30
0001
0000
0001
0000
,  // measure 31
1000
0000
1000
0000
,  // measure 32
0100
0000
0100
0000
,  // measure 33
0010
0000
0010
0000
,  // measure 34
0100
0000
0100
0000
,  // measure 35
0010
0000
0010
0000
,  // measure 36
0001
0000
0000
0000
,  // measure 37
1000
0000
0000
0000
;
