#TITLE:Stardust Diving;
#SUBTITLE:;
#ARTIST:OMORI;
#TITLETRANSLIT:;
#SUBTITLETRANSLIT:;
#ARTISTTRANSLIT:;
#GENRE:OMORI;
#CREDIT:[Ness];
#BANNER:OMORI - Stardust Diving.png;
#BACKGROUND:OMORI - Stardust Diving-bg.png;
#LYRICSPATH:;
#CDTITLE:;
#MUSIC:OMORI - Stardust Diving.mp3;
#OFFSET:0.000000;
#SAMPLESTART:6.868506;
#SAMPLELENGTH:13.714287;
#SELECTABLE:YES;
#BPMS:0.000000=140.000000
;
#STOPS:
;
#BGCHANGES:;
#KEYSOUNDS:;
#ATTACKS:;

//---------------dance-single - ----------------
#NOTES:
     dance-single:
     :
     Hard:
     7:
     0.435271,0.469468,0.345524,0.460699,0.000000,291.000000,258.000000,33.000000,44.000000,0.000000,0.000000,0.435271,0.469468,0.345524,0.460699,0.000000,291.000000,258.000000,33.000000,44.000000,0.000000,0.000000:
// measure 0
0000
0000
0000
0000
,  // measure 1
0000
0000
0000
0000
,  // measure 2
0000
0000
0000
0000
,  // measure 3
0000
0000
0000
0000
,  // measure 4
2200
0000
0300
0000
3010
0100
0000
0202
,  // measure 5
0000
0303
0001
0020
0000
0130
2000
0000
,  // measure 6
3200
0000
0310
0001
0100
1000
0100
0001
,  // measure 7
0020
0000
0130
1000
0010
0001
0010
1000
,  // measure 8
0200
0000
0310
0001
0000
0011
0000
1100
,  // measure 9
0000
1010
0000
1001
0000
0010
1000
0001
,  // measure 10
0010
0100
0010
0100
1000
0100
1000
0100
,  // measure 11
1000
0001
1000
0001
0100
0010
1000
0000
,  // measure 12
2010
0000
0001
0000
3010
1000
0100
2200
,  // measure 13
0000
3300
0100
2000
0000
3010
0200
0000
,  // measure 14
0302
0000
0100
0000
0013
0001
1000
0010
,  // measure 15
0200
0000
1000
0000
0301
0100
0010
1000
,  // measure 16
0200
0000
0310
0000
0110
0001
0010
0000
,  // measure 17
2000
0000
3001
0000
0110
1000
0100
0000
,  // measure 18
0102
0010
1000
0010
,  // measure 19
0103
0000
0001
0100
0000
1000
0100
0000
,  // measure 20
1001
0000
0010
1000
0100
0000
0100
1000
,  // measure 21
0010
0000
0010
1000
0100
0000
1000
0001
,  // measure 22
0010
0000
0010
0001
0100
0000
0100
0001
,  // measure 23
0010
0000
0010
0001
0100
0000
0101
0000
,  // measure 24
1010
0000
1000
0100
0001
0000
0001
0100
,  // measure 25
1000
0000
1000
0100
0001
0000
0100
0010
,  // measure 26
0001
0000
1000
0010
0001
0000
0001
0010
,  // measure 27
1000
0000
1000
0010
0001
0000
0110
0000
,  // measure 28
1001
0000
1000
0100
0100
0000
1000
0010
,  // measure 29
0010
0000
0100
0001
0001
0010
0110
0000
,  // measure 30
2001
0000
3100
0010
0001
0000
0010
0100
,  // measure 31
0210
0000
1300
0010
0001
0010
1000
1000
,  // measure 32
0001
0000
1000
0001
0100
0000
0010
0100
,  // measure 33
0001
0000
1000
0010
0100
0100
0010
1000
,  // measure 34
0200
0000
0000
0300
,  // measure 35
1100
0011
1001
0101
,  // measure 36
2002
0000
3003
0010
1001
0000
0100
0010
,  // measure 37
2000
0000
3010
0100
0001
0000
0010
0100
,  // measure 38
1000
0000
1000
0001
0100
0000
0100
0010
,  // measure 39
2000
0000
3001
0000
0010
0100
0010
0000
,  // measure 40
0002
1003
1001
0020
,  // measure 41
2030
3020
0230
0301
,  // measure 42
0102
0010
1000
0100
,  // measure 43
2003
0010
0100
0001
,  // measure 44
0200
0000
3300
0001
1200
0000
1300
0010
,  // measure 45
0102
0000
0013
0100
1000
0001
0100
0010
,  // measure 46
0200
0000
0300
0100
0002
0000
0003
0001
,  // measure 47
2000
3000
0110
1001
,  // measure 48
0020
0000
0030
1000
0200
0000
0300
1000
,  // measure 49
0002
0000
0003
0010
0100
0010
1001
0000
,  // measure 50
0010
0001
0100
0001
0010
0100
1000
0010
,  // measure 51
0100
0000
0100
0001
1000
0100
0010
0000
,  // measure 52
0220
0000
0000
0330
;

//---------------dance-single - ----------------
#NOTES:
     dance-single:
     :
     Medium:
     5:
     0.236333,0.303774,0.052352,0.314113,0.000000,158.000000,153.000000,5.000000,30.000000,0.000000,0.000000,0.236333,0.303774,0.052352,0.314113,0.000000,158.000000,153.000000,5.000000,30.000000,0.000000,0.000000:
0000
0000
0000
0000
,
0000
0000
0000
0000
,
0000
0000
0000
0000
,
0000
0000
0000
0000
,
2002
0000
3003
0000
0000
0010
0000
0001
,
0000
0000
1000
0010
0000
1000
0001
0000
,
0100
0000
0110
0000
,
0001
0000
1001
0000
,
0001
0000
0010
0001
0000
0010
0000
0001
,
0000
0010
0000
0100
0000
1000
0100
1000
,
0100
0000
0010
0000
,
0001
1000
0010
0100
,
0002
0000
0000
0000
0003
1000
0000
1001
,
0000
0000
0001
0100
0000
0001
0100
0000
,
0020
0000
2030
0000
,
3002
0000
0023
0000
,
0230
0000
0310
0000
,
0002
0000
1003
0001
,
0200
0000
0000
0000
,
0310
0000
0000
0010
0000
0000
0010
0000
,
1000
0000
1000
0100
1000
0000
1000
0000
,
0001
0000
0001
0010
0001
0000
0001
0000
,
0100
0000
0100
0010
0100
0000
0100
0000
,
0001
0000
0001
1000
0001
0000
0001
0000
,
0010
0000
0010
0100
0010
0000
0010
0000
,
0100
0000
0100
1000
0100
0000
0100
0000
,
1000
0000
1000
0001
1000
0000
1000
0000
,
0010
0001
0010
1000
,
0002
0000
0013
0001
,
0010
0100
1000
0001
,
2000
0000
0000
0000
,
3200
0000
0000
0000
,
0310
0001
0100
0001
,
0100
0010
1000
0001
,
2000
0000
0000
0000
,
3001
0010
0100
1000
,
0200
0000
0000
0310
,
0002
0000
0003
1000
,
0002
0000
0003
0100
,
0010
1000
0100
0010
,
0200
0000
0300
1000
,
0010
1000
0100
0010
,
0002
0000
0003
0000
,
0100
0010
1000
0001
,
0200
0300
0020
0030
,
1000
0010
0100
0001
,
0020
0030
0200
0300
,
2000
0000
3001
0000
,
0200
0300
0020
0030
,
2000
3000
0200
0300
,
0010
0100
0010
0001
,
1000
0000
1000
0000
0001
0100
0001
0000
,
2002
0000
0000
3003
;

//---------------dance-single - ----------------
#NOTES:
     dance-single:
     :
     Easy:
     2:
     0.149578,0.192394,0.020941,0.596815,0.000000,100.000000,98.000000,2.000000,57.000000,0.000000,0.000000,0.149578,0.192394,0.020941,0.596815,0.000000,100.000000,98.000000,2.000000,57.000000,0.000000,0.000000:
0000
0000
0000
0000
,
0000
0000
0000
0000
,
0000
0000
0000
0000
,
0000
0000
0000
0000
,
2002
0000
3003
0000
,
2000
0000
3000
0000
,
0200
0000
0300
0000
,
0200
0000
0300
0000
,
0020
0030
0020
0030
,
0002
0003
2000
3000
,
0200
0000
0300
0000
,
2000
0000
3000
0000
,
0002
0003
2000
3000
,
0002
0003
0020
0030
,
0200
0000
0300
0000
,
2000
0000
3000
0000
,
0002
0003
0002
0003
,
0002
0003
1000
0001
,
0200
0000
0300
0000
,
0010
0000
0010
0000
,
2000
3000
2000
3000
,
2000
3000
2000
3000
,
0200
0300
0200
0300
,
0200
0300
0200
0300
,
0002
0003
0002
0003
,
0002
0003
0002
0003
,
0200
0300
0200
0300
,
0200
0300
0200
0300
,
2000
3000
0010
1000
,
0020
0000
0230
0000
,
0302
0000
0003
0000
,
2000
0000
3000
0000
,
0001
1000
0001
1000
,
0200
0300
0020
0030
,
0002
0000
0003
0000
,
1000
1000
1000
1000
,
0200
0000
0300
0010
,
0020
0000
0030
0001
,
0200
0000
0300
0010
,
0010
1000
0010
1000
,
0020
0000
0030
1000
,
1000
1000
0100
0010
,
0002
0000
0000
0000
,
1003
0001
1000
0001
,
0200
0300
0020
0030
,
1000
0001
1000
0001
,
0020
0030
0020
0030
,
0200
0000
0300
0000
,
1000
0000
1000
0000
,
1000
0000
0001
0000
,
0100
0000
0010
0000
,
0100
0100
0000
0001
,
2002
0000
3003
0000
;

//---------------dance-single - ----------------
#NOTES:
     dance-single:
     :
     Beginner:
     1:
     0.082268,0.136116,0.010470,0.000000,0.000000,55.000000,54.000000,1.000000,0.000000,0.000000,0.000000,0.082268,0.136116,0.010470,0.000000,0.000000,55.000000,54.000000,1.000000,0.000000,0.000000,0.000000:
0000
0000
0000
0000
,
0000
0000
0000
0000
,
0000
0000
0000
0000
,
0000
0000
0000
0000
,
1000
0000
0000
0000
,
0001
0000
0000
0000
,
0100
0000
0000
0000
,
0100
0000
0000
0000
,
0001
0000
0001
0000
,
0001
0000
0000
0000
,
1000
0000
0000
0000
,
0100
0000
0000
0000
,
1000
0000
0000
0000
,
0010
0000
0000
0000
,
0001
0000
0000
0000
,
0100
0000
0010
0000
,
1000
0000
0000
0000
,
0000
0000
0001
0000
,
0100
0000
0000
0000
,
0000
0000
0000
0000
,
0001
0000
0000
0000
,
0001
0000
0000
0000
,
1000
0000
0000
0000
,
1000
0000
0000
0000
,
0001
0000
0000
0000
,
0001
0000
0000
0000
,
1000
0000
0000
0000
,
1000
0000
0000
0000
,
0100
0000
0100
0000
,
0100
0000
0100
0000
,
0100
0000
0000
0000
,
0010
0000
0000
0000
,
0100
0000
0100
0000
,
0100
0000
0100
0000
,
0100
0000
0000
0000
,
0010
0000
0000
0000
,
0001
0000
0000
0000
,
0001
0000
0000
0000
,
1000
0000
0000
0000
,
1000
0000
0000
0000
,
0010
0000
0000
0000
,
0100
0000
0000
0000
,
0001
0000
0000
0000
,
1000
0000
0000
0000
,
0001
0000
0000
0000
,
0010
0000
0000
0000
,
0100
0000
0000
0000
,
1000
0000
0000
0000
,
0100
0000
0000
0000
,
0000
0000
0000
0000
,
0010
0000
0000
0000
,
0010
0010
0000
0000
,
1001
0000
0000
0000
;
