#VERSION:0.83;
#TITLE:Recycling Is A Concept!;
#SUBTITLE:;
#ARTIST:OMORI;
#TITLETRANSLIT:;
#SUBTITLETRANSLIT:;
#ARTISTTRANSLIT:;
#GENRE:OMORI;
#ORIGIN:;
#CREDIT:[Ness];
#BANNER:OMORI - Reycling Is A Concept.png;
#BACKGROUND:OMORI - Reycling Is A Concept-bg.png;
#PREVIEWVID:;
#JACKET:OMORI - Reycling Is A Concept-jacket.png;
#CDIMAGE:;
#DISCIMAGE:;
#LYRICSPATH:;
#CDTITLE:;
#MUSIC:OMORI - Recycling Is A Concept.mp3;
#OFFSET:-0.000000;
#SAMPLESTART:0.011363;
#SAMPLELENGTH:7.585935;
#SELECTABLE:YES;
#BPMS:0.000=126.550,
16.000=142.030,
17.000=154.850,
18.000=169.150,
19.000=172.550,
20.000=191.410,
21.000=192.410,
22.000=217.970,
24.000=237.270,
26.000=258.909,
28.000=280.049,
30.000=305.969,
32.000=338.000;
#STOPS:;
#DELAYS:;
#WARPS:;
#TIMESIGNATURES:0.000=4=4;
#TICKCOUNTS:0.000=2;
#COMBOS:0.000=1;
#SPEEDS:0.000=1.000=0.000=0;
#SCROLLS:0.000=1.000;
#FAKES:;
#LABELS:0.000=Song Start;
#BGCHANGES:0.000=OMORI - Reycling Is A Concept.avi=1.000=1=0=0=StretchNoLoop==CrossFade==,
56.000=Black.png=1.000=0=0=1===CrossFade_Fastest==,
99999=-nosongbg-=1.000=0=0=0 // don't automatically add -songbackground-
;
#KEYSOUNDS:;
#ATTACKS:
;

//---------------dance-single - ----------------
#NOTEDATA:;
#CHARTNAME:[Ness];
#STEPSTYPE:dance-single;
#DESCRIPTION:[Ness];
#CHARTSTYLE:;
#DIFFICULTY:Beginner;
#METER:3;
#RADARVALUES:0.234962,0.215872,0.063259,0.000000,0.000000,26.000000,25.000000,1.000000,0.000000,0.000000,0.000000,0.000000,0.000000,0.000000,0.234962,0.215872,0.063259,0.000000,0.000000,26.000000,25.000000,1.000000,0.000000,0.000000,0.000000,0.000000,0.000000,0.000000;
#CREDIT:[Ness];
#NOTES:
0010
0010
0010
0000
,
1000
1000
1000
0000
,
0001
0001
0001
0000
,
0100
0100
0100
0000
,
0001
0001
0001
0000
,
0010
0010
0010
0000
,
0100
0100
0100
0000
,
1000
1000
1000
0000
,
0000
0000
0000
0000
,
0000
0000
0000
1001
;

//---------------dance-single - ----------------
#NOTEDATA:;
#CHARTNAME:[Ness];
#STEPSTYPE:dance-single;
#DESCRIPTION:[Ness];
#CHARTSTYLE:;
#DIFFICULTY:Easy;
#METER:5;
#RADARVALUES:0.307259,0.277549,0.063259,0.000000,0.000000,34.000000,33.000000,1.000000,0.000000,0.000000,0.000000,0.000000,0.000000,0.000000,0.307259,0.277549,0.063259,0.000000,0.000000,34.000000,33.000000,1.000000,0.000000,0.000000,0.000000,0.000000,0.000000,0.000000;
#CREDIT:[Ness];
#NOTES:
1000
0100
0001
0010
,
1000
0100
0001
0100
,
1000
0100
0001
0010
,
1000
0100
0001
0100
,
1000
0010
0001
0100
,
1000
0100
0001
0010
,
0001
0100
1000
0010
,
1000
0100
0001
0010
,
0000
0000
0000
0000
,
0000
0000
0000
1001
;

//---------------dance-single - ----------------
#NOTEDATA:;
#CHARTNAME:[Ness];
#STEPSTYPE:dance-single;
#DESCRIPTION:[Ness];
#CHARTSTYLE:;
#DIFFICULTY:Medium;
#METER:6;
#RADARVALUES:0.370518,0.339227,0.063259,0.000000,0.000000,41.000000,40.000000,1.000000,0.000000,0.000000,0.000000,0.000000,0.000000,0.000000,0.370518,0.339227,0.063259,0.000000,0.000000,41.000000,40.000000,1.000000,0.000000,0.000000,0.000000,0.000000,0.000000,0.000000;
#CREDIT:[Ness];
#NOTES:
1000
0000
0001
0000
0100
0000
0010
1000
,
0100
0000
0010
0000
0100
0000
1000
0001
,
0100
0000
0010
0000
1000
0000
0001
0010
,
0100
0000
0010
0000
0001
0000
1000
0001
,
0100
0000
0001
0000
1000
0000
0100
1000
,
0100
0000
0010
0000
0001
0000
1000
0001
,
1000
0000
0010
0000
0100
0000
0001
0100
,
0001
1000
0100
0010
,
0000
0000
0000
0000
,
0000
0000
0000
1001
;

//---------------dance-single - ----------------
#NOTEDATA:;
#CHARTNAME:[Ness];
#STEPSTYPE:dance-single;
#DESCRIPTION:[Ness];
#CHARTSTYLE:;
#DIFFICULTY:Hard;
#METER:8;
#RADARVALUES:0.451851,0.400905,0.063259,0.000000,0.506073,50.000000,49.000000,1.000000,0.000000,0.000000,0.000000,0.000000,0.000000,0.000000,0.451851,0.400905,0.063259,0.000000,0.506073,50.000000,49.000000,1.000000,0.000000,0.000000,0.000000,0.000000,0.000000,0.000000;
#CREDIT:[Ness];
#NOTES:
1000
0000
0000
0100
0000
0000
0001
0000
0000
1000
0000
0000
0100
0000
0010
0000
,
0001
0000
0000
0100
0000
0000
1000
0000
0000
0001
0000
0000
0010
0000
0100
0000
,
1000
0000
0000
0010
0000
0000
0001
0000
0000
1000
0000
0000
0100
0000
0010
0000
,
0001
0000
0000
0010
0000
0000
1000
0000
0000
0001
0000
0000
0010
0000
0100
0000
,
1000
0000
0000
0010
0000
0000
1000
0000
0000
0001
0000
0000
0010
0000
0100
0000
,
1000
0000
0000
0001
0000
0000
0100
0000
0000
0010
0000
0000
1000
0000
0010
0000
,
0100
0000
0000
0001
0000
0000
0010
0000
0000
0100
0000
0000
1000
0000
0010
0000
,
0001
0000
0000
0010
0000
0000
0100
0000
0000
0001
0000
0000
1000
0000
0100
0000
,
0000
0000
0000
0000
,
0000
0000
0000
1001
;

//---------------dance-single - ----------------
#NOTEDATA:;
#CHARTNAME:[Ness];
#STEPSTYPE:dance-single;
#DESCRIPTION:[Ness];
#CHARTSTYLE:;
#DIFFICULTY:Challenge;
#METER:10;
#RADARVALUES:0.777183,0.922002,0.063259,0.000000,0.759109,86.000000,85.000000,1.000000,0.000000,4.000000,0.000000,0.000000,0.000000,0.000000,0.777183,0.922002,0.063259,0.000000,0.759109,86.000000,85.000000,1.000000,0.000000,4.000000,0.000000,0.000000,0.000000,0.000000;
#CREDIT:[Ness];
#NOTES:
// measure 0
1000
0100
1000
0000
0001
0000
0010
0000
0001
0000
1000
0000
0001
0100
0010
1000
,  // measure 1
0100
0010
0000
0001
0100
0000
0010
0000
1000
0010
1000
0000
0001
0000
1000
0000
,  // measure 2
0100
0010
0001
0000
1000
0000
0010
0000
1000
0000
0001
0000
0100
0010
1000
0001
,  // measure 3
0100
0010
0000
1000
0100
0000
0010
0000
0001
0010
0001
0000
1000
0000
0001
0000
,  // measure 4
0010
0100
1000
0000
0001
0000
0100
0000
0010
0000
1000
0000
0100
0010
0001
1000
,  // measure 5
0010
0100
0000
0001
1000
0000
0010
0000
1000
0100
0010
0000
0001
0000
1000
0000
,  // measure 6
0010
0100
0001
0000
1000
0000
0010
0000
0100
0000
0001
0000
0010
0100
1000
0010
,  // measure 7
0100
0001
0000
1000
0100
0000
0010
0000
0001
1000
0100
0000
0010
0000
0100
0000
,  // measure 8
0000
0000
0000
0000
,  // measure 9
0000
0000
0000
1001
,  // measure 10
0000
0000
0000
0000
,  // measure 11
0000
0000
0000
0000
,  // measure 12
0000
0000
0000
0000
,  // measure 13
0000
MMMM
0000
0000
;
