#TITLE:It Means Everything.;
#SUBTITLE:;
#ARTIST:OMORI;
#TITLETRANSLIT:;
#SUBTITLETRANSLIT:;
#ARTISTTRANSLIT:;
#GENRE:OMORI;
#CREDIT:[Ness];
#BANNER:OMORI - It Means Everything.png;
#BACKGROUND:OMORI - It Means Everything-bg.png;
#LYRICSPATH:;
#CDTITLE:;
#MUSIC:OMORI - It Means Everything.mp3;
#OFFSET:-0.645000;
#SAMPLESTART:20.636337;
#SAMPLELENGTH:9.974990;
#SELECTABLE:YES;
#BPMS:0.000000=192.000000
;
#STOPS:30.062500=-5.000000,
46.312500=-5.000000,
62.562500=-5.000000,
78.812500=-5.000000,
95.062500=-5.000000,
111.312500=-5.000000,
127.562500=-5.000000,
143.812500=-5.000000,
166.062500=-5.000000,
182.312500=-5.000000,
198.562500=-5.000000,
214.812500=-5.000000,
231.062500=-5.000000,
247.312500=-5.000000,
263.562500=-5.000000,
279.812500=-5.000000,
302.062500=-5.000000,
318.312500=-5.000000,
334.562500=-5.000000,
350.812500=-5.000000,
367.062500=-5.000000,
383.312500=-5.000000,
399.562500=-5.000000,
415.812500=-5.000000,
438.062500=-5.000000,
454.312500=-5.000000,
470.562500=-5.000000,
486.812500=-5.000000,
503.062500=-5.000000,
519.312500=-5.000000,
535.562500=-5.000000,
551.812500=-5.000000,
574.062500=-5.000000,
590.312500=-5.000000,
606.562500=-5.000000,
622.812500=-5.000000,
639.062500=-5.000000,
655.312500=-5.000000,
671.562500=-5.000000,
687.812500=-5.000000,
710.062500=-5.000000,
726.312500=-5.000000,
742.562500=-5.000000,
758.812500=-5.000000,
775.062500=-5.000000,
791.312500=-5.000000,
807.562500=-5.000000,
823.812500=-5.000000,
846.062500=-5.000000,
862.312500=-5.000000,
878.562500=-5.000000,
894.812500=-5.000000,
911.062500=-5.000000,
927.312500=-5.000000,
943.562500=-5.000000,
959.812500=-5.000000,
982.062500=-5.000000,
998.312500=-5.000000,
1014.562500=-5.000000,
1030.812500=-5.000000,
1047.062500=-5.000000,
1063.312500=-5.000000,
1079.562500=-5.000000,
1095.812500=-5.000000,
1118.062500=-5.000000,
1134.312500=-5.000000,
1150.562500=-5.000000,
1166.812500=-5.000000,
1183.062500=-5.000000,
1199.312500=-5.000000,
1215.562500=-5.000000,
1231.812500=-5.000000,
1254.062500=-5.000000,
1270.312500=-5.000000,
1286.562500=-5.000000,
1302.812500=-5.000000,
1319.062500=-5.000000,
1335.312500=-5.000000,
1351.562500=-5.000000,
1367.812500=-5.000000,
1390.062500=-5.000000,
1406.312500=-5.000000,
1422.562500=-5.000000,
1438.812500=-5.000000,
1455.062500=-5.000000,
1471.312500=-5.000000,
1487.562500=-5.000000,
1503.812500=-5.000000,
1526.062500=-5.000000,
1542.312500=-5.000000,
1558.562500=-5.000000,
1574.812500=-5.000000,
1591.062500=-5.000000,
1607.312500=-5.000000,
1623.562500=-5.000000,
1639.812500=-5.000000,
1662.062500=-5.000000,
1678.312500=-5.000000,
1694.562500=-5.000000,
1710.812500=-5.000000,
1727.062500=-5.000000,
1743.312500=-5.000000,
1759.562500=-5.000000,
1775.812500=-5.000000,
1798.062500=-5.000000,
1814.312500=-5.000000,
1830.562500=-5.000000,
1846.812500=-5.000000,
1863.062500=-5.000000,
1879.312500=-5.000000,
1895.562500=-5.000000,
1911.812500=-5.000000,
1934.062500=-5.000000,
1950.312500=-5.000000,
1966.562500=-5.000000,
1982.812500=-5.000000,
1999.062500=-5.000000,
2015.312500=-5.000000,
2031.562500=-5.000000,
2047.812500=-5.000000,
2070.062500=-5.000000,
2086.312500=-5.000000,
2102.562500=-5.000000,
2118.812500=-5.000000,
2135.062500=-5.000000,
2151.312500=-5.000000,
2167.562500=-5.000000,
2183.812500=-5.000000,
2206.062500=-5.000000,
2222.312500=-5.000000,
2238.562500=-5.000000,
2254.812500=-5.000000,
2271.062500=-5.000000,
2287.312500=-5.000000,
2303.562500=-5.000000,
2319.812500=-5.000000,
2342.062500=-5.000000,
2358.312500=-5.000000,
2374.562500=-5.000000,
2390.812500=-5.000000,
2407.062500=-5.000000,
2423.312500=-5.000000,
2439.562500=-5.000000,
2455.812500=-5.000000,
2478.062500=-5.000000,
2494.312500=-5.000000,
2510.562500=-5.000000,
2526.812500=-5.000000,
2543.062500=-5.000000,
2559.312500=-5.000000,
2575.562500=-5.000000,
2591.812500=-5.000000,
2614.062500=-5.000000,
2630.312500=-5.000000,
2646.562500=-5.000000,
2662.812500=-5.000000,
2679.062500=-5.000000,
2695.312500=-5.000000,
2711.562500=-5.000000,
2727.812500=-5.000000,
2750.062500=-5.000000,
2766.312500=-5.000000,
2782.562500=-5.000000,
2798.812500=-5.000000,
2815.062500=-5.000000,
2831.312500=-5.000000,
2847.562500=-5.000000,
2863.812500=-5.000000,
2886.062500=-5.000000,
2902.312500=-5.000000,
2918.562500=-5.000000,
2934.812500=-5.000000,
2951.062500=-5.000000,
2967.312500=-5.000000,
2983.562500=-5.000000,
2999.812500=-5.000000,
3022.062500=-5.000000,
3038.312500=-5.000000,
3054.562500=-5.000000,
3070.812500=-5.000000,
3087.062500=-5.000000,
3103.312500=-5.000000,
3119.562500=-5.000000,
3135.812500=-5.000000,
3158.062500=-5.000000,
3174.312500=-5.000000,
3190.562500=-5.000000,
3206.812500=-5.000000,
3223.062500=-5.000000,
3239.312500=-5.000000,
3255.562500=-5.000000,
3271.812500=-5.000000
;
#BGCHANGES:;
#KEYSOUNDS:;
#ATTACKS:;

//---------------dance-single - ----------------
#NOTES:
     dance-single:
     :
     Beginner:
     3:
     0.180674,2.235701,0.000000,0.000000,0.000000,93.000000,93.000000,0.000000,0.000000,0.000000,0.000000,0.180674,2.235701,0.000000,0.000000,0.000000,93.000000,93.000000,0.000000,0.000000,0.000000,0.000000:
0000
0000
0000
0000
,
0000
0000
0000
0000
,
0000
0000
0000
0000
,
0000
0000
0000
0000
,
0000
0000
0000
0000
,
0000
0000
0000
0000
,
0000
0000
0000
0000
,
0000
0000
0000
0000
,
0010
0000
0010
0000
,
0001
0000
1000
0000
,
0001
0000
0000
0000
,
0000
0000
0000
0000
,
0000
0000
0000
0000
,
0000
0000
0000
0000
,
0000
0000
0000
0000
,
0000
0000
0000
0000
,
0010
0000
0010
0000
,
0001
0000
1000
0000
,
0001
0000
0000
0000
,
0000
0000
0000
0000
,
0000
0000
0000
0000
,
0000
0000
0000
0000
,
0000
0000
0000
0000
,
0000
0000
0000
0000
,
0010
0000
0010
0000
,
0001
0000
1000
0000
,
0001
0000
0000
0000
,
0000
0000
0000
0000
,
0000
0000
0000
0000
,
0000
0000
0000
0000
,
0000
0000
0000
0000
,
0000
0000
0000
0000
,
0010
0000
0010
0000
,
0001
0000
1000
0000
,
0001
0000
0000
0000
,
0000
0000
0000
0000
,
0000
0000
0000
0000
,
0000
0000
0000
0000
,
0000
0000
0000
0000
,
0000
0000
0000
0000
,
0010
0000
0010
0000
,
0001
0000
1000
0000
,
0001
0000
0010
0000
,
0001
0000
0100
0000
,
0100
0000
0000
0000
,
0000
0000
0000
0000
,
0000
0000
0000
0000
,
0000
0000
0000
0000
,
0000
0000
0000
0000
,
0000
0000
0000
0000
,
0001
0000
0010
0000
,
0001
0000
0100
0000
,
0100
0000
0000
0000
,
0000
0000
0000
0000
,
0000
0000
0000
0000
,
0000
0000
0000
0000
,
0000
0000
0000
0000
,
0000
0000
0000
0000
,
0001
0000
0010
0000
,
0001
0000
0100
0000
,
0100
0000
0000
0000
,
0000
0000
0000
0000
,
0000
0000
0000
0000
,
0000
0000
0000
0000
,
0000
0000
0000
0000
,
0000
0000
0000
0000
,
0001
0000
0010
0000
,
0001
0000
0100
0000
,
0100
0000
0000
0000
,
0000
0000
0000
0000
,
0000
0000
0000
0000
,
0000
0000
0000
0000
,
0000
0000
0000
0000
,
0000
0000
0000
0000
,
0001
0000
0010
0000
,
0001
0000
0100
0000
,
0100
0000
0010
0000
,
1000
0000
0100
0000
,
0100
0000
0000
0000
,
0000
0000
0000
0000
,
0000
0000
0000
0000
,
0000
0000
0000
0000
,
0000
0000
0000
0000
,
0000
0000
0000
0000
,
0100
0000
0010
0000
,
1000
0000
0100
0000
,
0100
0000
0000
0000
,
0000
0000
0000
0000
,
0000
0000
0000
0000
,
0000
0000
0000
0000
,
0000
0000
0000
0000
,
0000
0000
0000
0000
,
0100
0000
0010
0000
,
1000
0000
0100
0000
,
0100
0000
0000
0000
,
0000
0000
0000
0000
,
0000
0000
0000
0000
,
0000
0000
0000
0000
,
0000
0000
0000
0000
,
0000
0000
0000
0000
,
0100
0000
0010
0000
,
1000
0000
0100
0000
,
0100
0000
0000
0000
,
0000
0000
0000
0000
,
0000
0000
0000
0000
,
0000
0000
0000
0000
,
0000
0000
0000
0000
,
0000
0000
0000
0000
,
0100
0000
0010
0000
,
1000
0000
0100
0000
,
0100
0000
0010
0000
,
0001
0000
1000
0000
,
0001
0000
0000
0000
,
0000
0000
0000
0000
,
0000
0000
0000
0000
,
0000
0000
0000
0000
,
0000
0000
0000
0000
,
0000
0000
0000
0000
,
0100
0000
0010
0000
,
0001
0000
1000
0000
,
0001
0000
0000
0000
,
0000
0000
0000
0000
,
0000
0000
0000
0000
,
0000
0000
0000
0000
,
0000
0000
0000
0000
,
0000
0000
0000
0000
,
0100
0000
0010
0000
,
0001
0000
1000
0000
,
0001
0000
0000
0000
,
0000
0000
0000
0000
,
0000
0000
0000
0000
,
0000
0000
0000
0000
,
0000
0000
0000
0000
,
0000
0000
0000
0000
,
0100
0000
0010
0000
,
0001
0000
1000
0000
,
0001
0000
0000
0000
,
0000
0000
0000
0000
,
0000
0000
0000
0000
,
0000
0000
0000
0000
,
0000
0000
0000
0000
,
0000
0000
0000
0000
,
0100
0000
0010
0000
,
0001
0000
1000
0000
,
0001
0000
0100
0000
,
0010
0000
1000
0000
,
0100
0000
0000
0000
,
0000
0000
0000
0000
,
0000
0000
0000
0000
,
0000
0000
0000
0000
,
0000
0000
0000
0000
,
0000
0000
0000
0000
,
0001
0000
0100
0000
,
0010
0000
1000
0000
,
0100
0000
0000
0000
,
0000
0000
0000
0000
,
0000
0000
0000
0000
,
0000
0000
0000
0000
,
0000
0000
0000
0000
,
0000
0000
0000
0000
,
0001
0000
0100
0000
,
0010
0000
1000
0000
,
0100
0000
0000
0000
,
0000
0000
0000
0000
,
0000
0000
0000
0000
,
0000
0000
0000
0000
,
0000
0000
0000
0000
,
0000
0000
0000
0000
,
0001
0000
0100
0000
,
0010
0000
1000
0000
,
0100
0000
0000
0000
,
0000
0000
0000
0000
,
0000
0000
0000
0000
,
0000
0000
0000
0000
,
0000
0000
0000
0000
,
0000
0000
0000
0000
,
0001
0000
0100
0000
,
0010
0000
1000
0000
,
0100
0000
0010
0000
,
0001
0000
1000
0000
,
0001
0000
0000
0000
,
0000
0000
0000
0000
,
0000
0000
0000
0000
,
0000
0000
0000
0000
,
0000
0000
0000
0000
,
0000
0000
0000
0000
,
0100
0000
0010
0000
,
0001
0000
1000
0000
,
0001
0000
0000
0000
,
0000
0000
0000
0000
,
0000
0000
0000
0000
,
0000
0000
0000
0000
,
0000
0000
0000
0000
,
0000
0000
0000
0000
,
0100
0000
0010
0000
,
0001
0000
1000
0000
,
0001
0000
0000
0000
,
0000
0000
0000
0000
,
0000
0000
0000
0000
,
0000
0000
0000
0000
,
0000
0000
0000
0000
,
0000
0000
0000
0000
,
0100
0000
0010
0000
,
0001
0000
1000
0000
,
0001
0000
0000
0000
,
0000
0000
0000
0000
,
0000
0000
0000
0000
,
0000
0000
0000
0000
,
0000
0000
0000
0000
,
0000
0000
0000
0000
,
0100
0000
0010
0000
,
0001
0000
1000
0000
,
0001
0000
0100
0000
,
0010
0000
1000
0000
,
0100
0000
0000
0000
,
0000
0000
0000
0000
,
0000
0000
0000
0000
,
0000
0000
0000
0000
,
0000
0000
0000
0000
,
0000
0000
0000
0000
,
0001
0000
0100
0000
,
0010
0000
1000
0000
,
0100
0000
0000
0000
,
0000
0000
0000
0000
,
0000
0000
0000
0000
,
0000
0000
0000
0000
,
0000
0000
0000
0000
,
0000
0000
0000
0000
,
0001
0000
0100
0000
,
0010
0000
1000
0000
,
0100
0000
0000
0000
,
0000
0000
0000
0000
,
0000
0000
0000
0000
,
0000
0000
0000
0000
,
0000
0000
0000
0000
,
0000
0000
0000
0000
,
0001
0000
0100
0000
,
0010
0000
1000
0000
,
0100
0000
0000
0000
,
0000
0000
0000
0000
,
0000
0000
0000
0000
,
0000
0000
0000
0000
,
0000
0000
0000
0000
,
0000
0000
0000
0000
,
0001
0000
0100
0000
,
0010
0000
1000
0000
,
0100
0000
0010
0000
,
0001
0000
1000
0000
,
0001
0000
0000
0000
,
0000
0000
0000
0000
,
0000
0000
0000
0000
,
0000
0000
0000
0000
,
0000
0000
0000
0000
,
0000
0000
0000
0000
,
0100
0000
0010
0000
,
0001
0000
1000
0000
,
0001
0000
0000
0000
,
0000
0000
0000
0000
,
0000
0000
0000
0000
,
0000
0000
0000
0000
,
0000
0000
0000
0000
,
0000
0000
0000
0000
,
0100
0000
0010
0000
,
0001
0000
1000
0000
,
0001
0000
0000
0000
,
0000
0000
0000
0000
,
0000
0000
0000
0000
,
0000
0000
0000
0000
,
0000
0000
0000
0000
,
0000
0000
0000
0000
,
0100
0000
0010
0000
,
0001
0000
1000
0000
,
0001
0000
0000
0000
,
0000
0000
0000
0000
,
0000
0000
0000
0000
,
0000
0000
0000
0000
,
0000
0000
0000
0000
,
0000
0000
0000
0000
,
0100
0000
0010
0000
,
0001
0000
1000
0000
,
0001
0000
0100
0000
,
0010
0000
1000
0000
,
0100
0000
0000
0000
,
0000
0000
0000
0000
,
0000
0000
0000
0000
,
0000
0000
0000
0000
,
0000
0000
0000
0000
,
0000
0000
0000
0000
,
0001
0000
0100
0000
,
0010
0000
1000
0000
,
0100
0000
0000
0000
,
0000
0000
0000
0000
,
0000
0000
0000
0000
,
0000
0000
0000
0000
,
0000
0000
0000
0000
,
0000
0000
0000
0000
,
0001
0000
0100
0000
,
0010
0000
1000
0000
,
0100
0000
0000
0000
,
0000
0000
0000
0000
,
0000
0000
0000
0000
,
0000
0000
0000
0000
,
0000
0000
0000
0000
,
0000
0000
0000
0000
,
0001
0000
0100
0000
,
0010
0000
1000
0000
,
0100
0000
0000
0000
,
0000
0000
0000
0000
,
0000
0000
0000
0000
,
0000
0000
0000
0000
,
0000
0000
0000
0000
,
0000
0000
0000
0000
,
0001
0000
0100
0000
,
0010
0000
1000
0000
,
0100
0000
0010
0000
,
0001
0000
1000
0000
,
0001
0000
0000
0000
,
0000
0000
0000
0000
,
0000
0000
0000
0000
,
0000
0000
0000
0000
,
0000
0000
0000
0000
,
0000
0000
0000
0000
,
0100
0000
0010
0000
,
0001
0000
1000
0000
,
0001
0000
0000
0000
,
0000
0000
0000
0000
,
0000
0000
0000
0000
,
0000
0000
0000
0000
,
0000
0000
0000
0000
,
0000
0000
0000
0000
,
0100
0000
0010
0000
,
0001
0000
1000
0000
,
0001
0000
0000
0000
,
0000
0000
0000
0000
,
0000
0000
0000
0000
,
0000
0000
0000
0000
,
0000
0000
0000
0000
,
0000
0000
0000
0000
,
0100
0000
0010
0000
,
0001
0000
1000
0000
,
0001
0000
0000
0000
,
0000
0000
0000
0000
,
0000
0000
0000
0000
,
0000
0000
0000
0000
,
0000
0000
0000
0000
,
0000
0000
0000
0000
,
0100
0000
0010
0000
,
0001
0000
1000
0000
,
0001
0000
0010
0000
,
0100
0000
1000
0000
,
0001
0000
0000
0000
,
0000
0000
0000
0000
,
0000
0000
0000
0000
,
0000
0000
0000
0000
,
0000
0000
0000
0000
,
0000
0000
0000
0000
,
0001
0000
0010
0000
,
0100
0000
1000
0000
,
0001
0000
0000
0000
,
0000
0000
0000
0000
,
0000
0000
0000
0000
,
0000
0000
0000
0000
,
0000
0000
0000
0000
,
0000
0000
0000
0000
,
0001
0000
0010
0000
,
0100
0000
1000
0000
,
0001
0000
0000
0000
,
0000
0000
0000
0000
,
0000
0000
0000
0000
,
0000
0000
0000
0000
,
0000
0000
0000
0000
,
0000
0000
0000
0000
,
0001
0000
0010
0000
,
0100
0000
1000
0000
,
0001
0000
0000
0000
,
0000
0000
0000
0000
,
0000
0000
0000
0000
,
0000
0000
0000
0000
,
0000
0000
0000
0000
,
0000
0000
0000
0000
,
0001
0000
0010
0000
,
0100
0000
1000
0000
,
0001
0000
1000
0000
,
0100
0000
0010
0000
,
0001
0000
0000
0000
,
0000
0000
0000
0000
,
0000
0000
0000
0000
,
0000
0000
0000
0000
,
0000
0000
0000
0000
,
0000
0000
0000
0000
,
0001
0000
1000
0000
,
0100
0000
0010
0000
,
0001
0000
0000
0000
,
0000
0000
0000
0000
,
0000
0000
0000
0000
,
0000
0000
0000
0000
,
0000
0000
0000
0000
,
0000
0000
0000
0000
,
0001
0000
1000
0000
,
0100
0000
0010
0000
,
0001
0000
0000
0000
,
0000
0000
0000
0000
,
0000
0000
0000
0000
,
0000
0000
0000
0000
,
0000
0000
0000
0000
,
0000
0000
0000
0000
,
0001
0000
1000
0000
,
0100
0000
0010
0000
,
0001
0000
0000
0000
,
0000
0000
0000
0000
,
0000
0000
0000
0000
,
0000
0000
0000
0000
,
0000
0000
0000
0000
,
0000
0000
0000
0000
,
0001
0000
1000
0000
,
0100
0000
0010
0000
,
0001
0000
0010
0000
,
0100
0000
1000
0000
,
0100
0000
0000
0000
,
0000
0000
0000
0000
,
0000
0000
0000
0000
,
0000
0000
0000
0000
,
0000
0000
0000
0000
,
0000
0000
0000
0000
,
0001
0000
0010
0000
,
0100
0000
1000
0000
,
0100
0000
0000
0000
,
0000
0000
0000
0000
,
0000
0000
0000
0000
,
0000
0000
0000
0000
,
0000
0000
0000
0000
,
0000
0000
0000
0000
,
0001
0000
0010
0000
,
0100
0000
1000
0000
,
0100
0000
0000
0000
,
0000
0000
0000
0000
,
0000
0000
0000
0000
,
0000
0000
0000
0000
,
0000
0000
0000
0000
,
0000
0000
0000
0000
,
0001
0000
0010
0000
,
0100
0000
1000
0000
,
0100
0000
0000
0000
,
0000
0000
0000
0000
,
0000
0000
0000
0000
,
0000
0000
0000
0000
,
0000
0000
0000
0000
,
0000
0000
0000
0000
,
0001
0000
0010
0000
,
0100
0000
1000
0000
,
0100
0000
0010
0000
,
0001
0000
1000
0000
,
0001
0000
0000
0000
,
0000
0000
0000
0000
,
0000
0000
0000
0000
,
0000
0000
0000
0000
,
0000
0000
0000
0000
,
0000
0000
0000
0000
,
0100
0000
0010
0000
,
0001
0000
1000
0000
,
0001
0000
0000
0000
,
0000
0000
0000
0000
,
0000
0000
0000
0000
,
0000
0000
0000
0000
,
0000
0000
0000
0000
,
0000
0000
0000
0000
,
0100
0000
0010
0000
,
0001
0000
1000
0000
,
0001
0000
0000
0000
,
0000
0000
0000
0000
,
0000
0000
0000
0000
,
0000
0000
0000
0000
,
0000
0000
0000
0000
,
0000
0000
0000
0000
,
0100
0000
0010
0000
,
0001
0000
1000
0000
,
0001
0000
0000
0000
,
0000
0000
0000
0000
,
0000
0000
0000
0000
,
0000
0000
0000
0000
,
0000
0000
0000
0000
,
0000
0000
0000
0000
,
0100
0000
0010
0000
,
0001
0000
1000
0000
,
0001
0000
0100
0000
,
1000
0000
0100
0000
,
0001
0000
0000
0000
,
0000
0000
0000
0000
,
0000
0000
0000
0000
,
0000
0000
0000
0000
,
0000
0000
0000
0000
,
0000
0000
0000
0000
,
0001
0000
0100
0000
,
1000
0000
0100
0000
,
0001
0000
0000
0000
,
0000
0000
0000
0000
,
0000
0000
0000
0000
,
0000
0000
0000
0000
,
0000
0000
0000
0000
,
0000
0000
0000
0000
,
0001
0000
0100
0000
,
1000
0000
0100
0000
,
0001
0000
0000
0000
,
0000
0000
0000
0000
,
0000
0000
0000
0000
,
0000
0000
0000
0000
,
0000
0000
0000
0000
,
0000
0000
0000
0000
,
0001
0000
0100
0000
,
1000
0000
0100
0000
,
0001
0000
0000
0000
,
0000
0000
0000
0000
,
0000
0000
0000
0000
,
0000
0000
0000
0000
,
0000
0000
0000
0000
,
0000
0000
0000
0000
,
0001
0000
0100
0000
,
1000
0000
0100
0000
,
0001
0000
0001
0000
,
1000
0000
1000
0000
,
0000
0000
0000
0000
,
0000
0000
0000
0000
,
0000
0000
0000
0000
,
0000
0000
0000
0000
,
0000
0000
0000
0000
,
0000
0000
0000
0000
,
0001
0000
0001
0000
,
1000
0000
1000
0000
,
0000
0000
0000
0000
,
0000
0000
0000
0000
,
0000
0000
0000
0000
,
0000
0000
0000
0000
,
0000
0000
0000
0000
,
0000
0000
0000
0000
,
0001
0000
0001
0000
,
1000
0000
1000
0000
,
0000
0000
0000
0000
,
0000
0000
0000
0000
,
0000
0000
0000
0000
,
0000
0000
0000
0000
,
0000
0000
0000
0000
,
0000
0000
0000
0000
,
0001
0000
0001
0000
,
1000
0000
1000
0000
,
0000
0000
0000
0000
,
0000
0000
0000
0000
,
0000
0000
0000
0000
,
0000
0000
0000
0000
,
0000
0000
0000
0000
,
0000
0000
0000
0000
,
0001
0000
0001
0000
,
1000
0000
1000
0000
,
0001
0000
1000
0000
,
0100
0000
0010
0000
,
0100
0000
0000
0000
,
0000
0000
0000
0000
,
0000
0000
0000
0000
,
0000
0000
0000
0000
,
0000
0000
0000
0000
,
0000
0000
0000
0000
,
0001
0000
1000
0000
,
0100
0000
0010
0000
,
0100
0000
0000
0000
,
0000
0000
0000
0000
,
0000
0000
0000
0000
,
0000
0000
0000
0000
,
0000
0000
0000
0000
,
0000
0000
0000
0000
,
0001
0000
1000
0000
,
0100
0000
0010
0000
,
0100
0000
0000
0000
,
0000
0000
0000
0000
,
0000
0000
0000
0000
,
0000
0000
0000
0000
,
0000
0000
0000
0000
,
0000
0000
0000
0000
,
0001
0000
1000
0000
,
0100
0000
0010
0000
,
0100
0000
0000
0000
,
0000
0000
0000
0000
,
0000
0000
0000
0000
,
0000
0000
0000
0000
,
0000
0000
0000
0000
,
0000
0000
0000
0000
,
0001
0000
1000
0000
,
0100
0000
0010
0000
,
0100
0000
0010
0000
,
0001
0000
1000
0000
,
0010
0000
0000
0000
,
0000
0000
0000
0000
,
0000
0000
0000
0000
,
0000
0000
0000
0000
,
0000
0000
0000
0000
,
0000
0000
0000
0000
,
0100
0000
0010
0000
,
0001
0000
1000
0000
,
0010
0000
0000
0000
,
0000
0000
0000
0000
,
0000
0000
0000
0000
,
0000
0000
0000
0000
,
0000
0000
0000
0000
,
0000
0000
0000
0000
,
0100
0000
0010
0000
,
0001
0000
1000
0000
,
0010
0000
0000
0000
,
0000
0000
0000
0000
,
0000
0000
0000
0000
,
0000
0000
0000
0000
,
0000
0000
0000
0000
,
0000
0000
0000
0000
,
0100
0000
0010
0000
,
0001
0000
1000
0000
,
0010
0000
0000
0000
,
0000
0000
0000
0000
,
0000
0000
0000
0000
,
0000
0000
0000
0000
,
0000
0000
0000
0000
,
0000
0000
0000
0000
,
0100
0000
0010
0000
,
0001
0000
1000
0000
,
0010
0000
0100
0000
,
0001
0000
0010
0000
,
0100
0000
0000
0000
,
0000
0000
0000
0000
,
0000
0000
0000
0000
,
0000
0000
0000
0000
,
0000
0000
0000
0000
,
0000
0000
0000
0000
,
0010
0000
0100
0000
,
0001
0000
0010
0000
,
0100
0000
0000
0000
,
0000
0000
0000
0000
,
0000
0000
0000
0000
,
0000
0000
0000
0000
,
0000
0000
0000
0000
,
0000
0000
0000
0000
,
0010
0000
0100
0000
,
0001
0000
0010
0000
,
0100
0000
0000
0000
,
0000
0000
0000
0000
,
0000
0000
0000
0000
,
0000
0000
0000
0000
,
0000
0000
0000
0000
,
0000
0000
0000
0000
,
0010
0000
0100
0000
,
0001
0000
0010
0000
,
0100
0000
0000
0000
,
0000
0000
0000
0000
,
0000
0000
0000
0000
,
0000
0000
0000
0000
,
0000
0000
0000
0000
,
0000
0000
0000
0000
,
0010
0000
0100
0000
,
0001
0000
0010
0000
,
0100
0000
1000
0000
,
0001
0000
0010
0000
,
0001
0000
0000
0000
,
0000
0000
0000
0000
,
0000
0000
0000
0000
,
0000
0000
0000
0000
,
0000
0000
0000
0000
,
0000
0000
0000
0000
,
0100
0000
1000
0000
,
0001
0000
0010
0000
,
0001
0000
0000
0000
,
0000
0000
0000
0000
,
0000
0000
0000
0000
,
0000
0000
0000
0000
,
0000
0000
0000
0000
,
0000
0000
0000
0000
,
0100
0000
1000
0000
,
0001
0000
0010
0000
,
0001
0000
0000
0000
,
0000
0000
0000
0000
,
0000
0000
0000
0000
,
0000
0000
0000
0000
,
0000
0000
0000
0000
,
0000
0000
0000
0000
,
0100
0000
1000
0000
,
0001
0000
0010
0000
,
0001
0000
0000
0000
,
0000
0000
0000
0000
,
0000
0000
0000
0000
,
0000
0000
0000
0000
,
0000
0000
0000
0000
,
0000
0000
0000
0000
,
0100
0000
1000
0000
,
0001
0000
0010
0000
,
0001
0000
1000
0000
,
0010
0000
0100
0000
,
0001
0000
0000
0000
,
0000
0000
0000
0000
,
0000
0000
0000
0000
,
0000
0000
0000
0000
,
0000
0000
0000
0000
,
0000
0000
0000
0000
,
0001
0000
1000
0000
,
0010
0000
0100
0000
,
0001
0000
0000
0000
,
0000
0000
0000
0000
,
0000
0000
0000
0000
,
0000
0000
0000
0000
,
0000
0000
0000
0000
,
0000
0000
0000
0000
,
0001
0000
1000
0000
,
0010
0000
0100
0000
,
0001
0000
0000
0000
,
0000
0000
0000
0000
,
0000
0000
0000
0000
,
0000
0000
0000
0000
,
0000
0000
0000
0000
,
0000
0000
0000
0000
,
0001
0000
1000
0000
,
0010
0000
0100
0000
,
0001
0000
0000
0000
,
0000
0000
0000
0000
,
0000
0000
0000
0000
,
0000
0000
0000
0000
,
0000
0000
0000
0000
,
0000
0000
0000
0000
,
0001
0000
1000
0000
,
0010
0000
0100
0000
,
0001
0000
0100
0000
,
1000
0000
0100
0000
,
0001
0000
0000
0000
,
0000
0000
0000
0000
,
0000
0000
0000
0000
,
0000
0000
0000
0000
,
0000
0000
0000
0000
,
0000
0000
0000
0000
,
0001
0000
0100
0000
,
1000
0000
0100
0000
,
0001
0000
0000
0000
,
0000
0000
0000
0000
,
0000
0000
0000
0000
,
0000
0000
0000
0000
,
0000
0000
0000
0000
,
0000
0000
0000
0000
,
0001
0000
0100
0000
,
1000
0000
0100
0000
,
0001
0000
0000
0000
,
0000
0000
0000
0000
,
0000
0000
0000
0000
,
0000
0000
0000
0000
,
0000
0000
0000
0000
,
0000
0000
0000
0000
,
0001
0000
0100
0000
,
1000
0000
0100
0000
,
0001
0000
0000
0000
,
0000
0000
0000
0000
,
0000
0000
0000
0000
,
0000
0000
0000
0000
,
0000
0000
0000
0000
,
0000
0000
0000
0000
,
0001
0000
0100
0000
,
1000
0000
0100
0000
,
0001
0000
0010
0000
,
0100
0000
1000
0000
,
0100
0000
0000
0000
,
0000
0000
0000
0000
,
0000
0000
0000
0000
,
0000
0000
0000
0000
,
0000
0000
0000
0000
,
0000
0000
0000
0000
,
0001
0000
0010
0000
,
0100
0000
1000
0000
,
0100
0000
0000
0000
,
0000
0000
0000
0000
,
0000
0000
0000
0000
,
0000
0000
0000
0000
,
0000
0000
0000
0000
,
0000
0000
0000
0000
,
0001
0000
0010
0000
,
0100
0000
1000
0000
,
0100
0000
0000
0000
,
0000
0000
0000
0000
,
0000
0000
0000
0000
,
0000
0000
0000
0000
,
0000
0000
0000
0000
,
0000
0000
0000
0000
,
0001
0000
0010
0000
,
0100
0000
1000
0000
,
0100
0000
0000
0000
,
0000
0000
0000
0000
,
0000
0000
0000
0000
,
0000
0000
0000
0000
,
0000
0000
0000
0000
,
0000
0000
0000
0000
,
0001
0000
0010
0000
,
0100
0000
1000
0000
,
0100
0000
0000
0000
,
0000
0000
0000
0000
,
0000
0000
0000
0000
,
0000
0000
0000
0000
,
0000
0000
0000
0000
,
0000
0000
0000
0000
,
0000
0000
0000
0000
,
0000
0000
0000
0000
,
0100
0000
0000
0000
,
0000
0000
0000
0000
,
0000
0000
0000
0000
,
0000
0000
0000
0000
,
0000
0000
0000
0000
,
0000
0000
0000
0000
,
0000
0000
0000
0000
,
0000
0000
0000
0000
,
0100
0000
0000
0000
,
0000
0000
0000
0000
,
0000
0000
0000
0000
,
0000
0000
0000
0000
,
0000
0000
0000
0000
,
0000
0000
0000
0000
,
0000
0000
0000
0000
,
0000
0000
0000
0000
,
0100
0000
0000
0000
,
0000
0000
0000
0000
,
0000
0000
0000
0000
,
0000
0000
0000
0000
,
0000
0000
0000
0000
,
0000
0000
0000
0000
,
0000
0000
0000
0000
,
0000
0000
0000
0000
,
0100
0000
0000
0000
;

//---------------dance-single - ----------------
#NOTES:
     dance-single:
     :
     Easy:
     5:
     0.433230,6.148177,0.611962,0.190388,0.000000,223.000000,178.000000,45.000000,14.000000,0.000000,0.000000,0.433230,6.148177,0.611962,0.190388,0.000000,223.000000,178.000000,45.000000,14.000000,0.000000,0.000000:
0000
0000
0000
0000
,
0000
0000
0000
0000
,
0000
0000
0000
0000
,
0000
0000
0000
0000
,
0000
0000
0000
0000
,
0000
0000
0000
0000
,
0000
0000
0000
0000
,
0000
0000
0000
0000
,
1000
0100
2200
3300
,
1001
0100
0001
0001
,
0010
0000
0000
0000
,
0000
0000
0000
0000
,
0000
0000
0000
0000
,
0000
0000
0000
0000
,
0000
0000
0000
0000
,
0000
0000
0000
0000
,
1000
0100
2200
3300
,
1001
0100
0001
0001
,
0010
0000
0000
0000
,
0000
0000
0000
0000
,
0000
0000
0000
0000
,
0000
0000
0000
0000
,
0000
0000
0000
0000
,
0000
0000
0000
0000
,
1000
0100
2200
3300
,
1001
0100
0001
0001
,
0010
0000
0000
0000
,
0000
0000
0000
0000
,
0000
0000
0000
0000
,
0000
0000
0000
0000
,
0000
0000
0000
0000
,
0000
0000
0000
0000
,
1000
0100
2200
3300
,
1001
0100
0001
0001
,
0010
0000
0000
0000
,
0000
0000
0000
0000
,
0000
0000
0000
0000
,
0000
0000
0000
0000
,
0000
0000
0000
0000
,
0000
0000
0000
0000
,
1000
0100
2200
3300
,
1001
0100
0001
0001
,
0010
0001
0022
0033
,
1001
0010
0001
0001
,
0010
0000
0000
0000
,
0000
0000
0000
0000
,
0000
0000
0000
0000
,
0000
0000
0000
0000
,
0000
0000
0000
0000
,
0000
0000
0000
0001
,
0010
0001
0022
0033
,
1001
0010
0001
0001
,
0010
0000
0000
0000
,
0000
0000
0000
0000
,
0000
0000
0000
0000
,
0000
0000
0000
0000
,
0000
0000
0000
0000
,
0000
0000
0000
0001
,
0010
0001
0022
0033
,
1001
0010
0001
0001
,
0010
0000
0000
0000
,
0000
0000
0000
0000
,
0000
0000
0000
0000
,
0000
0000
0000
0000
,
0000
0000
0000
0000
,
0000
0000
0000
0000
,
0010
0001
0022
0033
,
1001
0010
0001
0001
,
0010
0000
0000
0000
,
0000
0000
0000
0000
,
0000
0000
0000
0000
,
0000
0000
0000
0000
,
0000
0000
0000
0000
,
0000
0000
0000
0000
,
0010
0001
0022
0033
,
1001
0010
0001
0001
,
0010
0100
0220
0330
,
1001
0100
1000
0100
,
0001
0000
0000
0000
,
0000
0000
0000
0000
,
0000
0000
0000
0000
,
0000
0000
0000
0000
,
0000
0000
0000
0000
,
0000
0000
0000
0001
,
0010
0100
0220
0330
,
1001
0100
1000
0100
,
0001
0000
0000
0000
,
0000
0000
0000
0000
,
0000
0000
0000
0000
,
0000
0000
0000
0000
,
0000
0000
0000
0000
,
0000
0000
0000
0001
,
0010
0100
0220
0330
,
1001
0100
1000
0100
,
0001
0000
0000
0000
,
0000
0000
0000
0000
,
0000
0000
0000
0000
,
0000
0000
0000
0000
,
0000
0000
0000
0000
,
0000
0000
0000
0000
,
0010
0100
0220
0330
,
1001
0100
1000
0100
,
0001
0000
0000
0000
,
0000
0000
0000
0000
,
0000
0000
0000
0000
,
0000
0000
0000
0000
,
0000
0000
0000
0000
,
0000
0000
0000
0000
,
0010
0100
0220
0330
,
1001
0100
1000
0100
,
0001
0100
0010
0100
,
0001
0100
1000
0100
,
0001
0000
0000
0000
,
0000
0000
0000
0000
,
0000
0000
0000
0000
,
0000
0000
0000
0000
,
0000
0000
0000
0000
,
0000
0000
0000
0100
,
0001
0100
0010
0100
,
0001
0100
1000
0100
,
0001
0000
0000
0000
,
0000
0000
0000
0000
,
0000
0000
0000
0000
,
0000
0000
0000
0000
,
0000
0000
0000
0000
,
0000
0000
0000
0100
,
0001
0100
0010
0100
,
0001
0100
1000
0100
,
0001
0000
0000
0000
,
0000
0000
0000
0000
,
0000
0000
0000
0000
,
0000
0000
0000
0000
,
0000
0000
0000
0000
,
0000
0000
0000
0000
,
0001
0100
0010
0100
,
0001
0100
1000
0100
,
0001
0000
0000
0000
,
0000
0000
0000
0000
,
0000
0000
0000
0000
,
0000
0000
0000
0000
,
0000
0000
0000
0000
,
0000
0000
0000
0000
,
0001
0100
0010
0100
,
0001
0100
1000
0100
,
0001
0100
1001
0100
,
1001
0100
0010
0100
,
0001
0000
0000
0000
,
0000
0000
0000
0000
,
0000
0000
0000
0000
,
0000
0000
0000
0000
,
0000
0000
0000
0000
,
0000
0000
0000
0100
,
0001
0100
1001
0100
,
1001
0100
0010
0100
,
0001
0000
0000
0000
,
0000
0000
0000
0000
,
0000
0000
0000
0000
,
0000
0000
0000
0000
,
0000
0000
0000
0000
,
0000
0000
0000
0100
,
0001
0100
1001
0100
,
1001
0100
0010
0100
,
0001
0000
0000
0000
,
0000
0000
0000
0000
,
0000
0000
0000
0000
,
0000
0000
0000
0000
,
0000
0000
0000
0000
,
0000
0000
0000
0000
,
0001
0100
1001
0100
,
1001
0100
0010
0100
,
0001
0000
0000
0000
,
0000
0000
0000
0000
,
0000
0000
0000
0000
,
0000
0000
0000
0000
,
0000
0000
0000
0000
,
0000
0000
0000
0000
,
0001
0100
1001
0100
,
1001
0100
0010
0100
,
0001
0010
1000
0010
,
1001
0010
0100
0010
,
1000
0000
0000
0000
,
0000
0000
0000
0000
,
0000
0000
0000
0000
,
0000
0000
0000
0000
,
0000
0000
0000
0000
,
0000
0000
0000
0100
,
0001
0010
1000
0010
,
1001
0010
0100
0010
,
1000
0000
0000
0000
,
0000
0000
0000
0000
,
0000
0000
0000
0000
,
0000
0000
0000
0000
,
0000
0000
0000
0000
,
0000
0000
0000
0100
,
0001
0010
1000
0010
,
1001
0010
0100
0010
,
1000
0000
0000
0000
,
0000
0000
0000
0000
,
0000
0000
0000
0000
,
0000
0000
0000
0000
,
0000
0000
0000
0000
,
0000
0000
0000
0000
,
0001
0010
1000
0010
,
1001
0010
0100
0010
,
1000
0000
0000
0000
,
0000
0000
0000
0000
,
0000
0000
0000
0000
,
0000
0000
0000
0000
,
0000
0000
0000
0000
,
0000
0000
0000
0000
,
0001
0010
1000
0010
,
1001
0010
0100
0010
,
1000
0100
1001
0100
,
1001
0100
1000
0010
,
0100
0000
0000
0000
,
0000
0000
0000
0000
,
0000
0000
0000
0000
,
0000
0000
0000
0000
,
0000
0000
0000
0000
,
0000
0000
0000
0010
,
1000
0100
1001
0100
,
1001
0100
1000
0010
,
0100
0000
0000
0000
,
0000
0000
0000
0000
,
0000
0000
0000
0000
,
0000
0000
0000
0000
,
0000
0000
0000
0000
,
0000
0000
0000
0010
,
1000
0100
1001
0100
,
1001
0100
1000
0010
,
0100
0000
0000
0000
,
0000
0000
0000
0000
,
0000
0000
0000
0000
,
0000
0000
0000
0000
,
0000
0000
0000
0000
,
0000
0000
0000
0000
,
1000
0100
1001
0100
,
1001
0100
1000
0010
,
0100
0000
0000
0000
,
0000
0000
0000
0000
,
0000
0000
0000
0000
,
0000
0000
0000
0000
,
0000
0000
0000
0000
,
0000
0000
0000
0000
,
1000
0100
1001
0100
,
1001
0100
1000
0010
,
0100
0001
0010
0100
,
1001
0100
0010
0001
,
0100
0000
0000
0000
,
0000
0000
0000
0000
,
0000
0000
0000
0000
,
0000
0000
0000
0000
,
0000
0000
0000
0000
,
0000
0000
0000
0010
,
0100
0001
0010
0100
,
1001
0100
0010
0001
,
0100
0000
0000
0000
,
0000
0000
0000
0000
,
0000
0000
0000
0000
,
0000
0000
0000
0000
,
0000
0000
0000
0000
,
0000
0000
0000
0010
,
0100
0001
0010
0100
,
1001
0100
0010
0001
,
0100
0000
0000
0000
,
0000
0000
0000
0000
,
0000
0000
0000
0000
,
0000
0000
0000
0000
,
0000
0000
0000
0000
,
0000
0000
0000
0000
,
0100
0001
0010
0100
,
1001
0100
0010
0001
,
0100
0000
0000
0000
,
0000
0000
0000
0000
,
0000
0000
0000
0000
,
0000
0000
0000
0000
,
0000
0000
0000
0000
,
0000
0000
0000
0000
,
0100
0001
0010
0100
,
1001
0100
0010
0001
,
0100
0010
1010
0010
,
1010
0010
1000
0100
,
0001
0000
0000
0000
,
0000
0000
0000
0000
,
0000
0000
0000
0000
,
0000
0000
0000
0000
,
0000
0000
0000
0000
,
0000
0000
0000
0001
,
0100
0010
1010
0010
,
1010
0010
1000
0100
,
0001
0000
0000
0000
,
0000
0000
0000
0000
,
0000
0000
0000
0000
,
0000
0000
0000
0000
,
0000
0000
0000
0000
,
0000
0000
0000
0001
,
0100
0010
1010
0010
,
1010
0010
1000
0100
,
0001
0000
0000
0000
,
0000
0000
0000
0000
,
0000
0000
0000
0000
,
0000
0000
0000
0000
,
0000
0000
0000
0000
,
0000
0000
0000
0000
,
0100
0010
1010
0010
,
1010
0010
1000
0100
,
0001
0000
0000
0000
,
0000
0000
0000
0000
,
0000
0000
0000
0000
,
0000
0000
0000
0000
,
0000
0000
0000
0000
,
0000
0000
0000
0000
,
0100
0010
1010
0010
,
1010
0010
1000
0100
,
0001
0100
0011
0100
,
1001
0100
0010
0001
,
0010
0000
0000
0000
,
0000
0000
0000
0000
,
0000
0000
0000
0000
,
0000
0000
0000
0000
,
0000
0000
0000
0000
,
0000
0000
0000
0100
,
0001
0100
0011
0100
,
1001
0100
0010
0001
,
0010
0000
0000
0000
,
0000
0000
0000
0000
,
0000
0000
0000
0000
,
0000
0000
0000
0000
,
0000
0000
0000
0000
,
0000
0000
0000
0100
,
0001
0100
0011
0100
,
1001
0100
0010
0001
,
0010
0000
0000
0000
,
0000
0000
0000
0000
,
0000
0000
0000
0000
,
0000
0000
0000
0000
,
0000
0000
0000
0000
,
0000
0000
0000
0000
,
0001
0100
0011
0100
,
1001
0100
0010
0001
,
0010
0000
0000
0000
,
0000
0000
0000
0000
,
0000
0000
0000
0000
,
0000
0000
0000
0000
,
0000
0000
0000
0000
,
0000
0000
0000
0000
,
0001
0100
0011
0100
,
1001
0100
0010
0001
,
0010
0100
1100
0010
,
1001
0010
0100
0010
,
1000
0000
0000
0000
,
0000
0000
0000
0000
,
0000
0000
0000
0000
,
0000
0000
0000
0000
,
0000
0000
0000
0000
,
0000
0000
0000
0001
,
0010
0100
1100
0010
,
1001
0010
0100
0010
,
1000
0000
0000
0000
,
0000
0000
0000
0000
,
0000
0000
0000
0000
,
0000
0000
0000
0000
,
0000
0000
0000
0000
,
0000
0000
0000
0001
,
0010
0100
1100
0010
,
1001
0010
0100
0010
,
1000
0000
0000
0000
,
0000
0000
0000
0000
,
0000
0000
0000
0000
,
0000
0000
0000
0000
,
0000
0000
0000
0000
,
0000
0000
0000
0000
,
0010
0100
1100
0010
,
1001
0010
0100
0010
,
1000
0000
0000
0000
,
0000
0000
0000
0000
,
0000
0000
0000
0000
,
0000
0000
0000
0000
,
0000
0000
0000
0000
,
0000
0000
0000
0000
,
0010
0100
1100
0010
,
1001
0010
0100
0010
,
1000
0001
0101
0010
,
1001
0010
0100
1000
,
0001
0000
0000
0000
,
0000
0000
0000
0000
,
0000
0000
0000
0000
,
0000
0000
0000
0000
,
0000
0000
0000
0000
,
0000
0000
0000
0010
,
1000
0001
0101
0010
,
1001
0010
0100
1000
,
0001
0000
0000
0000
,
0000
0000
0000
0000
,
0000
0000
0000
0000
,
0000
0000
0000
0000
,
0000
0000
0000
0000
,
0000
0000
0000
0010
,
1000
0001
0101
0010
,
1001
0010
0100
1000
,
0001
0000
0000
0000
,
0000
0000
0000
0000
,
0000
0000
0000
0000
,
0000
0000
0000
0000
,
0000
0000
0000
0000
,
0000
0000
0000
0000
,
1000
0001
0101
0010
,
1001
0010
0100
1000
,
0001
0000
0000
0000
,
0000
0000
0000
0000
,
0000
0000
0000
0000
,
0000
0000
0000
0000
,
0000
0000
0000
0000
,
0000
0000
0000
0000
,
1000
0001
0101
0010
,
1001
0010
0100
1000
,
0001
0100
0110
1000
,
1010
1000
0001
0010
,
0100
0000
0000
0000
,
0000
0000
0000
0000
,
0000
0000
0000
0000
,
0000
0000
0000
0000
,
0000
0000
0000
0000
,
0000
0000
0000
1000
,
0001
0100
0110
1000
,
1010
1000
0001
0010
,
0100
0000
0000
0000
,
0000
0000
0000
0000
,
0000
0000
0000
0000
,
0000
0000
0000
0000
,
0000
0000
0000
0000
,
0000
0000
0000
1000
,
0001
0100
0110
1000
,
1010
1000
0001
0010
,
0100
0000
0000
0000
,
0000
0000
0000
0000
,
0000
0000
0000
0000
,
0000
0000
0000
0000
,
0000
0000
0000
0000
,
0000
0000
0000
0000
,
0001
0100
0110
1000
,
1010
1000
0001
0010
,
0100
0000
0000
0000
,
0000
0000
0000
0000
,
0000
0000
0000
0000
,
0000
0000
0000
0000
,
0000
0000
0000
0000
,
0000
0000
0000
0000
,
0001
0100
0110
1000
,
1010
1000
0001
0010
,
0100
0010
0110
0001
,
0011
1000
0001
1000
,
0010
0000
0000
0000
,
0000
0000
0000
0000
,
0000
0000
0000
0000
,
0000
0000
0000
0000
,
0000
0000
0000
0000
,
0000
0000
0000
0010
,
0100
0010
0110
0001
,
0011
1000
0001
1000
,
0010
0000
0000
0000
,
0000
0000
0000
0000
,
0000
0000
0000
0000
,
0000
0000
0000
0000
,
0000
0000
0000
0000
,
0000
0000
0000
0010
,
0100
0010
0110
0001
,
0011
1000
0001
1000
,
0010
0000
0000
0000
,
0000
0000
0000
0000
,
0000
0000
0000
0000
,
0000
0000
0000
0000
,
0000
0000
0000
0000
,
0000
0000
0000
0000
,
0100
0010
0110
0001
,
0011
1000
0001
1000
,
0010
0000
0000
0000
,
0000
0000
0000
0000
,
0000
0000
0000
0000
,
0000
0000
0000
0000
,
0000
0000
0000
0000
,
0000
0000
0000
0000
,
0100
0010
0110
0001
,
0011
1000
0001
1000
,
0010
0100
1010
0100
,
0110
1000
0001
1000
,
1100
0000
0000
0000
,
0000
0000
0000
0000
,
0000
0000
0000
0000
,
0000
0000
0000
0000
,
0000
0000
0000
0000
,
0000
0000
0000
1000
,
0010
0100
1010
0100
,
0110
1000
0001
1000
,
1100
0000
0000
0000
,
0000
0000
0000
0000
,
0000
0000
0000
0000
,
0000
0000
0000
0000
,
0000
0000
0000
0000
,
0000
0000
0000
1000
,
0010
0100
1010
0100
,
0110
1000
0001
1000
,
1100
0000
0000
0000
,
0000
0000
0000
0000
,
0000
0000
0000
0000
,
0000
0000
0000
0000
,
0000
0000
0000
0000
,
0000
0000
0000
0000
,
0010
0100
1010
0100
,
0110
1000
0001
1000
,
1100
0000
0000
0000
,
0000
0000
0000
0000
,
0000
0000
0000
0000
,
0000
0000
0000
0000
,
0000
0000
0000
0000
,
0000
0000
0000
0000
,
0010
0100
1010
0100
,
0110
1000
0001
1000
,
1100
0010
0110
0100
,
0101
1000
1001
0010
,
0001
0000
0000
0000
,
0000
0000
0000
0000
,
0000
0000
0000
0000
,
0000
0000
0000
0000
,
0000
0000
0000
0000
,
0000
0000
0000
1000
,
1100
0010
0110
0100
,
0101
1000
1001
0010
,
0001
0000
0000
0000
,
0000
0000
0000
0000
,
0000
0000
0000
0000
,
0000
0000
0000
0000
,
0000
0000
0000
0000
,
0000
0000
0000
1000
,
1100
0010
0110
0100
,
0101
1000
1001
0010
,
0001
0000
0000
0000
,
0000
0000
0000
0000
,
0000
0000
0000
0000
,
0000
0000
0000
0000
,
0000
0000
0000
0000
,
0000
0000
0000
0000
,
1100
0010
0110
0100
,
0101
1000
1001
0010
,
0001
0000
0000
0000
,
0000
0000
0000
0000
,
0000
0000
0000
0000
,
0000
0000
0000
0000
,
0000
0000
0000
0000
,
0000
0000
0000
0000
,
1100
0010
0110
0100
,
0101
1000
1001
0010
,
0001
0010
0011
0011
,
2002
3003
0001
0100
,
0010
0000
0000
0000
,
0000
0000
0000
0000
,
0000
0000
0000
0000
,
0000
0000
0000
0000
,
0000
0000
0000
0000
,
0000
0000
0000
0010
,
0001
0010
0011
0011
,
2002
3003
0001
0100
,
0010
0000
0000
0000
,
0000
0000
0000
0000
,
0000
0000
0000
0000
,
0000
0000
0000
0000
,
0000
0000
0000
0000
,
0000
0000
0000
0010
,
0001
0010
0011
0011
,
2002
3003
0001
0100
,
0010
0000
0000
0000
,
0000
0000
0000
0000
,
0000
0000
0000
0000
,
0000
0000
0000
0000
,
0000
0000
0000
0000
,
0000
0000
0000
0000
,
0001
0010
0011
0011
,
2002
3003
0001
0100
,
0010
0000
0000
0000
,
0000
0000
0000
0000
,
0000
0000
0000
0000
,
0000
0000
0000
0000
,
0000
0000
0000
0000
,
0000
0000
0000
0000
,
0001
0010
0011
0011
,
2002
3003
0001
0100
,
0010
1000
1100
1100
,
2002
3003
0010
0100
,
0010
0000
0000
0000
,
0000
0000
0000
0000
,
0000
0000
0000
0000
,
0000
0000
0000
0000
,
0000
0000
0000
0000
,
0000
0000
0000
0100
,
0010
1000
1100
1100
,
2002
3003
0010
0100
,
0010
0000
0000
0000
,
0000
0000
0000
0000
,
0000
0000
0000
0000
,
0000
0000
0000
0000
,
0000
0000
0000
0000
,
0000
0000
0000
0100
,
0010
1000
1100
1100
,
2002
3003
0010
0100
,
0010
0000
0000
0000
,
0000
0000
0000
0000
,
0000
0000
0000
0000
,
0000
0000
0000
0000
,
0000
0000
0000
0000
,
0000
0000
0000
0000
,
0010
1000
1100
1100
,
2002
3003
0010
0100
,
0010
0000
0000
0000
,
0000
0000
0000
0000
,
0000
0000
0000
0000
,
0000
0000
0000
0000
,
0000
0000
0000
0000
,
0000
0000
0000
0000
,
0010
1000
1100
1100
,
2002
3003
0010
0100
,
0010
0001
0101
0101
,
2002
3003
0100
0010
,
1000
0000
0000
0000
,
0000
0000
0000
0000
,
0000
0000
0000
0000
,
0000
0000
0000
0000
,
0000
0000
0000
0000
,
0000
0000
0000
0100
,
0010
0001
0101
0101
,
2002
3003
0100
0010
,
1000
0000
0000
0000
,
0000
0000
0000
0000
,
0000
0000
0000
0000
,
0000
0000
0000
0000
,
0000
0000
0000
0000
,
0000
0000
0000
0100
,
0010
0001
0101
0101
,
2002
3003
0100
0010
,
1000
0000
0000
0000
,
0000
0000
0000
0000
,
0000
0000
0000
0000
,
0000
0000
0000
0000
,
0000
0000
0000
0000
,
0000
0000
0000
0000
,
0010
0001
0101
0101
,
2002
3003
0100
0010
,
1000
0000
0000
0000
,
0000
0000
0000
0000
,
0000
0000
0000
0000
,
0000
0000
0000
0000
,
0000
0000
0000
0000
,
0000
0000
0000
0000
,
0010
0001
0101
0101
,
2002
3003
0100
0010
,
1000
0001
1010
1010
,
2002
3003
0010
0100
,
1000
0000
0000
0000
,
0000
0000
0000
0000
,
0000
0000
0000
0000
,
0000
0000
0000
0000
,
0000
0000
0000
0000
,
0000
0000
0000
0010
,
1000
0001
1010
1010
,
2002
3003
0010
0100
,
1000
0000
0000
0000
,
0000
0000
0000
0000
,
0000
0000
0000
0000
,
0000
0000
0000
0000
,
0000
0000
0000
0000
,
0000
0000
0000
0010
,
1000
0001
1010
1010
,
2002
3003
0010
0100
,
1000
0000
0000
0000
,
0000
0000
0000
0000
,
0000
0000
0000
0000
,
0000
0000
0000
0000
,
0000
0000
0000
0000
,
0000
0000
0000
0000
,
1000
0001
1010
1010
,
2002
3003
0010
0100
,
1000
0000
0000
0000
,
0000
0000
0000
0000
,
0000
0000
0000
0000
,
0000
0000
0000
0000
,
0000
0000
0000
0000
,
0000
0000
0000
0000
,
1000
0001
1010
1010
,
2002
3003
0010
0100
,
1000
0001
0100
0010
,
1010
0010
0100
0001
,
0010
0000
0000
0000
,
0000
0000
0000
0000
,
0000
0000
0000
0000
,
0000
0000
0000
0000
,
0000
0000
0000
0000
,
0000
0000
0000
0100
,
1000
0001
0100
0010
,
1010
0010
0100
0001
,
0010
0000
0000
0000
,
0000
0000
0000
0000
,
0000
0000
0000
0000
,
0000
0000
0000
0000
,
0000
0000
0000
0000
,
0000
0000
0000
0100
,
1000
0001
0100
0010
,
1010
0010
0100
0001
,
0010
0000
0000
0000
,
0000
0000
0000
0000
,
0000
0000
0000
0000
,
0000
0000
0000
0000
,
0000
0000
0000
0000
,
0000
0000
0000
0000
,
1000
0001
0100
0010
,
1010
0010
0100
0001
,
0010
0000
0000
0000
,
0000
0000
0000
0000
,
0000
0000
0000
0000
,
0000
0000
0000
0000
,
0000
0000
0000
0000
,
0000
0000
0000
0000
,
1000
0001
0100
0010
,
1010
0010
0100
0001
,
0010
0100
0010
0001
,
0011
1000
0001
0100
,
0010
0000
0000
0000
,
0000
0000
0000
0000
,
0000
0000
0000
0000
,
0000
0000
0000
0000
,
0000
0000
0000
0000
,
0000
0000
0000
0001
,
0010
0100
0010
0001
,
0011
1000
0001
0100
,
0010
0000
0000
0000
,
0000
0000
0000
0000
,
0000
0000
0000
0000
,
0000
0000
0000
0000
,
0000
0000
0000
0000
,
0000
0000
0000
0001
,
0010
0100
0010
0001
,
0011
1000
0001
0100
,
0010
0000
0000
0000
,
0000
0000
0000
0000
,
0000
0000
0000
0000
,
0000
0000
0000
0000
,
0000
0000
0000
0000
,
0000
0000
0000
0000
,
0010
0100
0010
0001
,
0011
1000
0001
0100
,
0010
0000
0000
0000
,
0000
0000
0000
0000
,
0000
0000
0000
0000
,
0000
0000
0000
0000
,
0000
0000
0000
0000
,
0000
0000
0000
0000
,
0010
0100
0010
0001
,
0011
1000
0001
0100
,
0010
1000
0100
0010
,
0110
0001
1000
0001
,
0100
0000
0000
0000
,
0000
0000
0000
0000
,
0000
0000
0000
0000
,
0000
0000
0000
0000
,
0000
0000
0000
0000
,
0000
0000
0000
0100
,
0010
1000
0100
0010
,
0110
0001
1000
0001
,
0100
0000
0000
0000
,
0000
0000
0000
0000
,
0000
0000
0000
0000
,
0000
0000
0000
0000
,
0000
0000
0000
0000
,
0000
0000
0000
0100
,
0010
1000
0100
0010
,
0110
0001
1000
0001
,
0100
0000
0000
0000
,
0000
0000
0000
0000
,
0000
0000
0000
0000
,
0000
0000
0000
0000
,
0000
0000
0000
0000
,
0000
0000
0000
0000
,
0010
1000
0100
0010
,
0110
0001
1000
0001
,
0100
0000
0000
0000
,
0000
0000
0000
0000
,
0000
0000
0000
0000
,
0000
0000
0000
0000
,
0000
0000
0000
0000
,
0000
0000
0000
0000
,
0010
1000
0100
0010
,
0110
0001
1000
0001
,
0100
0000
0000
0000
,
0000
0000
0000
0000
,
0000
0000
0000
0000
,
0000
0000
0000
0000
,
0000
0000
0000
0000
,
0000
0000
0000
0000
,
0000
0000
0000
0000
,
0000
0000
0000
0001
,
0100
0000
0000
0000
,
0000
0000
0000
0000
,
0000
0000
0000
0000
,
0000
0000
0000
0000
,
0000
0000
0000
0000
,
0000
0000
0000
0000
,
0000
0000
0000
0000
,
0000
0000
0000
0001
,
0100
0000
0000
0000
,
0000
0000
0000
0000
,
0000
0000
0000
0000
,
0000
0000
0000
0000
,
0000
0000
0000
0000
,
0000
0000
0000
0000
,
0000
0000
0000
0000
,
0000
0000
0000
0000
,
0100
0000
0000
0000
,
0000
0000
0000
0000
,
0000
0000
0000
0000
,
0000
0000
0000
0000
,
0000
0000
0000
0000
,
0000
0000
0000
0000
,
0000
0000
0000
0000
,
0000
0000
0000
0000
,
0100
0000
0000
0000
;

//---------------dance-single - ----------------
#NOTES:
     dance-single:
     :
     Medium:
     6:
     0.495398,5.589252,0.407975,0.203987,0.000000,255.000000,225.000000,30.000000,15.000000,0.000000,0.000000,0.495398,5.589252,0.407975,0.203987,0.000000,255.000000,225.000000,30.000000,15.000000,0.000000,0.000000:
0000
0000
0000
0000
,
0000
0000
0000
0000
,
0000
0000
0000
0000
,
0000
0000
0000
0000
,
0000
0000
0000
0000
,
0000
0000
0000
0000
,
0000
0000
0000
0000
,
0000
0000
0000
0000
,
0010
0100
2002
3003
,
0100
0000
0010
0000
0001
0001
0001
0001
,
1000
0000
0000
0000
,
0000
0000
0000
0000
,
0000
0000
0000
0000
,
0000
0000
0000
0000
,
0000
0000
0000
0000
,
0000
0000
0000
0000
,
0010
0100
2002
3003
,
0100
0000
0010
0000
0001
0001
0001
0001
,
1000
0000
0000
0000
,
0000
0000
0000
0000
,
0000
0000
0000
0000
,
0000
0000
0000
0000
,
0000
0000
0000
0000
,
0000
0000
0000
0000
,
0010
0100
2002
3003
,
0100
0000
0010
0000
0001
0001
0001
0001
,
1000
0000
0000
0000
,
0000
0000
0000
0000
,
0000
0000
0000
0000
,
0000
0000
0000
0000
,
0000
0000
0000
0000
,
0000
0000
0000
0000
,
0010
0100
2002
3003
,
0100
0000
0010
0000
0001
0001
0001
0001
,
1000
0000
0000
0000
,
0000
0000
0000
0000
,
0000
0000
0000
0000
,
0000
0000
0000
0000
,
0000
0000
0000
0000
,
0000
0000
0000
0000
,
0010
0100
2002
3003
,
0100
0000
0010
0000
0001
0001
0001
0001
,
1000
0001
2002
3003
,
0010
0000
0100
0000
1000
1000
1000
1000
,
0001
0000
0000
0000
,
0000
0000
0000
0000
,
0000
0000
0000
0000
,
0000
0000
0000
0000
,
0000
0000
0000
0000
,
0000
0000
0000
0000
0000
0001
0001
0001
,
1000
0001
2002
3003
,
0010
0000
0100
0000
1000
1000
1000
1000
,
0001
0000
0000
0000
,
0000
0000
0000
0000
,
0000
0000
0000
0000
,
0000
0000
0000
0000
,
0000
0000
0000
0000
,
0000
0000
0000
0000
0000
0000
0001
0001
,
1000
0001
2002
3003
,
0010
0000
0100
0000
1000
1000
1000
1000
,
0001
0000
0000
0000
,
0000
0000
0000
0000
,
0000
0000
0000
0000
,
0000
0000
0000
0000
,
0000
0000
0000
0000
,
0000
0000
0000
0000
0000
0000
0000
0001
,
1000
0001
2002
3003
,
0010
0000
0100
0000
1000
1000
1000
1000
,
0001
0000
0000
0000
,
0000
0000
0000
0000
,
0000
0000
0000
0000
,
0000
0000
0000
0000
,
0000
0000
0000
0000
,
0000
0000
0000
0000
,
1000
0001
2002
3003
,
0010
0000
0100
0000
1000
1000
1000
1000
,
0001
1000
0220
0330
,
0100
0000
0010
0000
0100
0010
1000
0001
,
0100
0000
0000
0000
,
0000
0000
0000
0000
,
0000
0000
0000
0000
,
0000
0000
0000
0000
,
0000
0000
0000
0000
,
0000
0000
0000
0000
0000
1000
1000
1000
,
0001
1000
0220
0330
,
0100
0000
0010
0000
0100
0010
1000
0001
,
0100
0000
0000
0000
,
0000
0000
0000
0000
,
0000
0000
0000
0000
,
0000
0000
0000
0000
,
0000
0000
0000
0000
,
0000
0000
0000
0000
0000
0000
1000
1000
,
0001
1000
0220
0330
,
0100
0000
0010
0000
0100
0010
1000
0001
,
0100
0000
0000
0000
,
0000
0000
0000
0000
,
0000
0000
0000
0000
,
0000
0000
0000
0000
,
0000
0000
0000
0000
,
0000
0000
0000
0000
0000
0000
0000
1000
,
0001
1000
0220
0330
,
0100
0000
0010
0000
0100
0010
1000
0001
,
0100
0000
0000
0000
,
0000
0000
0000
0000
,
0000
0000
0000
0000
,
0000
0000
0000
0000
,
0000
0000
0000
0000
,
0000
0000
0000
0000
,
0001
1000
0220
0330
,
0100
0000
0010
0000
0100
0010
1000
0001
,
0100
0010
1000
0001
,
0010
0000
0100
0000
1000
0001
1000
0001
,
1000
0000
0000
0000
,
0000
0000
0000
0000
,
0000
0000
0000
0000
,
0000
0000
0000
0000
,
0000
0000
0000
0000
,
0000
0000
0000
0000
0000
0010
1000
0001
,
0100
0010
1000
0001
,
0010
0000
0100
0000
1000
0001
1000
0001
,
1000
0000
0000
0000
,
0000
0000
0000
0000
,
0000
0000
0000
0000
,
0000
0000
0000
0000
,
0000
0000
0000
0000
,
0000
0000
0000
0000
0000
0000
1000
0001
,
0100
0010
1000
0001
,
0010
0000
0100
0000
1000
0001
1000
0001
,
1000
0000
0000
0000
,
0000
0000
0000
0000
,
0000
0000
0000
0000
,
0000
0000
0000
0000
,
0000
0000
0000
0000
,
0000
0000
0000
0000
0000
0000
0000
0001
,
0100
0010
1000
0001
,
0010
0000
0100
0000
1000
0001
1000
0001
,
1000
0000
0000
0000
,
0000
0000
0000
0000
,
0000
0000
0000
0000
,
0000
0000
0000
0000
,
0000
0000
0000
0000
,
0000
0000
0000
0000
,
0100
0010
1000
0001
,
0010
0000
0100
0000
1000
0001
1000
0001
,
1000
0010
1001
0100
,
0001
0100
0001
0000
1000
0010
0100
0001
,
1000
0000
0000
0000
,
0000
0000
0000
0000
,
0000
0000
0000
0000
,
0000
0000
0000
0000
,
0000
0000
0000
0000
,
0000
0000
0000
0000
0000
0001
1000
0001
,
1000
0010
1001
0100
,
0001
0100
0001
0000
1000
0010
0100
0001
,
1000
0000
0000
0000
,
0000
0000
0000
0000
,
0000
0000
0000
0000
,
0000
0000
0000
0000
,
0000
0000
0000
0000
,
0000
0000
0000
0000
0000
0000
1000
0001
,
1000
0010
1001
0100
,
0001
0100
0001
0000
1000
0010
0100
0001
,
1000
0000
0000
0000
,
0000
0000
0000
0000
,
0000
0000
0000
0000
,
0000
0000
0000
0000
,
0000
0000
0000
0000
,
0000
0000
0000
0000
0000
0000
0000
0001
,
1000
0010
1001
0100
,
0001
0100
0001
0000
1000
0010
0100
0001
,
1000
0000
0000
0000
,
0000
0000
0000
0000
,
0000
0000
0000
0000
,
0000
0000
0000
0000
,
0000
0000
0000
0000
,
0000
0000
0000
0000
,
1000
0010
1001
0100
,
0001
0100
0001
0000
1000
0010
0100
0001
,
1000
0000
0001
0000
1000
0001
0100
0000
,
0101
0000
0100
0000
0010
1000
0001
1000
,
0100
0000
0000
0000
,
0000
0000
0000
0000
,
0000
0000
0000
0000
,
0000
0000
0000
0000
,
0000
0000
0000
0000
,
0000
0000
0000
0000
0000
0010
0100
0001
,
1000
0000
0001
0000
1000
0001
0100
0000
,
0101
0000
0100
0000
0010
1000
0001
1000
,
0100
0000
0000
0000
,
0000
0000
0000
0000
,
0000
0000
0000
0000
,
0000
0000
0000
0000
,
0000
0000
0000
0000
,
0000
0000
0000
0000
0000
0000
0100
0001
,
1000
0000
0001
0000
1000
0001
0100
0000
,
0101
0000
0100
0000
0010
1000
0001
1000
,
0100
0000
0000
0000
,
0000
0000
0000
0000
,
0000
0000
0000
0000
,
0000
0000
0000
0000
,
0000
0000
0000
0000
,
0000
0000
0000
0000
0000
0000
0000
0001
,
1000
0000
0001
0000
1000
0001
0100
0000
,
0101
0000
0100
0000
0010
1000
0001
1000
,
0100
0000
0000
0000
,
0000
0000
0000
0000
,
0000
0000
0000
0000
,
0000
0000
0000
0000
,
0000
0000
0000
0000
,
0000
0000
0000
0000
,
1000
0000
0001
0000
1000
0001
0100
0000
,
0101
0000
0100
0000
0010
1000
0001
1000
,
0100
0010
0100
0010
,
1001
0000
0010
0000
0100
1000
0001
1000
,
0100
0000
0000
0000
,
0000
0000
0000
0000
,
0000
0000
0000
0000
,
0000
0000
0000
0000
,
0000
0000
0000
0000
,
0000
0000
0000
0000
0000
1000
0001
1000
,
0100
0010
0100
0010
,
1001
0000
0010
0000
0100
1000
0001
1000
,
0100
0000
0000
0000
,
0000
0000
0000
0000
,
0000
0000
0000
0000
,
0000
0000
0000
0000
,
0000
0000
0000
0000
,
0000
0000
0000
0000
0000
0000
0001
1000
,
0100
0010
0100
0010
,
1001
0000
0010
0000
0100
1000
0001
1000
,
0100
0000
0000
0000
,
0000
0000
0000
0000
,
0000
0000
0000
0000
,
0000
0000
0000
0000
,
0000
0000
0000
0000
,
0000
0000
0000
0000
0000
0000
0000
1000
,
0100
0010
0100
0010
,
1001
0000
0010
0000
0100
1000
0001
1000
,
0100
0000
0000
0000
,
0000
0000
0000
0000
,
0000
0000
0000
0000
,
0000
0000
0000
0000
,
0000
0000
0000
0000
,
0000
0000
0000
0000
,
0100
0010
0100
0010
,
1001
0000
0010
0000
0100
1000
0001
1000
,
0100
0010
0001
0100
,
0110
0000
0100
0000
0001
1000
0001
1000
,
0001
0000
0000
0000
,
0000
0000
0000
0000
,
0000
0000
0000
0000
,
0000
0000
0000
0000
,
0000
0000
0000
0000
,
0000
0000
0000
0000
0000
1000
0001
1000
,
0100
0010
0001
0100
,
0110
0000
0100
0000
0001
1000
0001
1000
,
0001
0000
0000
0000
,
0000
0000
0000
0000
,
0000
0000
0000
0000
,
0000
0000
0000
0000
,
0000
0000
0000
0000
,
0000
0000
0000
0000
0000
0000
0001
1000
,
0100
0010
0001
0100
,
0110
0000
0100
0000
0001
1000
0001
1000
,
0001
0000
0000
0000
,
0000
0000
0000
0000
,
0000
0000
0000
0000
,
0000
0000
0000
0000
,
0000
0000
0000
0000
,
0000
0000
0000
0000
0000
0000
0000
1000
,
0100
0010
0001
0100
,
0110
0000
0100
0000
0001
1000
0001
1000
,
0001
0000
0000
0000
,
0000
0000
0000
0000
,
0000
0000
0000
0000
,
0000
0000
0000
0000
,
0000
0000
0000
0000
,
0000
0000
0000
0000
,
0100
0010
0001
0100
,
0110
0000
0100
0000
0001
1000
0001
1000
,
0001
0010
0110
0010
,
1001
0000
0100
0000
0010
1000
0001
0010
,
0100
0000
0000
0000
,
0000
0000
0000
0000
,
0000
0000
0000
0000
,
0000
0000
0000
0000
,
0000
0000
0000
0000
,
0000
0000
0000
0000
0000
1000
0001
1000
,
0001
0010
0110
0010
,
1001
0000
0100
0000
0010
1000
0001
0010
,
0100
0000
0000
0000
,
0000
0000
0000
0000
,
0000
0000
0000
0000
,
0000
0000
0000
0000
,
0000
0000
0000
0000
,
0000
0000
0000
0000
0000
0000
0001
1000
,
0001
0010
0110
0010
,
1001
0000
0100
0000
0010
1000
0001
0010
,
0100
0000
0000
0000
,
0000
0000
0000
0000
,
0000
0000
0000
0000
,
0000
0000
0000
0000
,
0000
0000
0000
0000
,
0000
0000
0000
0000
0000
0000
0000
1000
,
0001
0010
0110
0010
,
1001
0000
0100
0000
0010
1000
0001
0010
,
0100
0000
0000
0000
,
0000
0000
0000
0000
,
0000
0000
0000
0000
,
0000
0000
0000
0000
,
0000
0000
0000
0000
,
0000
0000
0000
0000
,
0001
0010
0110
0010
,
1001
0000
0100
0000
0010
1000
0001
0010
,
0100
1000
1001
0010
,
0110
0000
0100
0000
0001
1000
0001
0100
,
1000
0000
0000
0000
,
0000
0000
0000
0000
,
0000
0000
0000
0000
,
0000
0000
0000
0000
,
0000
0000
0000
0000
,
0000
0000
0000
0000
0000
1000
0001
0010
,
0100
1000
1001
0010
,
0110
0000
0100
0000
0001
1000
0001
0100
,
1000
0000
0000
0000
,
0000
0000
0000
0000
,
0000
0000
0000
0000
,
0000
0000
0000
0000
,
0000
0000
0000
0000
,
0000
0000
0000
0000
0000
0000
0001
0010
,
0100
1000
1001
0010
,
0110
0000
0100
0000
0001
1000
0001
0100
,
1000
0000
0000
0000
,
0000
0000
0000
0000
,
0000
0000
0000
0000
,
0000
0000
0000
0000
,
0000
0000
0000
0000
,
0000
0000
0000
0000
0000
0000
0000
0010
,
0100
1000
1001
0010
,
0110
0000
0100
0000
0001
1000
0001
0100
,
1000
0000
0000
0000
,
0000
0000
0000
0000
,
0000
0000
0000
0000
,
0000
0000
0000
0000
,
0000
0000
0000
0000
,
0000
0000
0000
0000
,
0100
1000
1001
0010
,
0110
0000
0100
0000
0001
1000
0001
0100
,
1000
0100
1001
0100
,
0110
0000
0010
0000
1000
0010
0100
0001
,
0010
0000
0000
0000
,
0000
0000
0000
0000
,
0000
0000
0000
0000
,
0000
0000
0000
0000
,
0000
0000
0000
0000
,
0000
0000
0000
0000
0000
1000
0001
0100
,
1000
0100
1001
0100
,
0110
0000
0010
0000
1000
0010
0100
0001
,
0010
0000
0000
0000
,
0000
0000
0000
0000
,
0000
0000
0000
0000
,
0000
0000
0000
0000
,
0000
0000
0000
0000
,
0000
0000
0000
0000
0000
0000
0001
0100
,
1000
0100
1001
0100
,
0110
0000
0010
0000
1000
0010
0100
0001
,
0010
0000
0000
0000
,
0000
0000
0000
0000
,
0000
0000
0000
0000
,
0000
0000
0000
0000
,
0000
0000
0000
0000
,
0000
0000
0000
0000
0000
0000
0000
0100
,
1000
0100
1001
0100
,
0110
0000
0010
0000
1000
0010
0100
0001
,
0010
0000
0000
0000
,
0000
0000
0000
0000
,
0000
0000
0000
0000
,
0000
0000
0000
0000
,
0000
0000
0000
0000
,
0000
0000
0000
0000
,
1000
0100
1001
0100
,
0110
0000
0010
0000
1000
0010
0100
0001
,
0010
0100
0011
1000
,
1010
0000
0100
0000
0001
0010
0100
1000
,
0010
0000
0000
0000
,
0000
0000
0000
0000
,
0000
0000
0000
0000
,
0000
0000
0000
0000
,
0000
0000
0000
0000
,
0000
0000
0000
0000
0000
0010
0100
0001
,
0010
0100
0011
1000
,
1010
0000
0100
0000
0001
0010
0100
1000
,
0010
0000
0000
0000
,
0000
0000
0000
0000
,
0000
0000
0000
0000
,
0000
0000
0000
0000
,
0000
0000
0000
0000
,
0000
0000
0000
0000
0000
0000
0100
0001
,
0010
0100
0011
1000
,
1010
0000
0100
0000
0001
0010
0100
1000
,
0010
0000
0000
0000
,
0000
0000
0000
0000
,
0000
0000
0000
0000
,
0000
0000
0000
0000
,
0000
0000
0000
0000
,
0000
0000
0000
0000
0000
0000
0000
0001
,
0010
0100
0011
1000
,
1010
0000
0100
0000
0001
0010
0100
1000
,
0010
0000
0000
0000
,
0000
0000
0000
0000
,
0000
0000
0000
0000
,
0000
0000
0000
0000
,
0000
0000
0000
0000
,
0000
0000
0000
0000
,
0010
0100
0011
1000
,
1010
0000
0100
0000
0001
0010
0100
1000
,
0010
0100
2002
3003
,
1100
0000
0010
0000
1000
0100
0010
0001
,
0100
0000
0000
0000
,
0000
0000
0000
0000
,
0000
0000
0000
0000
,
0000
0000
0000
0000
,
0000
0000
0000
0000
,
0000
0000
0000
0000
0000
0010
0100
1000
,
0010
0100
2002
3003
,
1100
0000
0010
0000
1000
0100
0010
0001
,
0100
0000
0000
0000
,
0000
0000
0000
0000
,
0000
0000
0000
0000
,
0000
0000
0000
0000
,
0000
0000
0000
0000
,
0000
0000
0000
0000
0000
0000
0100
1000
,
0010
0100
2002
3003
,
1100
0000
0010
0000
1000
0100
0010
0001
,
0100
0000
0000
0000
,
0000
0000
0000
0000
,
0000
0000
0000
0000
,
0000
0000
0000
0000
,
0000
0000
0000
0000
,
0000
0000
0000
0000
0000
0000
0000
1000
,
0010
0100
2002
3003
,
1100
0000
0010
0000
1000
0100
0010
0001
,
0100
0000
0000
0000
,
0000
0000
0000
0000
,
0000
0000
0000
0000
,
0000
0000
0000
0000
,
0000
0000
0000
0000
,
0000
0000
0000
0000
,
0010
0100
2002
3003
,
1100
0000
0010
0000
1000
0100
0010
0001
,
0100
0010
2002
3003
,
0101
0000
0100
0000
0010
1000
0001
0010
,
0100
0000
0000
0000
,
0000
0000
0000
0000
,
0000
0000
0000
0000
,
0000
0000
0000
0000
,
0000
0000
0000
0000
,
0000
0000
0000
0000
0000
0100
0010
0001
,
0100
0010
2002
3003
,
0101
0000
0100
0000
0010
1000
0001
0010
,
0100
0000
0000
0000
,
0000
0000
0000
0000
,
0000
0000
0000
0000
,
0000
0000
0000
0000
,
0000
0000
0000
0000
,
0000
0000
0000
0000
0000
0000
0010
0001
,
0100
0010
2002
3003
,
0101
0000
0100
0000
0010
1000
0001
0010
,
0100
0000
0000
0000
,
0000
0000
0000
0000
,
0000
0000
0000
0000
,
0000
0000
0000
0000
,
0000
0000
0000
0000
,
0000
0000
0000
0000
0000
0000
0000
0001
,
0100
0010
2002
3003
,
0101
0000
0100
0000
0010
1000
0001
0010
,
0100
0000
0000
0000
,
0000
0000
0000
0000
,
0000
0000
0000
0000
,
0000
0000
0000
0000
,
0000
0000
0000
0000
,
0000
0000
0000
0000
,
0100
0010
2002
3003
,
0101
0000
0100
0000
0010
1000
0001
0010
,
0100
1000
0220
0330
,
1001
0000
0100
0000
0010
1000
0100
0010
,
0002
0000
0000
0003
,
0000
0000
0000
0000
,
0000
0000
0000
0000
,
0000
0000
0000
0000
,
0000
0000
0000
0000
,
0000
0000
0000
0000
0000
1000
0001
0010
,
0100
1000
0220
0330
,
1001
0000
0100
0000
0010
1000
0100
0010
,
0002
0000
0000
0003
,
0000
0000
0000
0000
,
0000
0000
0000
0000
,
0000
0000
0000
0000
,
0000
0000
0000
0000
,
0000
0000
0000
0000
0000
0000
0001
0010
,
0100
1000
0220
0330
,
1001
0000
0100
0000
0010
1000
0100
0010
,
0002
0000
0000
0003
,
0000
0000
0000
0000
,
0000
0000
0000
0000
,
0000
0000
0000
0000
,
0000
0000
0000
0000
,
0000
0000
0000
0000
0000
0000
0000
0010
,
0100
1000
0220
0330
,
1001
0000
0100
0000
0010
1000
0100
0010
,
0002
0000
0000
0003
,
0000
0000
0000
0000
,
0000
0000
0000
0000
,
0000
0000
0000
0000
,
0000
0000
0000
0000
,
0000
0000
0000
0000
,
0100
1000
0220
0330
,
1001
0000
0100
0000
0010
1000
0100
0010
,
0002
0000
0020
0003
,
0200
0000
0030
0000
1300
0100
1000
0100
,
0001
0000
0000
0000
,
0000
0000
0000
0000
,
0000
0000
0000
0000
,
0000
0000
0000
0000
,
0000
0000
0000
0000
,
0000
0000
0000
0000
0000
1000
0100
0010
,
0002
0000
0020
0003
,
0200
0000
0030
0000
1300
0100
1000
0100
,
0001
0000
0000
0000
,
0000
0000
0000
0000
,
0000
0000
0000
0000
,
0000
0000
0000
0000
,
0000
0000
0000
0000
,
0000
0000
0000
0000
0000
0000
0100
0010
,
0002
0000
0020
0003
,
0200
0000
0030
0000
1300
0100
1000
0100
,
0001
0000
0000
0000
,
0000
0000
0000
0000
,
0000
0000
0000
0000
,
0000
0000
0000
0000
,
0000
0000
0000
0000
,
0000
0000
0000
0000
0000
0000
0000
0010
,
0002
0000
0020
0003
,
0200
0000
0030
0000
1300
0100
1000
0100
,
0001
0000
0000
0000
,
0000
0000
0000
0000
,
0000
0000
0000
0000
,
0000
0000
0000
0000
,
0000
0000
0000
0000
,
0000
0000
0000
0000
,
0002
0000
0020
0003
,
0200
0000
0030
0000
1300
0100
1000
0100
,
0001
0100
1000
0000
1001
0000
0100
0000
,
1001
0000
0100
0000
0001
0100
1000
0100
,
0001
0000
0000
0000
,
0000
0000
0000
0000
,
0000
0000
0000
0000
,
0000
0000
0000
0000
,
0000
0000
0000
0000
,
0000
0000
0000
0000
0000
0100
1000
0100
,
0001
0100
1000
0000
1001
0000
0100
0000
,
1001
0000
0100
0000
0001
0100
1000
0100
,
0001
0000
0000
0000
,
0000
0000
0000
0000
,
0000
0000
0000
0000
,
0000
0000
0000
0000
,
0000
0000
0000
0000
,
0000
0000
0000
0000
0000
0000
1000
0100
,
0001
0100
1000
0000
1001
0000
0100
0000
,
1001
0000
0100
0000
0001
0100
1000
0100
,
0001
0000
0000
0000
,
0000
0000
0000
0000
,
0000
0000
0000
0000
,
0000
0000
0000
0000
,
0000
0000
0000
0000
,
0000
0000
0000
0000
0000
0000
0000
0100
,
0001
0100
1000
0000
1001
0000
0100
0000
,
1001
0000
0100
0000
0001
0100
1000
0100
,
0001
0000
0000
0000
,
0000
0000
0000
0000
,
0000
0000
0000
0000
,
0000
0000
0000
0000
,
0000
0000
0000
0000
,
0000
0000
0000
0000
,
0001
0100
1000
0000
1001
0000
0100
0000
,
1001
0000
0100
0000
0001
0100
1000
0100
,
0001
0100
1001
0100
,
1001
0000
0100
0000
1000
0100
0001
0100
,
1000
0000
0000
0000
,
0000
0000
0000
0000
,
0000
0000
0000
0000
,
0000
0000
0000
0000
,
0000
0000
0000
0000
,
0000
0000
0000
0000
0000
0100
1000
0100
,
0001
0100
1001
0100
,
1001
0000
0100
0000
1000
0100
0001
0100
,
1000
0000
0000
0000
,
0000
0000
0000
0000
,
0000
0000
0000
0000
,
0000
0000
0000
0000
,
0000
0000
0000
0000
,
0000
0000
0000
0000
0000
0000
1000
0100
,
0001
0100
1001
0100
,
1001
0000
0100
0000
1000
0100
0001
0100
,
1000
0000
0000
0000
,
0000
0000
0000
0000
,
0000
0000
0000
0000
,
0000
0000
0000
0000
,
0000
0000
0000
0000
,
0000
0000
0000
0000
0000
0000
0000
0100
,
0001
0100
1001
0100
,
1001
0000
0100
0000
1000
0100
0001
0100
,
1000
0000
0000
0000
,
0000
0000
0000
0000
,
0000
0000
0000
0000
,
0000
0000
0000
0000
,
0000
0000
0000
0000
,
0000
0000
0000
0000
,
0001
0100
1001
0100
,
1001
0000
0100
0000
1000
0100
0001
0100
,
1000
0010
0100
0010
,
1001
0000
0100
0000
0001
0010
1000
0010
,
0001
0000
0000
0000
,
0000
0000
0000
0000
,
0000
0000
0000
0000
,
0000
0000
0000
0000
,
0000
0000
0000
0000
,
0000
0000
0000
0000
0000
0100
0001
0100
,
1000
0010
0100
0010
,
1001
0000
0100
0000
0001
0010
1000
0010
,
0001
0000
0000
0000
,
0000
0000
0000
0000
,
0000
0000
0000
0000
,
0000
0000
0000
0000
,
0000
0000
0000
0000
,
0000
0000
0000
0000
0000
0000
0001
0100
,
1000
0010
0100
0010
,
1001
0000
0100
0000
0001
0010
1000
0010
,
0001
0000
0000
0000
,
0000
0000
0000
0000
,
0000
0000
0000
0000
,
0000
0000
0000
0000
,
0000
0000
0000
0000
,
0000
0000
0000
0000
0000
0000
0000
0100
,
1000
0010
0100
0010
,
1001
0000
0100
0000
0001
0010
1000
0010
,
0001
0000
0000
0000
,
0000
0000
0000
0000
,
0000
0000
0000
0000
,
0000
0000
0000
0000
,
0000
0000
0000
0000
,
0000
0000
0000
0000
,
1000
0010
0100
0010
,
1001
0000
0100
0000
0001
0010
1000
0010
,
0001
0100
0010
0100
,
1001
0000
0010
0000
1000
0100
0001
0010
,
1000
0000
0000
0000
,
0000
0000
0000
0000
,
0000
0000
0000
0000
,
0000
0000
0000
0000
,
0000
0000
0000
0000
,
0000
0000
0000
0000
0000
0010
1000
0010
,
0001
0100
0010
0100
,
1001
0000
0010
0000
1000
0100
0001
0010
,
1000
0000
0000
0000
,
0000
0000
0000
0000
,
0000
0000
0000
0000
,
0000
0000
0000
0000
,
0000
0000
0000
0000
,
0000
0000
0000
0000
0000
0000
1000
0010
,
0001
0100
0010
0100
,
1001
0000
0010
0000
1000
0100
0001
0010
,
1000
0000
0000
0000
,
0000
0000
0000
0000
,
0000
0000
0000
0000
,
0000
0000
0000
0000
,
0000
0000
0000
0000
,
0000
0000
0000
0000
0000
0000
0000
0010
,
0001
0100
0010
0100
,
1001
0000
0010
0000
1000
0100
0001
0010
,
1000
0000
0000
0000
,
0000
0000
0000
0000
,
0000
0000
0000
0000
,
0000
0000
0000
0000
,
0000
0000
0000
0000
,
0000
0000
0000
0000
,
0001
0100
0010
0100
,
1001
0000
0010
0000
1000
0100
0001
0010
,
1000
0100
0010
0100
,
1001
0000
0100
0000
0010
0001
1000
0001
,
0010
0000
0000
0000
,
0000
0000
0000
0000
,
0000
0000
0000
0000
,
0000
0000
0000
0000
,
0000
0000
0000
0000
,
0000
0000
0000
0000
0000
0100
0001
0010
,
1000
0100
0010
0100
,
1001
0000
0100
0000
0010
0001
1000
0001
,
0010
0000
0000
0000
,
0000
0000
0000
0000
,
0000
0000
0000
0000
,
0000
0000
0000
0000
,
0000
0000
0000
0000
,
0000
0000
0000
0000
0000
0000
0001
0010
,
1000
0100
0010
0100
,
1001
0000
0100
0000
0010
0001
1000
0001
,
0010
0000
0000
0000
,
0000
0000
0000
0000
,
0000
0000
0000
0000
,
0000
0000
0000
0000
,
0000
0000
0000
0000
,
0000
0000
0000
0000
0000
0000
0000
0010
,
1000
0100
0010
0100
,
1001
0000
0100
0000
0010
0001
1000
0001
,
0010
0000
0000
0000
,
0000
0000
0000
0000
,
0000
0000
0000
0000
,
0000
0000
0000
0000
,
0000
0000
0000
0000
,
0000
0000
0000
0000
,
1000
0100
0010
0100
,
1001
0000
0100
0000
0010
0001
1000
0001
,
0010
0001
0100
0010
,
1100
0000
0010
0000
0100
0001
1000
0010
,
0100
0000
0000
0000
,
0000
0000
0000
0000
,
0000
0000
0000
0000
,
0000
0000
0000
0000
,
0000
0000
0000
0000
,
0000
0000
0000
0000
0000
0001
1000
0001
,
0010
0001
0100
0010
,
1100
0000
0010
0000
0100
0001
1000
0010
,
0100
0000
0000
0000
,
0000
0000
0000
0000
,
0000
0000
0000
0000
,
0000
0000
0000
0000
,
0000
0000
0000
0000
,
0000
0000
0000
0000
0000
0000
1000
0001
,
0010
0001
0100
0010
,
1100
0000
0010
0000
0100
0001
1000
0010
,
0100
0000
0000
0000
,
0000
0000
0000
0000
,
0000
0000
0000
0000
,
0000
0000
0000
0000
,
0000
0000
0000
0000
,
0000
0000
0000
0000
0000
0000
0000
0001
,
0010
0001
0100
0010
,
1100
0000
0010
0000
0100
0001
1000
0010
,
0100
0000
0000
0000
,
0000
0000
0000
0000
,
0000
0000
0000
0000
,
0000
0000
0000
0000
,
0000
0000
0000
0000
,
0000
0000
0000
0000
,
0010
0001
0100
0010
,
1100
0000
0010
0000
0100
0001
1000
0010
,
0100
1000
0100
0001
,
0110
0000
1000
0000
0001
0010
0100
1000
,
0010
0000
0000
0000
,
0000
0000
0000
0000
,
0000
0000
0000
0000
,
0000
0000
0000
0000
,
0000
0000
0000
0000
,
0000
0000
0000
0000
0000
0001
1000
0010
,
0100
1000
0100
0001
,
0110
0000
1000
0000
0001
0010
0100
1000
,
0010
0000
0000
0000
,
0000
0000
0000
0000
,
0000
0000
0000
0000
,
0000
0000
0000
0000
,
0000
0000
0000
0000
,
0000
0000
0000
0000
0000
0000
1000
0010
,
0100
1000
0100
0001
,
0110
0000
1000
0000
0001
0010
0100
1000
,
0010
0000
0000
0000
,
0000
0000
0000
0000
,
0000
0000
0000
0000
,
0000
0000
0000
0000
,
0000
0000
0000
0000
,
0000
0000
0000
0000
0000
0000
0000
0010
,
0100
1000
0100
0001
,
0110
0000
1000
0000
0001
0010
0100
1000
,
0010
0000
0000
0000
,
0000
0000
0000
0000
,
0000
0000
0000
0000
,
0000
0000
0000
0000
,
0000
0000
0000
0000
,
0000
0000
0000
0000
,
0100
1000
0100
0001
,
0110
0000
1000
0000
0001
0010
0100
1000
,
0010
0000
0000
0000
,
0000
0000
0000
0000
,
0000
0000
0000
0000
,
0000
0000
0000
0000
,
0000
0000
0000
0000
,
0000
0000
0000
0000
,
0000
0000
0000
0000
,
0000
0000
0000
0000
0000
0010
0100
1000
,
0010
0000
0000
0000
,
0000
0000
0000
0000
,
0000
0000
0000
0000
,
0000
0000
0000
0000
,
0000
0000
0000
0000
,
0000
0000
0000
0000
,
0000
0000
0000
0000
,
0000
0000
0000
0000
0000
0000
0100
1000
,
0010
0000
0000
0000
,
0000
0000
0000
0000
,
0000
0000
0000
0000
,
0000
0000
0000
0000
,
0000
0000
0000
0000
,
0000
0000
0000
0000
,
0000
0000
0000
0000
,
0000
0000
0000
0000
0000
0000
0000
1000
,
0010
0000
0000
0000
,
0000
0000
0000
0000
,
0000
0000
0000
0000
,
0000
0000
0000
0000
,
0000
0000
0000
0000
,
0000
0000
0000
0000
,
0000
0000
0000
0000
,
0000
0000
0000
0000
,
0010
0000
0000
0000
;

//---------------dance-single - ----------------
#NOTES:
     dance-single:
     :
     Hard:
     9:
     0.646931,7.266027,0.666358,0.217586,0.000000,333.000000,274.000000,49.000000,16.000000,0.000000,5.000000,0.646931,7.266027,0.666358,0.217586,0.000000,333.000000,274.000000,49.000000,16.000000,0.000000,5.000000:
// measure 0
0000
0000
0000
0000
,  // measure 1
0000
0000
0000
0000
,  // measure 2
0000
0000
0000
0000
,  // measure 3
0000
0000
0000
0000
,  // measure 4
0000
0000
0000
0000
,  // measure 5
0000
0000
0000
0000
,  // measure 6
0000
0000
0000
0000
,  // measure 7
0000
0000
0000
0000
,  // measure 8
1010
0101
0022
0033
,  // measure 9
1010
0000
0101
0000
0011
1000
1000
1000
,  // measure 10
0011
1100
0000
0000
,  // measure 11
0000
0000
0000
0000
,  // measure 12
0000
0000
0000
0000
,  // measure 13
0000
0000
0000
0000
,  // measure 14
0000
0000
0000
0000
,  // measure 15
0000
0000
0000
0000
,  // measure 16
1010
0101
0022
0033
,  // measure 17
1010
0000
0101
0000
0011
1000
1000
1000
,  // measure 18
0011
1100
0000
0000
,  // measure 19
0000
0000
0000
0000
,  // measure 20
0000
0000
0000
0000
,  // measure 21
0000
0000
0000
0000
,  // measure 22
0000
0000
0000
0000
,  // measure 23
0000
0000
0000
0000
,  // measure 24
1010
0101
0022
0033
,  // measure 25
1010
0000
0101
0000
0011
1000
1000
1000
,  // measure 26
0011
1100
0000
0000
,  // measure 27
0000
0000
0000
0000
,  // measure 28
0000
0000
0000
0000
,  // measure 29
0000
0000
0000
0000
,  // measure 30
0000
0000
0000
0000
,  // measure 31
0000
0000
0000
0000
,  // measure 32
1010
0101
0022
0033
,  // measure 33
1010
0000
0101
0000
0011
1000
1000
1000
,  // measure 34
0011
1100
0000
0000
,  // measure 35
0000
0000
0000
0000
,  // measure 36
0000
0000
0000
0000
,  // measure 37
0000
0000
0000
0000
,  // measure 38
0000
0000
0000
0000
,  // measure 39
0000
0000
0000
0000
,  // measure 40
1010
0101
0022
0033
,  // measure 41
1010
0000
0101
0000
0011
1000
1000
1000
,  // measure 42
0011
1100
2020
3030
,  // measure 43
0011
0000
1100
0000
1010
0001
0001
0001
,  // measure 44
1100
0000
0000
0000
,  // measure 45
0000
0000
0000
0000
,  // measure 46
0000
0000
0000
0000
,  // measure 47
0000
0000
0000
0000
,  // measure 48
0000
0000
0000
0000
,  // measure 49
0000
0000
0000
0000
0000
1000
1000
1000
,  // measure 50
0011
1100
2020
3030
,  // measure 51
0011
0000
1100
0000
1010
0001
0001
0001
,  // measure 52
1100
0000
0000
0000
,  // measure 53
0000
0000
0000
0000
,  // measure 54
0000
0000
0000
0000
,  // measure 55
0000
0000
0000
0000
,  // measure 56
0000
0000
0000
0000
,  // measure 57
0000
0000
0000
0000
0000
0000
1000
1000
,  // measure 58
0011
1100
2020
3030
,  // measure 59
0011
0000
1100
0000
1010
0001
0001
0001
,  // measure 60
1100
0000
0000
0000
,  // measure 61
0000
0000
0000
0000
,  // measure 62
0000
0000
0000
0000
,  // measure 63
0000
0000
0000
0000
,  // measure 64
0000
0000
0000
0000
,  // measure 65
0000
0000
0000
0000
0000
0000
0000
1000
,  // measure 66
0011
1100
2020
3030
,  // measure 67
0011
0000
1100
0000
1010
0001
0001
0001
,  // measure 68
1100
0000
0000
0000
,  // measure 69
0000
0000
0000
0000
,  // measure 70
0000
0000
0000
0000
,  // measure 71
0000
0000
0000
0000
,  // measure 72
0000
0000
0000
0000
,  // measure 73
0000
0000
0000
0000
,  // measure 74
0011
1100
2020
3030
,  // measure 75
0011
0000
1100
0000
1010
0001
0001
0001
,  // measure 76
1100
0110
2002
3003
,  // measure 77
1100
0000
0110
0000
1001
0100
0100
0100
,  // measure 78
1100
0000
0000
0000
,  // measure 79
0000
0000
0000
0000
,  // measure 80
0000
0000
0000
0000
,  // measure 81
0000
0000
0000
0000
,  // measure 82
0000
0000
0000
0000
,  // measure 83
0000
0000
0000
0000
0000
0001
0001
0001
,  // measure 84
1100
0110
2002
3003
,  // measure 85
1100
0000
0110
0000
1001
0100
0100
0100
,  // measure 86
1100
0000
0000
0000
,  // measure 87
0000
0000
0000
0000
,  // measure 88
0000
0000
0000
0000
,  // measure 89
0000
0000
0000
0000
,  // measure 90
0000
0000
0000
0000
,  // measure 91
0000
0000
0000
0000
0000
0000
0001
0001
,  // measure 92
1100
0110
2002
3003
,  // measure 93
1100
0000
0110
0000
1001
0100
0100
0100
,  // measure 94
1100
0000
0000
0000
,  // measure 95
0000
0000
0000
0000
,  // measure 96
0000
0000
0000
0000
,  // measure 97
0000
0000
0000
0000
,  // measure 98
0000
0000
0000
0000
,  // measure 99
0000
0000
0000
0000
0000
0000
0000
0001
,  // measure 100
1100
0110
2002
3003
,  // measure 101
1100
0000
0110
0000
1001
0100
0100
0100
,  // measure 102
1100
0000
0000
0000
,  // measure 103
0000
0000
0000
0000
,  // measure 104
0000
0000
0000
0000
,  // measure 105
0000
0000
0000
0000
,  // measure 106
0000
0000
0000
0000
,  // measure 107
0000
0000
0000
0000
,  // measure 108
1100
0110
2002
3003
,  // measure 109
1100
0000
0110
0000
1001
0100
0100
0100
,  // measure 110
1100
0000
0101
0000
0100
1000
0001
0010
,  // measure 111
1000
0001
0100
1000
0100
0100
0100
0100
,  // measure 112
0010
0000
0000
0000
,  // measure 113
0000
0000
0000
0000
,  // measure 114
0000
0000
0000
0000
,  // measure 115
0000
0000
0000
0000
,  // measure 116
0000
0000
0000
0000
,  // measure 117
0000
0000
0000
0000
0000
0100
0100
0100
,  // measure 118
1100
0000
0101
0000
0100
1000
0001
0010
,  // measure 119
1000
0001
0100
1000
0100
0100
0100
0100
,  // measure 120
0010
0000
0000
0000
,  // measure 121
0000
0000
0000
0000
,  // measure 122
0000
0000
0000
0000
,  // measure 123
0000
0000
0000
0000
,  // measure 124
0000
0000
0000
0000
,  // measure 125
0000
0000
0000
0000
0000
0000
0100
0100
,  // measure 126
1100
0000
0101
0000
0100
1000
0001
0010
,  // measure 127
1000
0001
0100
1000
0100
0100
0100
0100
,  // measure 128
0010
0000
0000
0000
,  // measure 129
0000
0000
0000
0000
,  // measure 130
0000
0000
0000
0000
,  // measure 131
0000
0000
0000
0000
,  // measure 132
0000
0000
0000
0000
,  // measure 133
0000
0000
0000
0000
0000
0000
0000
0100
,  // measure 134
1100
0000
0101
0000
0100
1000
0001
0010
,  // measure 135
1000
0001
0100
1000
0100
0100
0100
0100
,  // measure 136
0010
0000
0000
0000
,  // measure 137
0000
0000
0000
0000
,  // measure 138
0000
0000
0000
0000
,  // measure 139
0000
0000
0000
0000
,  // measure 140
0000
0000
0000
0000
,  // measure 141
0000
0000
0000
0000
,  // measure 142
1100
0000
0101
0000
0100
1000
0001
0010
,  // measure 143
1000
0001
0100
1000
0100
0100
0100
0100
,  // measure 144
0010
1000
0100
0000
1001
0100
0010
0000
,  // measure 145
0001
0100
1000
0000
0110
0100
0100
0100
,  // measure 146
0001
0000
0000
0000
,  // measure 147
0000
0000
0000
0000
,  // measure 148
0000
0000
0000
0000
,  // measure 149
0000
0000
0000
0000
,  // measure 150
0000
0000
0000
0000
,  // measure 151
0000
0000
0000
0000
0000
0100
0100
0100
,  // measure 152
0010
1000
0100
0000
1001
0100
0010
0000
,  // measure 153
0001
0100
1000
0000
0110
0100
0100
0100
,  // measure 154
0001
0000
0000
0000
,  // measure 155
0000
0000
0000
0000
,  // measure 156
0000
0000
0000
0000
,  // measure 157
0000
0000
0000
0000
,  // measure 158
0000
0000
0000
0000
,  // measure 159
0000
0000
0000
0000
0000
0000
0100
0100
,  // measure 160
0010
1000
0100
0000
1001
0100
0010
0000
,  // measure 161
0001
0100
1000
0000
0110
0100
0100
0100
,  // measure 162
0001
0000
0000
0000
,  // measure 163
0000
0000
0000
0000
,  // measure 164
0000
0000
0000
0000
,  // measure 165
0000
0000
0000
0000
,  // measure 166
0000
0000
0000
0000
,  // measure 167
0000
0000
0000
0000
0000
0000
0000
0100
,  // measure 168
0010
1000
0100
0000
1001
0100
0010
0000
,  // measure 169
0001
0100
1000
0000
0110
0100
0100
0100
,  // measure 170
0001
0000
0000
0000
,  // measure 171
0000
0000
0000
0000
,  // measure 172
0000
0000
0000
0000
,  // measure 173
0000
0000
0000
0000
,  // measure 174
0000
0000
0000
0000
,  // measure 175
0000
0000
0000
0000
,  // measure 176
0010
1000
0100
0000
1001
0100
0010
0000
,  // measure 177
0001
0100
1000
0000
0110
0100
0100
0100
,  // measure 178
0001
1000
0010
0000
0011
1000
0100
0000
,  // measure 179
1100
0001
0010
0000
0100
0100
0100
0100
,  // measure 180
1001
0000
0000
0000
,  // measure 181
0000
0000
0000
0000
,  // measure 182
0000
0000
0000
0000
,  // measure 183
0000
0000
0000
0000
,  // measure 184
0000
0000
0000
0000
,  // measure 185
0000
0000
0000
0000
0000
0100
0100
0100
,  // measure 186
0001
1000
0010
0000
0011
1000
0100
0000
,  // measure 187
1100
0001
0010
0000
0100
0100
0100
0100
,  // measure 188
1001
0000
0000
0000
,  // measure 189
0000
0000
0000
0000
,  // measure 190
0000
0000
0000
0000
,  // measure 191
0000
0000
0000
0000
,  // measure 192
0000
0000
0000
0000
,  // measure 193
0000
0000
0000
0000
0000
0000
0100
0100
,  // measure 194
0001
1000
0010
0000
0011
1000
0100
0000
,  // measure 195
1100
0001
0010
0000
0100
0100
0100
0100
,  // measure 196
1001
0000
0000
0000
,  // measure 197
0000
0000
0000
0000
,  // measure 198
0000
0000
0000
0000
,  // measure 199
0000
0000
0000
0000
,  // measure 200
0000
0000
0000
0000
,  // measure 201
0000
0000
0000
0000
0000
0000
0000
0100
,  // measure 202
0001
1000
0010
0000
0011
1000
0100
0000
,  // measure 203
1100
0001
0010
0000
0100
0100
0100
0100
,  // measure 204
1001
0000
0000
0000
,  // measure 205
0000
0000
0000
0000
,  // measure 206
0000
0000
0000
0000
,  // measure 207
0000
0000
0000
0000
,  // measure 208
0000
0000
0000
0000
,  // measure 209
0000
0000
0000
0000
,  // measure 210
0001
1000
0010
0000
0011
1000
0100
0000
,  // measure 211
1100
0001
0010
0000
0100
0100
0100
0100
,  // measure 212
1001
0100
0010
0000
0001
1000
0010
0000
,  // measure 213
1001
0100
1000
0000
0001
0001
0001
0001
,  // measure 214
1001
0000
0000
0000
,  // measure 215
0000
0000
0000
0000
,  // measure 216
0000
0000
0000
0000
,  // measure 217
0000
0000
0000
0000
,  // measure 218
0000
0000
0000
0000
,  // measure 219
0000
0000
0000
0000
0000
0100
0100
0100
,  // measure 220
1001
0100
0010
0000
0001
1000
0010
0000
,  // measure 221
1001
0100
1000
0000
0001
0001
0001
0001
,  // measure 222
1001
0000
0000
0000
,  // measure 223
0000
0000
0000
0000
,  // measure 224
0000
0000
0000
0000
,  // measure 225
0000
0000
0000
0000
,  // measure 226
0000
0000
0000
0000
,  // measure 227
0000
0000
0000
0000
0000
0000
0100
0100
,  // measure 228
1001
0100
0010
0000
0001
1000
0010
0000
,  // measure 229
1001
0100
1000
0000
0001
0001
0001
0001
,  // measure 230
1001
0000
0000
0000
,  // measure 231
0000
0000
0000
0000
,  // measure 232
0000
0000
0000
0000
,  // measure 233
0000
0000
0000
0000
,  // measure 234
0000
0000
0000
0000
,  // measure 235
0000
0000
0000
0000
0000
0000
0000
0100
,  // measure 236
1001
0100
0010
0000
0001
1000
0010
0000
,  // measure 237
1001
0100
1000
0000
0001
0001
0001
0001
,  // measure 238
1001
0000
0000
0000
,  // measure 239
0000
0000
0000
0000
,  // measure 240
0000
0000
0000
0000
,  // measure 241
0000
0000
0000
0000
,  // measure 242
0000
0000
0000
0000
,  // measure 243
0000
0000
0000
0000
,  // measure 244
1001
0100
0010
0000
0001
1000
0010
0000
,  // measure 245
1001
0100
1000
0000
0001
0001
0001
0001
,  // measure 246
1001
1000
0010
0000
0001
1000
0100
0000
,  // measure 247
0110
0001
0100
0000
0010
0010
0010
0010
,  // measure 248
1000
0000
0000
0000
,  // measure 249
0000
0000
0000
0000
,  // measure 250
0000
0000
0000
0000
,  // measure 251
0000
0000
0000
0000
,  // measure 252
0000
0000
0000
0000
,  // measure 253
0000
0000
0000
0000
0000
0001
0001
0001
,  // measure 254
1001
1000
0010
0000
0001
1000
0100
0000
,  // measure 255
0110
0001
0100
0000
0010
0010
0010
0010
,  // measure 256
1000
0000
0000
0000
,  // measure 257
0000
0000
0000
0000
,  // measure 258
0000
0000
0000
0000
,  // measure 259
0000
0000
0000
0000
,  // measure 260
0000
0000
0000
0000
,  // measure 261
0000
0000
0000
0000
0000
0000
0001
0001
,  // measure 262
1001
1000
0010
0000
0001
1000
0100
0000
,  // measure 263
0110
0001
0100
0000
0010
0010
0010
0010
,  // measure 264
1000
0000
0000
0000
,  // measure 265
0000
0000
0000
0000
,  // measure 266
0000
0000
0000
0000
,  // measure 267
0000
0000
0000
0000
,  // measure 268
0000
0000
0000
0000
,  // measure 269
0000
0000
0000
0000
0000
0000
0000
0001
,  // measure 270
1001
1000
0010
0000
0001
1000
0100
0000
,  // measure 271
0110
0001
0100
0000
0010
0010
0010
0010
,  // measure 272
1000
0000
0000
0000
,  // measure 273
0000
0000
0000
0000
,  // measure 274
0000
0000
0000
0000
,  // measure 275
0000
0000
0000
0000
,  // measure 276
0000
0000
0000
0000
,  // measure 277
0000
0000
0000
0000
,  // measure 278
1001
1000
0010
0000
0001
1000
0100
0000
,  // measure 279
0110
0001
0100
0000
0010
0010
0010
0010
,  // measure 280
1000
0001
0010
0000
0001
1000
0100
0000
,  // measure 281
1100
0001
0010
0000
0100
0100
0100
0100
,  // measure 282
1000
0000
0000
0000
,  // measure 283
0000
0000
0000
0000
,  // measure 284
0000
0000
0000
0000
,  // measure 285
0000
0000
0000
0000
,  // measure 286
0000
0000
0000
0000
,  // measure 287
0000
0000
0000
0000
0000
0010
0010
0010
,  // measure 288
1000
0001
0010
0000
0001
1000
0100
0000
,  // measure 289
1100
0001
0010
0000
0100
0100
0100
0100
,  // measure 290
1000
0000
0000
0000
,  // measure 291
0000
0000
0000
0000
,  // measure 292
0000
0000
0000
0000
,  // measure 293
0000
0000
0000
0000
,  // measure 294
0000
0000
0000
0000
,  // measure 295
0000
0000
0000
0000
0000
0000
0010
0010
,  // measure 296
1000
0001
0010
0000
0001
1000
0100
0000
,  // measure 297
1100
0001
0010
0000
0100
0100
0100
0100
,  // measure 298
1000
0000
0000
0000
,  // measure 299
0000
0000
0000
0000
,  // measure 300
0000
0000
0000
0000
,  // measure 301
0000
0000
0000
0000
,  // measure 302
0000
0000
0000
0000
,  // measure 303
0000
0000
0000
0000
0000
0000
0000
0010
,  // measure 304
1000
0001
0010
0000
0001
1000
0100
0000
,  // measure 305
1100
0001
0010
0000
0100
0100
0100
0100
,  // measure 306
1000
0000
0000
0000
,  // measure 307
0000
0000
0000
0000
,  // measure 308
0000
0000
0000
0000
,  // measure 309
0000
0000
0000
0000
,  // measure 310
0000
0000
0000
0000
,  // measure 311
0000
0000
0000
0000
,  // measure 312
1000
0001
0010
0000
0001
1000
0100
0000
,  // measure 313
1100
0001
0010
0000
0100
0100
0100
0100
,  // measure 314
1000
0010
0001
0000
0010
1000
0010
0000
,  // measure 315
0110
0001
0100
0000
1000
1000
1000
1000
,  // measure 316
0100
0000
0000
0000
,  // measure 317
0000
0000
0000
0000
,  // measure 318
0000
0000
0000
0000
,  // measure 319
0000
0000
0000
0000
,  // measure 320
0000
0000
0000
0000
,  // measure 321
0000
0000
0000
0000
0000
0100
0100
0100
,  // measure 322
1000
0010
0001
0000
0010
1000
0010
0000
,  // measure 323
0110
0001
0100
0000
1000
1000
1000
1000
,  // measure 324
0100
0000
0000
0000
,  // measure 325
0000
0000
0000
0000
,  // measure 326
0000
0000
0000
0000
,  // measure 327
0000
0000
0000
0000
,  // measure 328
0000
0000
0000
0000
,  // measure 329
0000
0000
0000
0000
0000
0000
0100
0100
,  // measure 330
1000
0010
0001
0000
0010
1000
0010
0000
,  // measure 331
0110
0001
0100
0000
1000
1000
1000
1000
,  // measure 332
0100
0000
0000
0000
,  // measure 333
0000
0000
0000
0000
,  // measure 334
0000
0000
0000
0000
,  // measure 335
0000
0000
0000
0000
,  // measure 336
0000
0000
0000
0000
,  // measure 337
0000
0000
0000
0000
0000
0000
0000
0100
,  // measure 338
1000
0010
0001
0000
0010
1000
0010
0000
,  // measure 339
0110
0001
0100
0000
1000
1000
1000
1000
,  // measure 340
0100
0000
0000
0000
,  // measure 341
0000
0000
0000
0000
,  // measure 342
0000
0000
0000
0000
,  // measure 343
0000
0000
0000
0000
,  // measure 344
0000
0000
0000
0000
,  // measure 345
0000
0000
0000
0000
,  // measure 346
1000
0010
0001
0000
0010
1000
0010
0000
,  // measure 347
0110
0001
0100
0000
1000
1000
1000
1000
,  // measure 348
0100
0001
0010
0000
0110
1000
0100
0000
,  // measure 349
1001
0100
0010
0000
0100
0100
0100
0100
,  // measure 350
0001
0000
0000
0000
,  // measure 351
0000
0000
0000
0000
,  // measure 352
0000
0000
0000
0000
,  // measure 353
0000
0000
0000
0000
,  // measure 354
0000
0000
0000
0000
,  // measure 355
0000
0000
0000
0000
0000
1000
1000
1000
,  // measure 356
0100
0001
0010
0000
0110
1000
0100
0000
,  // measure 357
1001
0100
0010
0000
0100
0100
0100
0100
,  // measure 358
0001
0000
0000
0000
,  // measure 359
0000
0000
0000
0000
,  // measure 360
0000
0000
0000
0000
,  // measure 361
0000
0000
0000
0000
,  // measure 362
0000
0000
0000
0000
,  // measure 363
0000
0000
0000
0000
0000
0000
1000
1000
,  // measure 364
0100
0001
0010
0000
0110
1000
0100
0000
,  // measure 365
1001
0100
0010
0000
0100
0100
0100
0100
,  // measure 366
0001
0000
0000
0000
,  // measure 367
0000
0000
0000
0000
,  // measure 368
0000
0000
0000
0000
,  // measure 369
0000
0000
0000
0000
,  // measure 370
0000
0000
0000
0000
,  // measure 371
0000
0000
0000
0000
0000
0000
0000
1000
,  // measure 372
0100
0001
0010
0000
0110
1000
0100
0000
,  // measure 373
1001
0100
0010
0000
0100
0100
0100
0100
,  // measure 374
0001
0000
0000
0000
,  // measure 375
0000
0000
0000
0000
,  // measure 376
0000
0000
0000
0000
,  // measure 377
0000
0000
0000
0000
,  // measure 378
0000
0000
0000
0000
,  // measure 379
0000
0000
0000
0000
,  // measure 380
0100
0001
0010
0000
0110
1000
0100
0000
,  // measure 381
1001
0100
0010
0000
0100
0100
0100
0100
,  // measure 382
0001
0010
1000
0000
0010
0001
0100
0000
,  // measure 383
1100
0010
0100
0000
0001
0001
0001
0001
,  // measure 384
1000
0000
0000
0000
,  // measure 385
0000
0000
0000
0000
,  // measure 386
0000
0000
0000
0000
,  // measure 387
0000
0000
0000
0000
,  // measure 388
0000
0000
0000
0000
,  // measure 389
0000
0000
0000
0000
0000
0100
0100
0100
,  // measure 390
0001
0010
1000
0000
0010
0001
0100
0000
,  // measure 391
1100
0010
0100
0000
0001
0001
0001
0001
,  // measure 392
1000
0000
0000
0000
,  // measure 393
0000
0000
0000
0000
,  // measure 394
0000
0000
0000
0000
,  // measure 395
0000
0000
0000
0000
,  // measure 396
0000
0000
0000
0000
,  // measure 397
0000
0000
0000
0000
0000
0000
0100
0100
,  // measure 398
0001
0010
1000
0000
0010
0001
0100
0000
,  // measure 399
1100
0010
0100
0000
0001
0001
0001
0001
,  // measure 400
1000
0000
0000
0000
,  // measure 401
0000
0000
0000
0000
,  // measure 402
0000
0000
0000
0000
,  // measure 403
0000
0000
0000
0000
,  // measure 404
0000
0000
0000
0000
,  // measure 405
0000
0000
0000
0000
0000
0000
0000
0100
,  // measure 406
0001
0010
1000
0000
0010
0001
0100
0000
,  // measure 407
1100
0010
0100
0000
0001
0001
0001
0001
,  // measure 408
1000
0000
0000
0000
,  // measure 409
0000
0000
0000
0000
,  // measure 410
0000
0000
0000
0000
,  // measure 411
0000
0000
0000
0000
,  // measure 412
0000
0000
0000
0000
,  // measure 413
0000
0000
0000
0000
,  // measure 414
0001
0010
1000
0000
0010
0001
0100
0000
,  // measure 415
1100
0010
0100
0000
0001
0001
0001
0001
,  // measure 416
1000
0100
0010
0000
0001
1000
0010
0000
,  // measure 417
0110
1000
0001
0000
0100
0100
0100
0100
,  // measure 418
0010
0000
0000
0000
,  // measure 419
0000
0000
0000
0000
,  // measure 420
0000
0000
0000
0000
,  // measure 421
0000
0000
0000
0000
,  // measure 422
0000
0000
0000
0000
,  // measure 423
0000
0000
0000
0000
0000
0001
0001
0001
,  // measure 424
1000
0100
0010
0000
0001
1000
0010
0000
,  // measure 425
0110
1000
0001
0000
0100
0100
0100
0100
,  // measure 426
0010
0000
0000
0000
,  // measure 427
0000
0000
0000
0000
,  // measure 428
0000
0000
0000
0000
,  // measure 429
0000
0000
0000
0000
,  // measure 430
0000
0000
0000
0000
,  // measure 431
0000
0000
0000
0000
0000
0000
0001
0001
,  // measure 432
1000
0100
0010
0000
0001
1000
0010
0000
,  // measure 433
0110
1000
0001
0000
0100
0100
0100
0100
,  // measure 434
0010
0000
0000
0000
,  // measure 435
0000
0000
0000
0000
,  // measure 436
0000
0000
0000
0000
,  // measure 437
0000
0000
0000
0000
,  // measure 438
0000
0000
0000
0000
,  // measure 439
0000
0000
0000
0000
0000
0000
0000
0001
,  // measure 440
1000
0100
0010
0000
0001
1000
0010
0000
,  // measure 441
0110
1000
0001
0000
0100
0100
0100
0100
,  // measure 442
0010
0000
0000
0000
,  // measure 443
0000
0000
0000
0000
,  // measure 444
0000
0000
0000
0000
,  // measure 445
0000
0000
0000
0000
,  // measure 446
0000
0000
0000
0000
,  // measure 447
0000
0000
0000
0000
,  // measure 448
1000
0100
0010
0000
0001
1000
0010
0000
,  // measure 449
0110
1000
0001
0000
0100
0100
0100
0100
,  // measure 450
0010
1000
0001
0000
0012
0000
0103
0000
,  // measure 451
1001
0100
0010
0000
1000
1000
1000
1000
,  // measure 452
0100
0000
0000
0000
,  // measure 453
0000
0000
0000
0000
,  // measure 454
0000
0000
0000
0000
,  // measure 455
0000
0000
0000
0000
,  // measure 456
0000
0000
0000
0000
,  // measure 457
0000
0000
0000
0000
0000
0100
0100
0100
,  // measure 458
0010
1000
0001
0000
0012
0000
0103
0000
,  // measure 459
1001
0100
0010
0000
1000
1000
1000
1000
,  // measure 460
0100
0000
0000
0000
,  // measure 461
0000
0000
0000
0000
,  // measure 462
0000
0000
0000
0000
,  // measure 463
0000
0000
0000
0000
,  // measure 464
0000
0000
0000
0000
,  // measure 465
0000
0000
0000
0000
0000
0000
0100
0100
,  // measure 466
0010
1000
0001
0000
0012
0000
0103
0000
,  // measure 467
1001
0100
0010
0000
1000
1000
1000
1000
,  // measure 468
0100
0000
0000
0000
,  // measure 469
0000
0000
0000
0000
,  // measure 470
0000
0000
0000
0000
,  // measure 471
0000
0000
0000
0000
,  // measure 472
0000
0000
0000
0000
,  // measure 473
0000
0000
0000
0000
0000
0000
0000
0100
,  // measure 474
0010
1000
0001
0000
0012
0000
0103
0000
,  // measure 475
1001
0100
0010
0000
1000
1000
1000
1000
,  // measure 476
0100
0000
0000
0000
,  // measure 477
0000
0000
0000
0000
,  // measure 478
0000
0000
0000
0000
,  // measure 479
0000
0000
0000
0000
,  // measure 480
0000
0000
0000
0000
,  // measure 481
0000
0000
0000
0000
,  // measure 482
0010
1000
0001
0000
0012
0000
0103
0000
,  // measure 483
1001
0100
0010
0000
1000
1000
1000
1000
,  // measure 484
0100
0001
0010
0000
0110
0001
1000
0000
,  // measure 485
1001
0100
0010
0000
0100
0100
0100
0100
,  // measure 486
0010
0000
0000
0000
,  // measure 487
0000
0000
0000
0000
,  // measure 488
0000
0000
0000
0000
,  // measure 489
0000
0000
0000
0000
,  // measure 490
0000
0000
0000
0000
,  // measure 491
0000
0000
0000
0000
0000
1000
1000
1000
,  // measure 492
0100
0001
0010
0000
0110
0001
1000
0000
,  // measure 493
1001
0100
0010
0000
0100
0100
0100
0100
,  // measure 494
0010
0000
0000
0000
,  // measure 495
0000
0000
0000
0000
,  // measure 496
0000
0000
0000
0000
,  // measure 497
0000
0000
0000
0000
,  // measure 498
0000
0000
0000
0000
,  // measure 499
0000
0000
0000
0000
0000
0000
1000
1000
,  // measure 500
0100
0001
0010
0000
0110
0001
1000
0000
,  // measure 501
1001
0100
0010
0000
0100
0100
0100
0100
,  // measure 502
0010
0000
0000
0000
,  // measure 503
0000
0000
0000
0000
,  // measure 504
0000
0000
0000
0000
,  // measure 505
0000
0000
0000
0000
,  // measure 506
0000
0000
0000
0000
,  // measure 507
0000
0000
0000
0000
0000
0000
0000
1000
,  // measure 508
0100
0001
0010
0000
0110
0001
1000
0000
,  // measure 509
1001
0100
0010
0000
0100
0100
0100
0100
,  // measure 510
0010
0000
0000
0000
,  // measure 511
0000
0000
0000
0000
,  // measure 512
0000
0000
0000
0000
,  // measure 513
0000
0000
0000
0000
,  // measure 514
0000
0000
0000
0000
,  // measure 515
0000
0000
0000
0000
,  // measure 516
0100
0001
0010
0000
0110
0001
1000
0000
,  // measure 517
1001
0100
0010
0000
0100
0100
0100
0100
,  // measure 518
0010
1000
0001
0010
1000
0100
0001
0010
,  // measure 519
1000
0100
0001
0010
0100
0100
0100
0100
,  // measure 520
1000
0000
0000
0000
,  // measure 521
0000
0000
0000
0000
,  // measure 522
0000
0000
0000
0000
,  // measure 523
0000
0000
0000
0000
,  // measure 524
0000
0000
0000
0000
,  // measure 525
0000
0000
0000
0000
0000
0100
0100
0100
,  // measure 526
0010
1000
0001
0010
1000
0100
0001
0010
,  // measure 527
1000
0100
0001
0010
0100
0100
0100
0100
,  // measure 528
1000
0000
0000
0000
,  // measure 529
0000
0000
0000
0000
,  // measure 530
0000
0000
0000
0000
,  // measure 531
0000
0000
0000
0000
,  // measure 532
0000
0000
0000
0000
,  // measure 533
0000
0000
0000
0000
0000
0000
0100
0100
,  // measure 534
0010
1000
0001
0010
1000
0100
0001
0010
,  // measure 535
1000
0100
0001
0010
0100
0100
0100
0100
,  // measure 536
1000
0000
0000
0000
,  // measure 537
0000
0000
0000
0000
,  // measure 538
0000
0000
0000
0000
,  // measure 539
0000
0000
0000
0000
,  // measure 540
0000
0000
0000
0000
,  // measure 541
0000
0000
0000
0000
0000
0000
0000
0100
,  // measure 542
0010
1000
0001
0010
1000
0100
0001
0010
,  // measure 543
1000
0100
0001
0010
0100
0100
0100
0100
,  // measure 544
1000
0000
0000
0000
,  // measure 545
0000
0000
0000
0000
,  // measure 546
0000
0000
0000
0000
,  // measure 547
0000
0000
0000
0000
,  // measure 548
0000
0000
0000
0000
,  // measure 549
0000
0000
0000
0000
,  // measure 550
0010
1000
0001
0010
1000
0100
0001
0010
,  // measure 551
1000
0100
0001
0010
0100
0100
0100
0100
,  // measure 552
1000
0100
0010
0001
2000
0000
3000
0000
,  // measure 553
1111
0000
0000
0000
0010
0010
0010
0010
,  // measure 554
0001
0000
0000
0000
,  // measure 555
0000
0000
0000
0000
,  // measure 556
0000
0000
0000
0000
,  // measure 557
0000
0000
0000
0000
,  // measure 558
0000
0000
0000
0000
,  // measure 559
0000
0000
0000
0000
0000
0100
0100
0100
,  // measure 560
1000
0100
0010
0001
2000
0000
3000
0000
,  // measure 561
1111
0000
0000
0000
0010
0010
0010
0010
,  // measure 562
0001
0000
0000
0000
,  // measure 563
0000
0000
0000
0000
,  // measure 564
0000
0000
0000
0000
,  // measure 565
0000
0000
0000
0000
,  // measure 566
0000
0000
0000
0000
,  // measure 567
0000
0000
0000
0000
0000
0000
0100
0100
,  // measure 568
1000
0100
0010
0001
2000
0000
3000
0000
,  // measure 569
1111
0000
0000
0000
0010
0010
0010
0010
,  // measure 570
0001
0000
0000
0000
,  // measure 571
0000
0000
0000
0000
,  // measure 572
0000
0000
0000
0000
,  // measure 573
0000
0000
0000
0000
,  // measure 574
0000
0000
0000
0000
,  // measure 575
0000
0000
0000
0000
0000
0000
0000
0100
,  // measure 576
1000
0100
0010
0001
2000
0000
3000
0000
,  // measure 577
1111
0000
0000
0000
0010
0010
0010
0010
,  // measure 578
0001
0000
0000
0000
,  // measure 579
0000
0000
0000
0000
,  // measure 580
0000
0000
0000
0000
,  // measure 581
0000
0000
0000
0000
,  // measure 582
0000
0000
0000
0000
,  // measure 583
0000
0000
0000
0000
,  // measure 584
1000
0100
0010
0001
2000
0000
3000
0000
,  // measure 585
1111
0000
0000
0000
0010
0010
0010
0010
,  // measure 586
0001
0100
0010
1000
0200
0000
0300
0000
,  // measure 587
1111
0000
0000
0000
0100
0100
0100
0100
,  // measure 588
0100
0000
0000
0000
,  // measure 589
0000
0000
0000
0000
,  // measure 590
0000
0000
0000
0000
,  // measure 591
0000
0000
0000
0000
,  // measure 592
0000
0000
0000
0000
,  // measure 593
0000
0000
0000
0000
0000
0010
0010
0010
,  // measure 594
0001
0100
0010
1000
0200
0000
0300
0000
,  // measure 595
1111
0000
0000
0000
0100
0100
0100
0100
,  // measure 596
0100
0000
0000
0000
,  // measure 597
0000
0000
0000
0000
,  // measure 598
0000
0000
0000
0000
,  // measure 599
0000
0000
0000
0000
,  // measure 600
0000
0000
0000
0000
,  // measure 601
0000
0000
0000
0000
0000
0000
0010
0010
,  // measure 602
0001
0100
0010
1000
0200
0000
0300
0000
,  // measure 603
1111
0000
0000
0000
0100
0100
0100
0100
,  // measure 604
0100
0000
0000
0000
,  // measure 605
0000
0000
0000
0000
,  // measure 606
0000
0000
0000
0000
,  // measure 607
0000
0000
0000
0000
,  // measure 608
0000
0000
0000
0000
,  // measure 609
0000
0000
0000
0000
0000
0000
0000
0010
,  // measure 610
0001
0100
0010
1000
0200
0000
0300
0000
,  // measure 611
1111
0000
0000
0000
0100
0100
0100
0100
,  // measure 612
0100
0000
0000
0000
,  // measure 613
0000
0000
0000
0000
,  // measure 614
0000
0000
0000
0000
,  // measure 615
0000
0000
0000
0000
,  // measure 616
0000
0000
0000
0000
,  // measure 617
0000
0000
0000
0000
,  // measure 618
0001
0100
0010
1000
0200
0000
0300
0000
,  // measure 619
1111
0000
0000
0000
0100
0100
0100
0100
,  // measure 620
0100
1000
0010
0001
0200
0000
0300
0000
,  // measure 621
1111
0000
0000
0000
0001
0001
0001
0001
,  // measure 622
0010
0000
0000
0000
,  // measure 623
0000
0000
0000
0000
,  // measure 624
0000
0000
0000
0000
,  // measure 625
0000
0000
0000
0000
,  // measure 626
0000
0000
0000
0000
,  // measure 627
0000
0000
0000
0000
0000
0100
0100
0100
,  // measure 628
0100
1000
0010
0001
0200
0000
0300
0000
,  // measure 629
1111
0000
0000
0000
0001
0001
0001
0001
,  // measure 630
0010
0000
0000
0000
,  // measure 631
0000
0000
0000
0000
,  // measure 632
0000
0000
0000
0000
,  // measure 633
0000
0000
0000
0000
,  // measure 634
0000
0000
0000
0000
,  // measure 635
0000
0000
0000
0000
0000
0000
0100
0100
,  // measure 636
0100
1000
0010
0001
0200
0000
0300
0000
,  // measure 637
1111
0000
0000
0000
0001
0001
0001
0001
,  // measure 638
0010
0000
0000
0000
,  // measure 639
0000
0000
0000
0000
,  // measure 640
0000
0000
0000
0000
,  // measure 641
0000
0000
0000
0000
,  // measure 642
0000
0000
0000
0000
,  // measure 643
0000
0000
0000
0000
0000
0000
0000
0100
,  // measure 644
0100
1000
0010
0001
0200
0000
0300
0000
,  // measure 645
1111
0000
0000
0000
0001
0001
0001
0001
,  // measure 646
0010
0000
0000
0000
,  // measure 647
0000
0000
0000
0000
,  // measure 648
0000
0000
0000
0000
,  // measure 649
0000
0000
0000
0000
,  // measure 650
0000
0000
0000
0000
,  // measure 651
0000
0000
0000
0000
,  // measure 652
0100
1000
0010
0001
0200
0000
0300
0000
,  // measure 653
1111
0000
0000
0000
0001
0001
0001
0001
,  // measure 654
0010
1000
0100
0010
0002
0000
0003
0000
,  // measure 655
1111
0000
0000
0000
1000
1000
1000
1000
,  // measure 656
0100
0000
0000
0000
,  // measure 657
0000
0000
0000
0000
,  // measure 658
0000
0000
0000
0000
,  // measure 659
0000
0000
0000
0000
,  // measure 660
0000
0000
0000
0000
,  // measure 661
0000
0000
0000
0000
0000
0001
0001
0001
,  // measure 662
0010
1000
0100
0010
0002
0000
0003
0000
,  // measure 663
1111
0000
0000
0000
1000
1000
1000
1000
,  // measure 664
0100
0000
0000
0000
,  // measure 665
0000
0000
0000
0000
,  // measure 666
0000
0000
0000
0000
,  // measure 667
0000
0000
0000
0000
,  // measure 668
0000
0000
0000
0000
,  // measure 669
0000
0000
0000
0000
0000
0000
0001
0001
,  // measure 670
0010
1000
0100
0010
0002
0000
0003
0000
,  // measure 671
1111
0000
0000
0000
1000
1000
1000
1000
,  // measure 672
0100
0000
0000
0000
,  // measure 673
0000
0000
0000
0000
,  // measure 674
0000
0000
0000
0000
,  // measure 675
0000
0000
0000
0000
,  // measure 676
0000
0000
0000
0000
,  // measure 677
0000
0000
0000
0000
0000
0000
0000
0001
,  // measure 678
0010
1000
0100
0010
0002
0000
0003
0000
,  // measure 679
1111
0000
0000
0000
1000
1000
1000
1000
,  // measure 680
0100
0000
0000
0000
,  // measure 681
0000
0000
0000
0000
,  // measure 682
0000
0000
0000
0000
,  // measure 683
0000
0000
0000
0000
,  // measure 684
0000
0000
0000
0000
,  // measure 685
0000
0000
0000
0000
,  // measure 686
0010
1000
0100
0010
0002
0000
0003
0000
,  // measure 687
1111
0000
0000
0000
1000
1000
1000
1000
,  // measure 688
0100
0001
1000
0010
0200
0000
0300
0000
,  // measure 689
1111
0000
0000
0000
0110
0010
0010
0010
,  // measure 690
0100
0000
0000
0000
,  // measure 691
0000
0000
0000
0000
,  // measure 692
0000
0000
0000
0000
,  // measure 693
0000
0000
0000
0000
,  // measure 694
0000
0000
0000
0000
,  // measure 695
0000
0000
0000
0000
0000
1000
1000
1000
,  // measure 696
0100
0001
1000
0010
0200
0000
0300
0000
,  // measure 697
1111
0000
0000
0000
0110
0010
0010
0010
,  // measure 698
0100
0000
0000
0000
,  // measure 699
0000
0000
0000
0000
,  // measure 700
0000
0000
0000
0000
,  // measure 701
0000
0000
0000
0000
,  // measure 702
0000
0000
0000
0000
,  // measure 703
0000
0000
0000
0000
0000
0000
1000
1000
,  // measure 704
0100
0001
1000
0010
0200
0000
0300
0000
,  // measure 705
1111
0000
0000
0000
0110
0010
0010
0010
,  // measure 706
0100
0000
0000
0000
,  // measure 707
0000
0000
0000
0000
,  // measure 708
0000
0000
0000
0000
,  // measure 709
0000
0000
0000
0000
,  // measure 710
0000
0000
0000
0000
,  // measure 711
0000
0000
0000
0000
0000
0000
0000
1000
,  // measure 712
0100
0001
1000
0010
0200
0000
0300
0000
,  // measure 713
1111
0000
0000
0000
0110
0010
0010
0010
,  // measure 714
0100
0000
0000
0000
,  // measure 715
0000
0000
0000
0000
,  // measure 716
0000
0000
0000
0000
,  // measure 717
0000
0000
0000
0000
,  // measure 718
0000
0000
0000
0000
,  // measure 719
0000
0000
0000
0000
,  // measure 720
0100
0001
1000
0010
0200
0000
0300
0000
,  // measure 721
1111
0000
0000
0000
0110
0010
0010
0010
,  // measure 722
0100
1000
0001
0100
0020
0000
1030
0000
,  // measure 723
2010
0000
3100
0000
0101
0100
0100
0100
,  // measure 724
0001
0000
0000
0000
,  // measure 725
0000
0000
0000
0000
,  // measure 726
0000
0000
0000
0000
,  // measure 727
0000
0000
0000
0000
,  // measure 728
0000
0000
0000
0000
,  // measure 729
0000
0000
0000
0000
0000
0010
0010
0010
,  // measure 730
0100
1000
0001
0100
0020
0000
1030
0000
,  // measure 731
2010
0000
3100
0000
0101
0100
0100
0100
,  // measure 732
0001
0000
0000
0000
,  // measure 733
0000
0000
0000
0000
,  // measure 734
0000
0000
0000
0000
,  // measure 735
0000
0000
0000
0000
,  // measure 736
0000
0000
0000
0000
,  // measure 737
0000
0000
0000
0000
0000
0000
0010
0010
,  // measure 738
0100
1000
0001
0100
0020
0000
1030
0000
,  // measure 739
2010
0000
3100
0000
0101
0100
0100
0100
,  // measure 740
0001
0000
0000
0000
,  // measure 741
0000
0000
0000
0000
,  // measure 742
0000
0000
0000
0000
,  // measure 743
0000
0000
0000
0000
,  // measure 744
0000
0000
0000
0000
,  // measure 745
0000
0000
0000
0000
0000
0000
0000
0010
,  // measure 746
0100
1000
0001
0100
0020
0000
1030
0000
,  // measure 747
2010
0000
3100
0000
0101
0100
0100
0100
,  // measure 748
0001
0000
0000
0000
,  // measure 749
0000
0000
0000
0000
,  // measure 750
0000
0000
0000
0000
,  // measure 751
0000
0000
0000
0000
,  // measure 752
0000
0000
0000
0000
,  // measure 753
0000
0000
0000
0000
,  // measure 754
0100
1000
0001
0100
0020
0000
1030
0000
,  // measure 755
2010
0000
3100
0000
0101
0100
0100
0100
,  // measure 756
0001
0010
0100
1000
0210
0000
0310
0000
,  // measure 757
1002
0000
0103
0000
1100
0100
0100
0100
,  // measure 758
1000
0000
0000
0000
,  // measure 759
0000
0000
0000
0000
,  // measure 760
0000
0000
0000
0000
,  // measure 761
0000
0000
0000
0000
,  // measure 762
0000
0000
0000
0000
,  // measure 763
0000
0000
0000
0000
0000
0100
0100
0100
,  // measure 764
0001
0010
0100
1000
0210
0000
0310
0000
,  // measure 765
1002
0000
0103
0000
1100
0100
0100
0100
,  // measure 766
1000
0000
0000
0000
,  // measure 767
0000
0000
0000
0000
,  // measure 768
0000
0000
0000
0000
,  // measure 769
0000
0000
0000
0000
,  // measure 770
0000
0000
0000
0000
,  // measure 771
0000
0000
0000
0000
0000
0000
0100
0100
,  // measure 772
0001
0010
0100
1000
0210
0000
0310
0000
,  // measure 773
1002
0000
0103
0000
1100
0100
0100
0100
,  // measure 774
1000
0000
0000
0000
,  // measure 775
0000
0000
0000
0000
,  // measure 776
0000
0000
0000
0000
,  // measure 777
0000
0000
0000
0000
,  // measure 778
0000
0000
0000
0000
,  // measure 779
0000
0000
0000
0000
0000
0000
0000
0100
,  // measure 780
0001
0010
0100
1000
0210
0000
0310
0000
,  // measure 781
1002
0000
0103
0000
1100
0100
0100
0100
,  // measure 782
1000
0000
0000
0000
,  // measure 783
0000
0000
0000
0000
,  // measure 784
0000
0000
0000
0000
,  // measure 785
0000
0000
0000
0000
,  // measure 786
0000
0000
0000
0000
,  // measure 787
0000
0000
0000
0000
,  // measure 788
0001
0010
0100
1000
0210
0000
0310
0000
,  // measure 789
1002
0000
0103
0000
1100
0100
0100
0100
,  // measure 790
1000
0000
0000
0000
,  // measure 791
0000
0000
0000
0000
,  // measure 792
0000
0000
0000
0000
,  // measure 793
0000
0000
0000
0000
,  // measure 794
0000
0000
0000
0000
,  // measure 795
0000
0000
0000
0000
,  // measure 796
0000
0000
0000
0000
,  // measure 797
0000
0000
0000
0000
0000
0100
0100
0100
,  // measure 798
1000
0000
0000
0000
,  // measure 799
0000
0000
0000
0000
,  // measure 800
0000
0000
0000
0000
,  // measure 801
0000
0000
0000
0000
,  // measure 802
0000
0000
0000
0000
,  // measure 803
0000
0000
0000
0000
,  // measure 804
0000
0000
0000
0000
,  // measure 805
0000
0000
0000
0000
0000
0000
0100
0100
,  // measure 806
1000
0000
0000
0000
,  // measure 807
0000
0000
0000
0000
,  // measure 808
0000
0000
0000
0000
,  // measure 809
0000
0000
0000
0000
,  // measure 810
0000
0000
0000
0000
,  // measure 811
0000
0000
0000
0000
,  // measure 812
0000
0000
0000
0000
,  // measure 813
0000
0000
0000
0000
0000
0000
0000
0100
,  // measure 814
1000
0000
0000
0000
,  // measure 815
0000
0000
0000
0000
,  // measure 816
0000
0000
0000
0000
,  // measure 817
0000
0000
0000
0000
,  // measure 818
0000
0000
0000
0000
,  // measure 819
0000
0000
0000
0000
,  // measure 820
0000
0000
0000
0000
,  // measure 821
0000
0000
0000
0000
,  // measure 822
1000
0000
0000
0000
;

//---------------dance-single - ----------------
#NOTES:
     dance-single:
     :
     Challenge:
     10:
     0.646931,7.266027,0.666358,0.217586,3.780564,333.000000,274.000000,49.000000,16.000000,203.000000,5.000000,0.646931,7.266027,0.666358,0.217586,3.780564,333.000000,274.000000,49.000000,16.000000,203.000000,5.000000:
0000
0000
0000
0000
,
0000
0000
0000
0000
,
0000
0000
0000
0000
,
0000
0000
0000
0000
,
0000
0000
0000
0000
,
0000
0000
0000
0000
,
0000
0000
0000
0000
,
0000
0000
0000
0000
,
1010
0101
0022
0033
,
1010
0000
0101
0000
0011
1000
1000
1000
,
0011
1100
0000
0000
,
0000
0000
0000
0000
,
0000
0000
0000
0000
,
0000
0000
0000
0000
,
0000
0000
0000
0000
,
0000
0000
0000
0000
,
1010
0101
0022
0033
,
1010
0000
0101
0000
0011
1000
1000
1000
,
0011
1100
0000
0000
,
0000
0000
0000
0000
,
0000
0000
0000
0000
,
0000
0000
0000
0000
,
0000
0000
0000
0000
,
0000
0000
0000
0000
,
1010
0101
0022
0033
,
1010
0000
0101
0000
0011
1000
1000
1000
,
0011
1100
0000
0000
,
0000
0000
0000
0000
,
0000
0000
0000
0000
,
0000
0000
0000
0000
,
0000
0000
0000
0000
,
0000
0000
0000
0000
,
1010
0101
0022
0033
,
1010
0000
0101
0000
0011
1000
1000
1000
,
0011
1100
0000
0000
,
0000
0000
0000
0000
,
0000
0000
0000
0000
,
0000
0000
0000
0000
,
0000
0000
0000
0000
,
0000
0000
0000
0000
,
1010
0101
0022
0033
,
1010
0000
0101
0000
0011
1000
1000
1000
,
0011
1100
2020
3030
,
0011
0000
1100
0000
1010
0001
0001
0001
,
1100
0000
0000
0000
,
0000
0000
0000
0000
,
0000
0000
0000
0000
,
0000
0000
0000
0000
,
0000
0000
0000
0000
,
0000
0000
0000
0000
0000
1000
1000
1000
,
0011
1100
2020
3030
,
0011
0000
1100
0000
1010
0001
0001
0001
,
1100
0000
0000
0000
,
0000
0000
0000
0000
,
0000
0000
0000
0000
,
0000
0000
0000
0000
,
0000
0000
0000
0000
,
0000
0000
0000
0000
0000
0000
1000
1000
,
0011
1100
2020
3030
,
0011
0000
1100
0000
1010
0001
0001
0001
,
1100
0000
0000
0000
,
0000
0000
0000
0000
,
0000
0000
0000
0000
,
0000
0000
0000
0000
,
0000
0000
0000
0000
,
0000
0000
0000
0000
0000
0000
0000
1000
,
0011
1100
2020
3030
,
0011
0000
1100
0000
1010
0001
0001
0001
,
1100
0000
0000
0000
,
0000
0000
0000
0000
,
0000
0000
0000
0000
,
0000
0000
0000
0000
,
0000
0000
0000
0000
,
0000
0000
0000
0000
,
0011
1100
2020
3030
,
0011
0000
1100
0000
1010
0001
0001
0001
,
1100
0110
2002
3003
,
1100
0000
0110
0000
1001
0100
0100
0100
,
1100
0000
0000
0000
,
0000
0000
0000
0000
,
0000
0000
0000
0000
,
0000
0000
0000
0000
,
0000
0000
0000
0000
,
0000
0000
0000
0000
0000
0001
0001
0001
,
1100
0110
2002
3003
,
1100
0000
0110
0000
1001
0100
0100
0100
,
1100
0000
0000
0000
,
0000
0000
0000
0000
,
0000
0000
0000
0000
,
0000
0000
0000
0000
,
0000
0000
0000
0000
,
0000
0000
0000
0000
0000
0000
0001
0001
,
1100
0110
2002
3003
,
1100
0000
0110
0000
1001
0100
0100
0100
,
1100
0000
0000
0000
,
0000
0000
0000
0000
,
0000
0000
0000
0000
,
0000
0000
0000
0000
,
0000
0000
0000
0000
,
0000
0000
0000
0000
0000
0000
0000
0001
,
1100
0110
2002
3003
,
1100
0000
0110
0000
1001
0100
0100
0100
,
1100
0000
0000
0000
,
0000
0000
0000
0000
,
0000
0000
0000
0000
,
0000
0000
0000
0000
,
0000
0000
0000
0000
,
0000
0000
0000
0000
,
1100
0110
2002
3003
,
1100
0000
0110
0000
1001
0100
0100
0100
,
1100
0000
0101
0000
0100
1000
0001
0010
,
1000
0001
0100
1000
0100
0100
0100
0100
,
0010
0000
0000
0000
,
0000
0000
0000
0000
,
0000
0000
0000
0000
,
0000
0000
0000
0000
,
0000
0000
0000
0000
,
0000
0000
0000
0000
0000
0100
0100
0100
,
1100
0000
0101
0000
0100
1000
0001
0010
,
1000
0001
0100
1000
0100
0100
0100
0100
,
0010
0000
0000
0000
,
0000
0000
0000
0000
,
0000
0000
0000
0000
,
0000
0000
0000
0000
,
0000
0000
0000
0000
,
0000
0000
0000
0000
0000
0000
0100
0100
,
1100
0000
0101
0000
0100
1000
0001
0010
,
1000
0001
0100
1000
0100
0100
0100
0100
,
0010
0000
0000
0000
,
0000
0000
0000
0000
,
0000
0000
0000
0000
,
0000
0000
0000
0000
,
0000
0000
0000
0000
,
0000
0000
0000
0000
0000
0000
0000
0100
,
1100
0000
0101
0000
0100
1000
0001
0010
,
1000
0001
0100
1000
0100
0100
0100
0100
,
0010
0000
0000
0000
,
0000
0000
0000
0000
,
0000
0000
0000
0000
,
0000
0000
0000
0000
,
0000
0000
0000
0000
,
0000
0000
0000
0000
,
1100
0000
0101
0000
0100
1000
0001
0010
,
1000
0001
0100
1000
0100
0100
0100
0100
,
0010
1000
0100
0000
1001
0100
0010
0000
,
0001
0100
1000
0000
0110
0100
0100
0100
,
0001
0000
0000
0000
,
0000
0000
0000
0000
,
0000
0MM0
0MM0
MMMM
MMMM
MMMM
MMMM
0MM0
0MM0
0000
0000
0000
,
0000
0000
0000
0000
,
0000
0000
0000
0000
,
0000
0000
0000
0000
0000
0100
0100
0100
,
0010
1000
0100
0000
1001
0100
0010
0000
,
0001
0100
1000
0000
0110
0100
0100
0100
,
0001
0000
0000
0000
,
0000
0000
0000
0000
,
0000
0MM0
0MM0
MMMM
MMMM
MMMM
MMMM
0MM0
0MM0
0000
0000
0000
,
0000
0000
0000
0000
,
0000
0000
0000
0000
,
0000
0000
0000
0000
0000
0000
0100
0100
,
0010
1000
0100
0000
1001
0100
0010
0000
,
0001
0100
1000
0000
0110
0100
0100
0100
,
0001
0000
0000
0000
,
0000
0000
0000
0000
,
0000
0MM0
0MM0
MMMM
MMMM
MMMM
MMMM
0MM0
0MM0
0000
0000
0000
,
0000
0000
0000
0000
,
0000
0000
0000
0000
,
0000
0000
0000
0000
0000
0000
0000
0100
,
0010
1000
0100
0000
1001
0100
0010
0000
,
0001
0100
1000
0000
0110
0100
0100
0100
,
0001
0000
0000
0000
,
0000
0000
0000
0000
,
0000
0MM0
0MM0
MMMM
MMMM
MMMM
MMMM
0MM0
0MM0
0000
0000
0000
,
0000
0000
0000
0000
,
0000
0000
0000
0000
,
0000
0000
0000
0000
,
0010
1000
0100
0000
1001
0100
0010
0000
,
0001
0100
1000
0000
0110
0100
0100
0100
,
0001
1000
0010
0000
0011
1000
0100
0000
,
1100
0001
0010
0000
0100
0100
0100
0100
,
1001
0000
0000
0000
,
0000
0000
0000
0000
0000
0000
0000
0000
0000
M0MM
0000
0000
0000
0000
0000
0000
,
0000
0MM0
0MM0
MMMM
MMMM
MMMM
MMMM
0MM0
0MM0
0000
0000
0000
,
0000
0000
0000
0000
,
0000
0000
0000
0000
,
0000
0000
0000
0000
0000
0100
0100
0100
,
0001
1000
0010
0000
0011
1000
0100
0000
,
1100
0001
0010
0000
0100
0100
0100
0100
,
1001
0000
0000
0000
,
0000
0000
0000
0000
0000
0000
0000
0000
0000
0000
0000
M0MM
0000
0000
0000
0000
,
0000
0MM0
0MM0
MMMM
MMMM
MMMM
MMMM
0MM0
0MM0
0000
0000
0000
,
0000
0000
0000
0000
,
0000
0000
0000
0000
,
0000
0000
0000
0000
0000
0000
0100
0100
,
0001
1000
0010
0000
0011
1000
0100
0000
,
1100
0001
0010
0000
0100
0100
0100
0100
,
1001
0000
0000
0000
,
0000
0000
0000
0000
0000
0000
0000
0000
0000
0000
0000
0000
0000
M0MM
0000
0000
,
0000
0MM0
0MM0
MMMM
MMMM
MMMM
MMMM
0MM0
0MM0
0000
0000
0000
,
0000
0000
0000
0000
,
0000
0000
0000
0000
,
0000
0000
0000
0000
0000
0000
0000
0100
,
0001
1000
0010
0000
0011
1000
0100
0000
,
1100
0001
0010
0000
0100
0100
0100
0100
,
1001
0000
0000
0000
,
0000
0000
0000
0000
0000
0000
0000
0000
0000
0000
0000
0000
0000
0000
0000
M0M0
,
0000
0MM0
0MM0
MMMM
MMMM
MMMM
MMMM
0MM0
0MM0
0000
0000
0000
,
0000
0000
0000
0000
,
0000
0000
0000
0000
,
0000
0000
0000
0000
,
0001
1000
0010
0000
0011
1000
0100
0000
,
1100
0001
0010
0000
0100
0100
0100
0100
,
1001
0100
0010
0000
0001
1000
0010
0000
,
1001
0100
1000
0000
0001
0001
0001
0001
,
1001
0000
0000
0000
,
0000
0000
0000
0000
0000
0000
0000
0000
0000
M0MM
0000
0000
0000
0000
0000
0000
,
0000
0MM0
0MM0
MMMM
MMMM
MMMM
MMMM
0MM0
0MM0
0000
0000
0000
,
0000
0000
0000
0000
,
0000
0000
0000
0000
,
0000
0000
0000
0000
0000
0100
0100
0100
,
1001
0100
0010
0000
0001
1000
0010
0000
,
1001
0100
1000
0000
0001
0001
0001
0001
,
1001
0000
0000
0000
,
0000
0000
0000
0000
0000
0000
0000
0000
0000
0000
0000
M0MM
0000
0000
0000
0000
,
0000
0MM0
0MM0
MMMM
MMMM
MMMM
MMMM
0MM0
0MM0
0000
0000
0000
,
0000
0000
0000
0000
,
0000
0000
0000
0000
,
0000
0000
0000
0000
0000
0000
0100
0100
,
1001
0100
0010
0000
0001
1000
0010
0000
,
1001
0100
1000
0000
0001
0001
0001
0001
,
1001
0000
0000
0000
,
0000
0000
0000
0000
0000
0000
0000
0000
0000
0000
0000
0000
0000
M0MM
0000
0000
,
0000
0MM0
0MM0
MMMM
MMMM
MMMM
MMMM
0MM0
0MM0
0000
0000
0000
,
0000
0000
0000
0000
,
0000
0000
0000
0000
,
0000
0000
0000
0000
0000
0000
0000
0100
,
1001
0100
0010
0000
0001
1000
0010
0000
,
1001
0100
1000
0000
0001
0001
0001
0001
,
1001
0000
0000
0000
,
0000
0000
0000
0000
0000
0000
0000
0000
0000
0000
0000
0000
0000
0000
0000
00M0
,
0000
0MM0
0MM0
MMMM
MMMM
MMMM
MMMM
0MM0
0MM0
0000
0000
0000
,
0000
0000
0000
0000
,
0000
0000
0000
0000
,
0000
0000
0000
0000
,
1001
0100
0010
0000
0001
1000
0010
0000
,
1001
0100
1000
0000
0001
0001
0001
0001
,
1001
1000
0010
0000
0001
1000
0100
0000
,
0110
0001
0100
0000
0010
0010
0010
0010
,
1000
0000
0000
0000
,
0000
0000
0000
0000
0000
0000
0000
0000
0000
MMM0
0000
0000
0000
0000
0000
0000
,
0000
0MM0
0MM0
MMMM
MMMM
MMMM
MMMM
0MM0
0MM0
0000
0000
0000
,
0000
0000
0000
0000
,
0000
0000
0000
0000
,
0000
0000
0000
0000
0000
0001
0001
0001
,
1001
1000
0010
0000
0001
1000
0100
0000
,
0110
0001
0100
0000
0010
0010
0010
0010
,
1000
0000
0000
0000
,
0000
0000
0000
0000
0000
0000
0000
0000
0000
0000
0000
MMM0
0000
0000
0000
0000
,
0000
0MM0
0MM0
MMMM
MMMM
MMMM
MMMM
0MM0
0MM0
0000
0000
0000
,
0000
0000
0000
0000
,
0000
0000
0000
0000
,
0000
0000
0000
0000
0000
0000
0001
0001
,
1001
1000
0010
0000
0001
1000
0100
0000
,
0110
0001
0100
0000
0010
0010
0010
0010
,
1000
0000
0000
0000
,
0000
0000
0000
0000
0000
0000
0000
0000
0000
0000
0000
0000
0000
MMM0
0000
0000
,
0000
0MM0
0MM0
MMMM
MMMM
MMMM
MMMM
0MM0
0MM0
0000
0000
0000
,
0000
0000
0000
0000
,
0000
0000
0000
0000
,
0000
0000
0000
0000
0000
0000
0000
0001
,
1001
1000
0010
0000
0001
1000
0100
0000
,
0110
0001
0100
0000
0010
0010
0010
0010
,
1000
0000
0000
0000
,
0000
0000
0000
0000
0000
0000
0000
0000
0000
0000
0000
0000
0000
0000
0000
0MM0
,
0000
0MM0
0MM0
MMMM
MMMM
MMMM
MMMM
0MM0
0MM0
0000
0000
0000
,
0000
0000
0000
0000
,
0000
0000
0000
0000
,
0000
0000
0000
0000
,
1001
1000
0010
0000
0001
1000
0100
0000
,
0110
0001
0100
0000
0010
0010
0010
0010
,
1000
0001
0010
0000
0001
1000
0100
0000
,
1100
0001
0010
0000
0100
0100
0100
0100
,
1000
0000
0000
0000
,
0000
0000
0000
0000
0000
0000
0000
0000
0000
MM0M
0000
0000
0000
0000
0000
0000
,
0000
0MM0
0MM0
MMMM
MMMM
MMMM
MMMM
0MM0
0MM0
0000
0000
0000
,
0000
0000
0000
0000
,
0000
0000
0000
0000
,
0000
0000
0000
0000
0000
0010
0010
0010
,
1000
0001
0010
0000
0001
1000
0100
0000
,
1100
0001
0010
0000
0100
0100
0100
0100
,
1000
0000
0000
0000
,
0000
0000
0000
0000
0000
0000
0000
0000
0000
0000
0000
MM0M
0000
0000
0000
0000
,
0000
0MM0
0MM0
MMMM
MMMM
MMMM
MMMM
0MM0
0MM0
0000
0000
0000
,
0000
0000
0000
0000
,
0000
0000
0000
0000
,
0000
0000
0000
0000
0000
0000
0010
0010
,
1000
0001
0010
0000
0001
1000
0100
0000
,
1100
0001
0010
0000
0100
0100
0100
0100
,
1000
0000
0000
0000
,
0000
0000
0000
0000
0000
0000
0000
0000
0000
0000
0000
0000
0000
MM0M
0000
0000
,
0000
0MM0
0MM0
MMMM
MMMM
MMMM
MMMM
0MM0
0MM0
0000
0000
0000
,
0000
0000
0000
0000
,
0000
0000
0000
0000
,
0000
0000
0000
0000
0000
0000
0000
0010
,
1000
0001
0010
0000
0001
1000
0100
0000
,
1100
0001
0010
0000
0100
0100
0100
0100
,
1000
0000
0000
0000
,
0000
0000
0000
0000
0000
0000
0000
0000
0000
0000
0000
0000
0000
0000
0000
0M0M
,
0000
0MM0
0MM0
MMMM
MMMM
MMMM
MMMM
0MM0
0MM0
0000
0000
0000
,
0000
0000
0000
0000
,
0000
0000
0000
0000
,
0000
0000
0000
0000
,
1000
0001
0010
0000
0001
1000
0100
0000
,
1100
0001
0010
0000
0100
0100
0100
0100
,
1000
0010
0001
0000
0010
1000
0010
0000
,
0110
0001
0100
0000
1000
1000
1000
1000
,
0100
0000
0000
0000
,
0000
0000
0000
0000
0000
0000
0000
0000
0000
M0MM
0000
0000
0000
0000
0000
0000
,
0000
0MM0
0MM0
MMMM
MMMM
MMMM
MMMM
0MM0
0MM0
0000
0000
0000
,
0000
0000
0000
0000
,
0000
0000
0000
0000
,
0000
0000
0000
0000
0000
0100
0100
0100
,
1000
0010
0001
0000
0010
1000
0010
0000
,
0110
0001
0100
0000
1000
1000
1000
1000
,
0100
0000
0000
0000
,
0000
0000
0000
0000
0000
0000
0000
0000
0000
0000
0000
M0MM
0000
0000
0000
0000
,
0000
0MM0
0MM0
MMMM
MMMM
MMMM
MMMM
0MM0
0MM0
0000
0000
0000
,
0000
0000
0000
0000
,
0000
0000
0000
0000
,
0000
0000
0000
0000
0000
0000
0100
0100
,
1000
0010
0001
0000
0010
1000
0010
0000
,
0110
0001
0100
0000
1000
1000
1000
1000
,
0100
0000
0000
0000
,
0000
0000
0000
0000
0000
0000
0000
0000
0000
0000
0000
0000
0000
M0MM
0000
0000
,
0000
0MM0
0MM0
MMMM
MMMM
MMMM
MMMM
0MM0
0MM0
0000
0000
0000
,
0000
0000
0000
0000
,
0000
0000
0000
0000
,
0000
0000
0000
0000
0000
0000
0000
0100
,
1000
0010
0001
0000
0010
1000
0010
0000
,
0110
0001
0100
0000
1000
1000
1000
1000
,
0100
0000
0000
0000
,
0000
0000
0000
0000
0000
0000
0000
0000
0000
0000
0000
0000
0000
0000
0000
00MM
,
0000
0MM0
0MM0
MMMM
MMMM
MMMM
MMMM
0MM0
0MM0
0000
0000
0000
,
0000
0000
0000
0000
,
0000
0000
0000
0000
,
0000
0000
0000
0000
,
1000
0010
0001
0000
0010
1000
0010
0000
,
0110
0001
0100
0000
1000
1000
1000
1000
,
0100
0001
0010
0000
0110
1000
0100
0000
,
1001
0100
0010
0000
0100
0100
0100
0100
,
0001
0000
0000
0000
,
0000
0000
0000
0000
0000
0000
0000
0000
0000
0MMM
0000
0000
0000
0000
0000
0000
,
0000
0MM0
0MM0
MMMM
MMMM
MMMM
MMMM
0MM0
0MM0
0000
0000
0000
,
0000
0000
0000
0000
,
0000
0000
0000
0000
,
0000
0000
0000
0000
0000
1000
1000
1000
,
0100
0001
0010
0000
0110
1000
0100
0000
,
1001
0100
0010
0000
0100
0100
0100
0100
,
0001
0000
0000
0000
,
0000
0000
0000
0000
0000
0000
0000
0000
0000
0000
0000
0MMM
0000
0000
0000
0000
,
0000
0MM0
0MM0
MMMM
MMMM
MMMM
MMMM
0MM0
0MM0
0000
0000
0000
,
0000
0000
0000
0000
,
0000
0000
0000
0000
,
0000
0000
0000
0000
0000
0000
1000
1000
,
0100
0001
0010
0000
0110
1000
0100
0000
,
1001
0100
0010
0000
0100
0100
0100
0100
,
0001
0000
0000
0000
,
0000
0000
0000
0000
0000
0000
0000
0000
0000
0000
0000
0000
0000
0MMM
0000
0000
,
0000
0MM0
0MM0
MMMM
MMMM
MMMM
MMMM
0MM0
0MM0
0000
0000
0000
,
0000
0000
0000
0000
,
0000
0000
0000
0000
,
0000
0000
0000
0000
0000
0000
0000
1000
,
0100
0001
0010
0000
0110
1000
0100
0000
,
1001
0100
0010
0000
0100
0100
0100
0100
,
0001
0000
0000
0000
,
0000
0000
0000
0000
0000
0000
0000
0000
0000
0000
0000
0000
0000
0000
0000
00MM
,
0000
0MM0
0MM0
MMMM
MMMM
MMMM
MMMM
0MM0
0MM0
0000
0000
0000
,
0000
0000
0000
0000
,
0000
0000
0000
0000
,
0000
0000
0000
0000
,
0100
0001
0010
0000
0110
1000
0100
0000
,
1001
0100
0010
0000
0100
0100
0100
0100
,
0001
0010
1000
0000
0010
0001
0100
0000
,
1100
0010
0100
0000
0001
0001
0001
0001
,
1000
0000
0000
0000
,
0000
0000
0000
0000
0000
0000
0000
0000
0000
M0MM
0000
0000
0000
0000
0000
0000
,
0000
0MM0
0MM0
MMMM
MMMM
MMMM
MMMM
0MM0
0MM0
0000
0000
0000
,
0000
0000
0000
0000
,
0000
0000
0000
0000
,
0000
0000
0000
0000
0000
0100
0100
0100
,
0001
0010
1000
0000
0010
0001
0100
0000
,
1100
0010
0100
0000
0001
0001
0001
0001
,
1000
0000
0000
0000
,
0000
0000
0000
0000
0000
0000
0000
0000
0000
0000
0000
M0MM
0000
0000
0000
0000
,
0000
0MM0
0MM0
MMMM
MMMM
MMMM
MMMM
0MM0
0MM0
0000
0000
0000
,
0000
0000
0000
0000
,
0000
0000
0000
0000
,
0000
0000
0000
0000
0000
0000
0100
0100
,
0001
0010
1000
0000
0010
0001
0100
0000
,
1100
0010
0100
0000
0001
0001
0001
0001
,
1000
0000
0000
0000
,
0000
0000
0000
0000
0000
0000
0000
0000
0000
0000
0000
0000
0000
M0MM
0000
0000
,
0000
0MM0
0MM0
MMMM
MMMM
MMMM
MMMM
0MM0
0MM0
0000
0000
0000
,
0000
0000
0000
0000
,
0000
0000
0000
0000
,
0000
0000
0000
0000
0000
0000
0000
0100
,
0001
0010
1000
0000
0010
0001
0100
0000
,
1100
0010
0100
0000
0001
0001
0001
0001
,
1000
0000
0000
0000
,
0000
0000
0000
0000
0000
0000
0000
0000
0000
0000
0000
0000
0000
0000
0000
M0M0
,
0000
0MM0
0MM0
MMMM
MMMM
MMMM
MMMM
0MM0
0MM0
0000
0000
0000
,
0000
0000
0000
0000
,
0000
0000
0000
0000
,
0000
0000
0000
0000
,
0001
0010
1000
0000
0010
0001
0100
0000
,
1100
0010
0100
0000
0001
0001
0001
0001
,
1000
0100
0010
0000
0001
1000
0010
0000
,
0110
1000
0001
0000
0100
0100
0100
0100
,
0010
0000
0000
0000
,
0000
0000
0000
0000
0000
0000
0000
0000
0000
MMM0
0000
0000
0000
0000
0000
0000
,
0000
0MM0
0MM0
MMMM
MMMM
MMMM
MMMM
0MM0
0MM0
0000
0000
0000
,
0000
0000
0000
0000
,
0000
0000
0000
0000
,
0000
0000
0000
0000
0000
0001
0001
0001
,
1000
0100
0010
0000
0001
1000
0010
0000
,
0110
1000
0001
0000
0100
0100
0100
0100
,
0010
0000
0000
0000
,
0000
0000
0000
0000
0000
0000
0000
0000
0000
0000
0000
MMM0
0000
0000
0000
0000
,
0000
0MM0
0MM0
MMMM
MMMM
MMMM
MMMM
0MM0
0MM0
0000
0000
0000
,
0000
0000
0000
0000
,
0000
0000
0000
0000
,
0000
0000
0000
0000
0000
0000
0001
0001
,
1000
0100
0010
0000
0001
1000
0010
0000
,
0110
1000
0001
0000
0100
0100
0100
0100
,
0010
0000
0000
0000
,
0000
0000
0000
0000
0000
0000
0000
0000
0000
0000
0000
0000
0000
MMM0
0000
0000
,
0000
0MM0
0MM0
MMMM
MMMM
MMMM
MMMM
0MM0
0MM0
0000
0000
0000
,
0000
0000
0000
0000
,
0000
0000
0000
0000
,
0000
0000
0000
0000
0000
0000
0000
0001
,
1000
0100
0010
0000
0001
1000
0010
0000
,
0110
1000
0001
0000
0100
0100
0100
0100
,
0010
0000
0000
0000
,
0000
0000
0000
0000
0000
0000
0000
0000
0000
0000
0000
0000
0000
0000
0000
0MM0
,
0000
0MM0
0MM0
MMMM
MMMM
MMMM
MMMM
0MM0
0MM0
0000
0000
0000
,
0000
0000
0000
0000
,
0000
0000
0000
0000
,
0000
0000
0000
0000
,
1000
0100
0010
0000
0001
1000
0010
0000
,
0110
1000
0001
0000
0100
0100
0100
0100
,
0010
1000
0001
0000
0012
0000
0103
0000
,
1001
0100
0010
0000
1000
1000
1000
1000
,
0100
0000
0000
0000
,
0000
0000
0000
0000
0000
0000
0000
0000
0000
M0MM
0000
0000
0000
0000
0000
0000
,
0000
0MM0
0MM0
MMMM
MMMM
MMMM
MMMM
0MM0
0MM0
0000
0000
0000
,
0000
0000
0000
0000
,
0000
0000
0000
0000
,
0000
0000
0000
0000
0000
0100
0100
0100
,
0010
1000
0001
0000
0012
0000
0103
0000
,
1001
0100
0010
0000
1000
1000
1000
1000
,
0100
0000
0000
0000
,
0000
0000
0000
0000
0000
0000
0000
0000
0000
0000
0000
M0MM
0000
0000
0000
0000
,
0000
0MM0
0MM0
MMMM
MMMM
MMMM
MMMM
0MM0
0MM0
0000
0000
0000
,
0000
0000
0000
0000
,
0000
0000
0000
0000
,
0000
0000
0000
0000
0000
0000
0100
0100
,
0010
1000
0001
0000
0012
0000
0103
0000
,
1001
0100
0010
0000
1000
1000
1000
1000
,
0100
0000
0000
0000
,
0000
0000
0000
0000
0000
0000
0000
0000
0000
0000
0000
0000
0000
M0MM
0000
0000
,
0000
0MM0
0MM0
MMMM
MMMM
MMMM
MMMM
0MM0
0MM0
0000
0000
0000
,
0000
0000
0000
0000
,
0000
0000
0000
0000
,
0000
0000
0000
0000
0000
0000
0000
0100
,
0010
1000
0001
0000
0012
0000
0103
0000
,
1001
0100
0010
0000
1000
1000
1000
1000
,
0100
0000
0000
0000
,
0000
0000
0000
0000
0000
0000
0000
0000
0000
0000
0000
0000
0000
0000
0000
M00M
,
0000
0MM0
0MM0
MMMM
MMMM
MMMM
MMMM
0MM0
0MM0
0000
0000
0000
,
0000
0000
0000
0000
,
0000
0000
0000
0000
,
0000
0000
0000
0000
,
0010
1000
0001
0000
0012
0000
0103
0000
,
1001
0100
0010
0000
1000
1000
1000
1000
,
0100
0001
0010
0000
0110
0001
1000
0000
,
1001
0100
0010
0000
0100
0100
0100
0100
,
0010
0000
0000
0000
,
0000
0000
0000
0000
0000
0000
0000
0000
0000
0MMM
0000
0000
0000
0000
0000
0000
,
0000
0MM0
0MM0
MMMM
MMMM
MMMM
MMMM
0MM0
0MM0
0000
0000
0000
,
0000
0000
0000
0000
,
0000
0000
0000
0000
,
0000
0000
0000
0000
0000
1000
1000
1000
,
0100
0001
0010
0000
0110
0001
1000
0000
,
1001
0100
0010
0000
0100
0100
0100
0100
,
0010
0000
0000
0000
,
0000
0000
0000
0000
0000
0000
0000
0000
0000
0000
0000
0MMM
0000
0000
0000
0000
,
0000
0MM0
0MM0
MMMM
MMMM
MMMM
MMMM
0MM0
0MM0
0000
0000
0000
,
0000
0000
0000
0000
,
0000
0000
0000
0000
,
0000
0000
0000
0000
0000
0000
1000
1000
,
0100
0001
0010
0000
0110
0001
1000
0000
,
1001
0100
0010
0000
0100
0100
0100
0100
,
0010
0000
0000
0000
,
0000
0000
0000
0000
0000
0000
0000
0000
0000
0000
0000
0000
0000
0MMM
0000
0000
,
0000
0MM0
0MM0
MMMM
MMMM
MMMM
MMMM
0MM0
0MM0
0000
0000
0000
,
0000
0000
0000
0000
,
0000
0000
0000
0000
,
0000
0000
0000
0000
0000
0000
0000
1000
,
0100
0001
0010
0000
0110
0001
1000
0000
,
1001
0100
0010
0000
0100
0100
0100
0100
,
0010
0000
0000
0000
,
0000
0000
0000
0000
0000
0000
0000
0000
0000
0000
0000
0000
0000
0000
0000
00MM
,
0000
0MM0
0MM0
MMMM
MMMM
MMMM
MMMM
0MM0
0MM0
0000
0000
0000
,
0000
0000
0000
0000
,
0000
0000
0000
0000
,
0000
0000
0000
0000
,
0100
0001
0010
0000
0110
0001
1000
0000
,
1001
0100
0010
0000
0100
0100
0100
0100
,
0010
1000
0001
0010
1000
0100
0001
0020
,
1030
0100
0001
0010
0100
0100
0100
0100
,
1000
0000
0000
0000
,
0000
0000
0000
0000
0000
0000
0000
0000
0000
M0MM
0000
0000
0000
0000
0000
0000
,
0000
0MM0
0MM0
MMMM
MMMM
MMMM
MMMM
0MM0
0MM0
0000
0000
0000
,
0000
0000
0000
0000
,
0000
0000
0000
0000
,
0000
0000
0000
0000
0000
0100
0100
0100
,
0010
1000
0001
0010
1000
0100
0001
0020
,
1030
0100
0001
0010
0100
0100
0100
0100
,
1000
0000
0000
0000
,
0000
0000
0000
0000
0000
0000
0000
0000
0000
0000
0000
M0MM
0000
0000
0000
0000
,
0000
0MM0
0MM0
MMMM
MMMM
MMMM
MMMM
0MM0
0MM0
0000
0000
0000
,
0000
0000
0000
0000
,
0000
0000
0000
0000
,
0000
0000
0000
0000
0000
0000
0100
0100
,
0010
1000
0001
0010
1000
0100
0001
0020
,
1030
0100
0001
0010
0100
0100
0100
0100
,
1000
0000
0000
0000
,
0000
0000
0000
0000
0000
0000
0000
0000
0000
0000
0000
0000
0000
M0MM
0000
0000
,
0000
0MM0
0MM0
MMMM
MMMM
MMMM
MMMM
0MM0
0MM0
0000
0000
0000
,
0000
0000
0000
0000
,
0000
0000
0000
0000
,
0000
0000
0000
0000
0000
0000
0000
0100
,
0010
1000
0001
0010
1000
0100
0001
0020
,
1030
0100
0001
0010
0100
0100
0100
0100
,
1000
0000
0000
0000
,
0000
0000
0000
0000
0000
0000
0000
0000
0000
0000
0000
0000
0000
0000
0000
M00M
,
0000
0MM0
0MM0
MMMM
MMMM
MMMM
MMMM
0MM0
0MM0
0000
0000
0000
,
0000
0000
0000
0000
,
0000
0000
0000
0000
,
0000
0000
0000
0000
,
0010
1000
0001
0010
1000
0100
0001
0010
,
1000
0100
0001
0010
0100
0100
0100
0100
,
1000
0100
0010
0001
2000
0000
3000
0000
,
1111
0000
0000
0000
0010
0010
0010
0010
,
0001
0000
0000
0000
,
0000
0000
0000
0000
0000
0000
0000
0000
0000
M0MM
0000
0000
0000
0000
0000
0000
,
0000
0MM0
0MM0
MMMM
MMMM
MMMM
MMMM
0MM0
0MM0
0000
0000
0000
,
0000
0000
0000
0000
,
0000
0000
0000
0000
,
0000
0000
0000
0000
0000
0100
0100
0100
,
1000
0100
0010
0001
2000
0000
3000
0000
,
1111
0000
0000
0000
0010
0010
0010
0010
,
0001
0000
0000
0000
,
0000
0000
0000
0000
0000
0000
0000
0000
0000
0000
0000
M0MM
0000
0000
0000
0000
,
0000
0MM0
0MM0
MMMM
MMMM
MMMM
MMMM
0MM0
0MM0
0000
0000
0000
,
0000
0000
0000
0000
,
0000
0000
0000
0000
,
0000
0000
0000
0000
0000
0000
0100
0100
,
1000
0100
0010
0001
2000
0000
3000
0000
,
1111
0000
0000
0000
0010
0010
0010
0010
,
0001
0000
0000
0000
,
0000
0000
0000
0000
0000
0000
0000
0000
0000
0000
0000
0000
0000
M0MM
0000
0000
,
0000
0MM0
0MM0
MMMM
MMMM
MMMM
MMMM
0MM0
0MM0
0000
0000
0000
,
0000
0000
0000
0000
,
0000
0000
0000
0000
,
0000
0000
0000
0000
0000
0000
0000
0100
,
1000
0100
0010
0001
2000
0000
3000
0000
,
1111
0000
0000
0000
0010
0010
0010
0010
,
0001
0000
0000
0000
,
0000
0000
0000
0000
0000
0000
0000
0000
0000
0000
0000
0000
0000
0000
0000
00MM
,
0000
0MM0
0MM0
MMMM
MMMM
MMMM
MMMM
0MM0
0MM0
0000
0000
0000
,
0000
0000
0000
0000
,
0000
0000
0000
0000
,
0000
0000
0000
0000
,
1000
0100
0010
0001
2000
0000
3000
0000
,
1111
0000
0000
0000
0010
0010
0010
0010
,
0001
0100
0010
1000
0200
0000
0300
0000
,
1111
0000
0000
0000
0100
0100
0100
0100
,
0100
0000
0000
0000
,
0000
0000
0000
0000
0000
0000
0000
0000
0000
MM0M
0000
0000
0000
0000
0000
0000
,
0000
0MM0
0MM0
MMMM
MMMM
MMMM
MMMM
0MM0
0MM0
0000
0000
0000
,
0000
0000
0000
0000
,
0000
0000
0000
0000
,
0000
0000
0000
0000
0000
0010
0010
0010
,
0001
0100
0010
1000
0200
0000
0300
0000
,
1111
0000
0000
0000
0100
0100
0100
0100
,
0100
0000
0000
0000
,
0000
0000
0000
0000
0000
0000
0000
0000
0000
0000
0000
MM0M
0000
0000
0000
0000
,
0000
0MM0
0MM0
MMMM
MMMM
MMMM
MMMM
0MM0
0MM0
0000
0000
0000
,
0000
0000
0000
0000
,
0000
0000
0000
0000
,
0000
0000
0000
0000
0000
0000
0010
0010
,
0001
0100
0010
1000
0200
0000
0300
0000
,
1111
0000
0000
0000
0100
0100
0100
0100
,
0100
0000
0000
0000
,
0000
0000
0000
0000
0000
0000
0000
0000
0000
0000
0000
0000
0000
MM0M
0000
0000
,
0000
0MM0
0MM0
MMMM
MMMM
MMMM
MMMM
0MM0
0MM0
0000
0000
0000
,
0000
0000
0000
0000
,
0000
0000
0000
0000
,
0000
0000
0000
0000
0000
0000
0000
0010
,
0001
0100
0010
1000
0200
0000
0300
0000
,
1111
0000
0000
0000
0100
0100
0100
0100
,
0100
0000
0000
0000
,
0000
0000
0000
0000
0000
0000
0000
0000
0000
0000
0000
0000
0000
0000
0000
MM00
,
0000
0MM0
0MM0
MMMM
MMMM
MMMM
MMMM
0MM0
0MM0
0000
0000
0000
,
0000
0000
0000
0000
,
0000
0000
0000
0000
,
0000
0000
0000
0000
,
0001
0100
0010
1000
0200
0000
0300
0000
,
1111
0000
0000
0000
0100
0100
0100
0100
,
0100
1000
0010
0001
0200
0000
0300
0000
,
1111
0000
0000
0000
0001
0001
0001
0001
,
0010
0000
0000
0000
,
0000
0000
0000
0000
0000
0000
0000
0000
0000
M0MM
0000
0000
0000
0000
0000
0000
,
0000
0MM0
0MM0
MMMM
MMMM
MMMM
MMMM
0MM0
0MM0
0000
0000
0000
,
0000
0000
0000
0000
,
0000
0000
0000
0000
,
0000
0000
0000
0000
0000
0100
0100
0100
,
0100
1000
0010
0001
0200
0000
0300
0000
,
1111
0000
0000
0000
0001
0001
0001
0001
,
0010
0000
0000
0000
,
0000
0000
0000
0000
0000
0000
0000
0000
0000
0000
0000
M0MM
0000
0000
0000
0000
,
0000
0MM0
0MM0
MMMM
MMMM
MMMM
MMMM
0MM0
0MM0
0000
0000
0000
,
0000
0000
0000
0000
,
0000
0000
0000
0000
,
0000
0000
0000
0000
0000
0000
0100
0100
,
0100
1000
0010
0001
0200
0000
0300
0000
,
1111
0000
0000
0000
0001
0001
0001
0001
,
0010
0000
0000
0000
,
0000
0000
0000
0000
0000
0000
0000
0000
0000
0000
0000
0000
0000
M0MM
0000
0000
,
0000
0MM0
0MM0
MMMM
MMMM
MMMM
MMMM
0MM0
0MM0
0000
0000
0000
,
0000
0000
0000
0000
,
0000
0000
0000
0000
,
0000
0000
0000
0000
0000
0000
0000
0100
,
0100
1000
0010
0001
0200
0000
0300
0000
,
1111
0000
0000
0000
0001
0001
0001
0001
,
0010
0000
0000
0000
,
0000
0000
0000
0000
0000
0000
0000
0000
0000
0000
0000
0000
0000
0000
0000
M0MM
,
0000
0MM0
0MM0
MMMM
MMMM
MMMM
MMMM
0MM0
0MM0
0000
0000
0000
,
0000
0000
0000
0000
,
0000
0000
0000
0000
,
0000
0000
0000
0000
,
0100
1000
0010
0001
0200
0000
0300
0000
,
1111
0000
0000
0000
0001
0001
0001
0001
,
0010
1000
0100
0010
0002
0000
0003
0000
,
1111
0000
0000
0000
1000
1000
1000
1000
,
0100
0000
0000
0000
,
0000
0000
0000
0000
0000
0000
0000
0000
0000
MMM0
0000
0000
0000
0000
0000
0000
,
0000
0MM0
0MM0
MMMM
MMMM
MMMM
MMMM
0MM0
0MM0
0000
0000
0000
,
0000
0000
0000
0000
,
0000
0000
0000
0000
,
0000
0000
0000
0000
0000
0001
0001
0001
,
0010
1000
0100
0010
0002
0000
0003
0000
,
1111
0000
0000
0000
1000
1000
1000
1000
,
0100
0000
0000
0000
,
0000
0000
0000
0000
0000
0000
0000
0000
0000
0000
0000
MMM0
0000
0000
0000
0000
,
0000
0MM0
0MM0
MMMM
MMMM
MMMM
MMMM
0MM0
0MM0
0000
0000
0000
,
0000
0000
0000
0000
,
0000
0000
0000
0000
,
0000
0000
0000
0000
0000
0000
0001
0001
,
0010
1000
0100
0010
0002
0000
0003
0000
,
1111
0000
0000
0000
1000
1000
1000
1000
,
0100
0000
0000
0000
,
0000
0000
0000
0000
0000
0000
0000
0000
0000
0000
0000
0000
0000
MMM0
0000
0000
,
0000
0MM0
0MM0
MMMM
MMMM
MMMM
MMMM
0MM0
0MM0
0000
0000
0000
,
0000
0000
0000
0000
,
0000
0000
0000
0000
,
0000
0000
0000
0000
0000
0000
0000
0001
,
0010
1000
0100
0010
0002
0000
0003
0000
,
1111
0000
0000
0000
1000
1000
1000
1000
,
0100
0000
0000
0000
,
0000
0000
0000
0000
0000
0000
0000
0000
0000
0000
0000
0000
0000
0000
0000
MM00
,
0000
0MM0
0MM0
MMMM
MMMM
MMMM
MMMM
0MM0
0MM0
0000
0000
0000
,
0000
0000
0000
0000
,
0000
0000
0000
0000
,
0000
0000
0000
0000
,
0010
1000
0100
0010
0002
0000
0003
0000
,
1111
0000
0000
0000
1000
1000
1000
1000
,
0100
0001
1000
0010
0200
0000
0300
0000
,
1111
0000
0000
0000
0110
0010
0010
0010
,
0100
0000
0000
0000
,
0000
0000
0000
0000
0000
0000
0000
0000
0000
0MMM
0000
0000
0000
0000
0000
0000
,
0000
0MM0
0MM0
MMMM
MMMM
MMMM
MMMM
0MM0
0MM0
0000
0000
0000
,
0000
0000
0000
0000
,
0000
0000
0000
0000
,
0000
0000
0000
0000
0000
1000
1000
1000
,
0100
0001
1000
0010
0200
0000
0300
0000
,
1111
0000
0000
0000
0110
0010
0010
0010
,
0100
0000
0000
0000
,
0000
0000
0000
0000
0000
0000
0000
0000
0000
0000
0000
0MMM
0000
0000
0000
0000
,
0000
0MM0
0MM0
MMMM
MMMM
MMMM
MMMM
0MM0
0MM0
0000
0000
0000
,
0000
0000
0000
0000
,
0000
0000
0000
0000
,
0000
0000
0000
0000
0000
0000
1000
1000
,
0100
0001
1000
0010
0200
0000
0300
0000
,
1111
0000
0000
0000
0110
0010
0010
0010
,
0100
0000
0000
0000
,
0000
0000
0000
0000
0000
0000
0000
0000
0000
0000
0000
0000
0000
0MMM
0000
0000
,
0000
0MM0
0MM0
MMMM
MMMM
MMMM
MMMM
0MM0
0MM0
0000
0000
0000
,
0000
0000
0000
0000
,
0000
0000
0000
0000
,
0000
0000
0000
0000
0000
0000
0000
1000
,
0100
0001
1000
0010
0200
0000
0300
0000
,
1111
0000
0000
0000
0110
0010
0010
0010
,
0100
0000
0000
0000
,
0000
0000
0000
0000
0000
0000
0000
0000
0000
0000
0000
0000
0000
0000
0000
00MM
,
0000
0MM0
0MM0
MMMM
MMMM
MMMM
MMMM
0MM0
0MM0
0000
0000
0000
,
0000
0000
0000
0000
,
0000
0000
0000
0000
,
0000
0000
0000
0000
,
0100
0001
1000
0010
0200
0000
0300
0000
,
1111
0000
0000
0000
0110
0010
0010
0010
,
0100
1000
0001
0100
0020
0000
1030
0000
,
2010
0000
3100
0000
0101
0100
0100
0100
,
0001
0000
0000
0000
,
0000
0000
0000
0000
0000
0000
0000
0000
0000
M00M
0000
0000
0000
0000
0000
0000
,
0000
0MM0
0MM0
MMMM
MMMM
MMMM
MMMM
0MM0
0MM0
0000
0000
0000
,
0000
0000
0000
0000
,
0000
0000
0000
0000
,
0000
0000
0000
0000
0000
0010
0010
0010
,
0100
1000
0001
0100
0020
0000
1030
0000
,
2010
0000
3100
0000
0101
0100
0100
0100
,
0001
0000
0000
0000
,
0000
0000
0000
0000
0000
0000
0000
0000
0000
0000
0000
M00M
0000
0000
0000
0000
,
0000
0MM0
0MM0
MMMM
MMMM
MMMM
MMMM
0MM0
0MM0
0000
0000
0000
,
0000
0000
0000
0000
,
0000
0000
0000
0000
,
0000
0000
0000
0000
0000
0000
0010
0010
,
0100
1000
0001
0100
0020
0000
1030
0000
,
2010
0000
3100
0000
0101
0100
0100
0100
,
0001
0000
0000
0000
,
0000
0000
0000
0000
0000
0000
0000
0000
0000
0000
0000
0000
0000
MM0M
0000
0000
,
0000
0MM0
0MM0
MMMM
MMMM
MMMM
MMMM
0MM0
0MM0
0000
0000
0000
,
0000
0000
0000
0000
,
0000
0000
0000
0000
,
0000
0000
0000
0000
0000
0000
0000
0010
,
0100
1000
0001
0100
0020
0000
1030
0000
,
2010
0000
3100
0000
0101
0100
0100
0100
,
0001
0000
0000
0000
,
0000
0000
0000
0000
0000
0000
0000
0000
0000
0000
0000
0000
0000
0000
0000
M00M
,
0000
0MM0
0MM0
MMMM
MMMM
MMMM
MMMM
0MM0
0MM0
0000
0000
0000
,
0000
0000
0000
0000
,
0000
0000
0000
0000
,
0000
0000
0000
0000
,
0100
1000
0001
0100
0020
0000
1030
0000
,
2010
0000
3100
0000
0101
0100
0100
0100
,
0001
0010
0100
1000
0210
0000
0310
0000
,
1002
0000
0103
0000
1100
0100
0100
0100
,
1000
0000
0000
0000
,
0000
0000
0000
0000
0000
0000
0000
0000
0000
M0M0
0000
0000
0000
0000
0000
0000
,
0000
0MM0
0MM0
MMMM
MMMM
MMMM
MMMM
0MM0
0MM0
0000
0000
0000
,
0000
0000
0000
0000
,
0000
0000
0000
0000
,
0000
0000
0000
0000
0000
0100
0100
0100
,
0001
0010
0100
1000
0210
0000
0310
0000
,
1002
0000
0103
0000
1100
0100
0100
0100
,
1000
0000
0000
0000
,
0000
0000
0000
0000
0000
0000
0000
0000
0000
0000
0000
M0M0
0000
0000
0000
0000
,
0000
0MM0
0MM0
MMMM
MMMM
MMMM
MMMM
0MM0
0MM0
0000
0000
0000
,
0000
0000
0000
0000
,
0000
0000
0000
0000
,
0000
0000
0000
0000
0000
0000
0100
0100
,
0001
0010
0100
1000
0210
0000
0310
0000
,
1002
0000
0103
0000
1100
0100
0100
0100
,
1000
0000
0000
0000
,
0000
0000
0000
0000
0000
0000
0000
0000
0000
0000
0000
0000
0000
M0MM
0000
0000
,
0000
0MM0
0MM0
MMMM
MMMM
MMMM
MMMM
0MM0
0MM0
0000
0000
0000
,
0000
0000
0000
0000
,
0000
0000
0000
0000
,
0000
0000
0000
0000
0000
0000
0000
0100
,
0001
0010
0100
1000
0210
0000
0310
0000
,
1002
0000
0103
0000
1100
0100
0100
0100
,
1000
0000
0000
0000
,
0000
0000
0000
0000
0000
0000
0000
0000
0000
0000
0000
0000
0000
0000
0000
M0M0
,
0000
0MM0
0MM0
MMMM
MMMM
MMMM
MMMM
0MM0
0MM0
0000
0000
0000
,
0000
0000
0000
0000
,
0000
0000
0000
0000
,
0000
0000
0000
0000
,
0001
0010
0100
1000
0210
0000
0310
0000
,
1002
0000
0103
0000
1100
0100
0100
0100
,
1000
0000
0000
0000
,
0000
0000
0000
0000
,
0000
0000
0000
0000
,
0000
0000
0000
0000
0000
0000
0000
0000
0000
00MM
0000
0000
0000
0000
0000
0000
,
0000
0MM0
0MM0
MMMM
MMMM
MMMM
MMMM
0MM0
0MM0
0000
0000
0000
,
0000
0000
0000
0000
,
0000
0000
0000
0000
,
0000
0000
0000
0000
0000
0100
0100
0100
,
1000
0000
0000
0000
,
0000
0000
0000
0000
,
0000
0000
0000
0000
,
0000
0000
0000
0000
0000
0000
0000
0000
0000
0000
0000
00MM
0000
0000
0000
0000
,
0000
0MM0
0MM0
MMMM
MMMM
MMMM
MMMM
0MM0
0MM0
0000
0000
0000
,
0000
0000
0000
0000
,
0000
0000
0000
0000
,
0000
0000
0000
0000
0000
0000
0100
0100
,
1000
0000
0000
0000
,
0000
0000
0000
0000
,
0000
0000
0000
0000
,
0000
0000
0000
0000
0000
0000
0000
0000
0000
0000
0000
0000
0000
M0MM
0000
0000
,
0000
0MM0
0MM0
MMMM
MMMM
MMMM
MMMM
0MM0
0MM0
0000
0000
0000
,
0000
0000
0000
0000
,
0000
0000
0000
0000
,
0000
0000
0000
0000
0000
0000
0000
0100
,
1000
0000
0000
0000
,
0000
0000
0000
0000
,
0000
0000
0000
0000
,
0000
0000
0000
0000
0000
0000
0000
0000
0000
0000
0000
0000
0000
0000
0000
00MM
,
0000
0MM0
0MM0
MMMM
MMMM
MMMM
MMMM
0MM0
0MM0
0000
0000
0000
,
0000
0000
0000
0000
,
0000
0000
0000
0000
,
0000
0000
0000
0000
,
1000
0000
0000
0000
;
