#VERSION:0.83;
#TITLE:Gator Gambol;
#SUBTITLE:;
#ARTIST:OMORI;
#TITLETRANSLIT:;
#SUBTITLETRANSLIT:;
#ARTISTTRANSLIT:;
#GENRE:OMORI;
#ORIGIN:;
#CREDIT:[Ness];
#BANNER:OMORI - Gator Gambol.png;
#BACKGROUND:OMORI - Gator Gambol-bg.png;
#PREVIEWVID:;
#JACKET:OMORI - Gator Gambol-jacket.png;
#CDIMAGE:;
#DISCIMAGE:;
#LYRICSPATH:;
#CDTITLE:;
#MUSIC:Gator Gambol.mp3;
#OFFSET:-0.020000;
#SAMPLESTART:0.011363;
#SAMPLELENGTH:17.142857;
#SELECTABLE:YES;
#BPMS:0.000=112.000;
#STOPS:;
#DELAYS:;
#WARPS:;
#TIMESIGNATURES:0.000=4=4;
#TICKCOUNTS:0.000=2;
#COMBOS:0.000=1;
#SPEEDS:0.000=1.000=0.000=0;
#SCROLLS:0.000=1.000;
#FAKES:;
#LABELS:0.000=Song Start;
#BGCHANGES:148.000=Defeat1.png=1.000=0=0=1=====,
149.500=Defeat2.png=1.000=0=0=1===CrossFade_Fastest==,
99999=-nosongbg-=1.000=0=0=0 // don't automatically add -songbackground-
;
#KEYSOUNDS:;
#ATTACKS:
;

//---------------dance-single - ----------------
#NOTEDATA:;
#CHARTNAME:[Ness];
#STEPSTYPE:dance-single;
#DESCRIPTION:[Ness];
#CHARTSTYLE:;
#DIFFICULTY:Challenge;
#METER:10;
#RADARVALUES:0.570056,0.752613,0.188337,0.388445,0.759234,339.000000,323.000000,16.000000,33.000000,31.000000,0.000000,0.000000,0.000000,0.000000,0.570056,0.752613,0.188337,0.388445,0.759234,339.000000,323.000000,16.000000,33.000000,31.000000,0.000000,0.000000,0.000000,0.000000;
#CREDIT:[Ness];
#NOTES:
0000
0000
0000
0000
,
0000
0000
0000
0000
,
0000
0000
0000
0000
,
0000
0000
0000
0000
0000
0000
0000
0000
0010
0000
1000
0000
0001
1000
0100
1000
,
0202
0000
0303
0000
1010
0000
0010
1000
0002
1000
0000
0000
1003
0000
0001
0000
,
0100
0001
0010
0000
0011
0000
0010
0100
2000
0100
0000
0000
3001
0000
1000
0000
,
0100
0010
0001
0000
1000
0000
0001
0100
0020
1000
0000
0000
0130
0000
0110
0000
,
1000
0001
0100
0000
0101
0000
0010
1000
0200
1000
0000
0000
1300
0000
1100
0000
,
0001
0100
0010
0000
1010
0000
0001
1000
0020
0100
0000
0000
1030
0000
0001
0000
,
0100
0010
1000
0000
1001
0000
0001
1000
0200
0010
0000
0000
1300
0000
0100
0000
,
0010
0001
0100
0000
0001
0000
1000
0010
0200
0001
0000
0000
0301
0000
1000
0000
,
0100
1000
0010
0000
1000
0000
0001
0010
0100
1000
0001
0010
0100
1000
0001
0010
,
0100
0000
0100
1000
0000
1000
0010
0000
0010
0001
0000
0001
0010
0000
0110
0000
,
0010
0000
0010
0001
1000
0001
0100
0010
1000
0100
0000
0100
0010
0000
0001
0000
,
1000
0000
1000
0010
0001
0010
1000
0100
1000
0000
1000
0010
0001
0010
1000
0100
,
1000
0000
1000
0100
0001
0100
1000
0010
0100
0000
0010
1000
0001
1000
0100
0010
,
0001
0000
0010
0100
1000
0001
0100
0000
0010
1000
0000
1000
0001
0000
0001
0000
,
0001
0000
0001
0010
0000
0010
0100
0000
0000
1000
0001
0000
0100
0000
1001
0000
,
0100
0000
0010
0000
0010
0000
0100
0000
0100
0000
0100
0001
0000
0001
1000
0000
,
0100
0000
0010
0000
0100
0000
0100
0000
1000
0001
1000
0100
0001
1000
0001
0100
,
1000
0000
0000
0100
0000
0000
0020
0000
0100
0000
0000
0031
0000
0000
2000
0000
,
0010
0000
0000
3001
0000
0000
0200
0000
1000
0000
0000
0310
0000
0000
0002
0000
,
0100
0000
0000
0013
0000
0000
0200
0000
1000
0000
0000
0310
0000
0000
2000
0000
,
0100
0000
3001
0000
0010
0000
0100
0000
1000
0000
0000
1100
0000
0000
1001
0000
,
0010
0000
0000
0011
0000
0000
0110
0000
0100
0000
0001
0000
1000
0000
0010
0000
,
1000
0000
0100
0000
0100
0010
0000
0001
0000
0000
1000
0000
0010
0000
0100
0000
,
0210
0000
0000
0000
0301
0000
0000
0000
0101
0001
0010
0100
1000
0010
0100
0001
,
1000
1000
0100
0000
0010
0000
0100
0100
1000
0001
0100
0010
0100
0100
0001
1000
,
0200
0000
0000
032M
M000
0000
0032
0M00
0000
M000
00M0
0000
2003
0M00
0000
0000
,
302M
0000
0000
M000
0230
000M
0000
00M0
0302
0000
0023
M000
0230
0000
230M
0000
,
32M0
0000
000M
0320
0000
M000
0032
0M00
0000
M000
00M3
0000
0M00
0000
000M
0000
,
M200
0000
00M0
0000
2300
000M
0000
0M00
3020
000M
0000
0M00
0032
M000
0000
0000
,
0103
0000
0100
0000
0001
0100
1000
0100
0010
1000
0100
0010
0001
1000
0100
0010
,
0100
1000
0001
0100
0010
1000
0001
0010
0100
0010
0001
1000
0010
0100
0010
1000
,
0001
0100
0010
1000
0100
1000
0100
0010
0001
1000
0010
0100
0001
0100
0001
1000
,
0100
0010
0001
1000
0010
0100
1000
0100
0010
1000
0001
0100
0010
0001
0010
0100
,
0001
0000
0000
0000
,
0000
0000
0000
0000
,
0000
0000
0000
MMMM
;

//---------------dance-single - ----------------
#NOTEDATA:;
#CHARTNAME:[Ness];
#STEPSTYPE:dance-single;
#DESCRIPTION:[Ness];
#CHARTSTYLE:;
#DIFFICULTY:Hard;
#METER:7;
#RADARVALUES:0.358177,0.381383,0.058855,0.235422,0.217765,213.000000,208.000000,5.000000,20.000000,0.000000,0.000000,0.000000,0.000000,0.000000,0.358177,0.381383,0.058855,0.235422,0.217765,213.000000,208.000000,5.000000,20.000000,0.000000,0.000000,0.000000,0.000000,0.000000;
#CREDIT:[Ness];
#NOTES:
0000
0000
0000
0000
,
0000
0000
0000
0000
,
0000
0000
0000
0000
,
0000
0000
0000
0000
,
1001
0000
0000
0000
0010
0000
0001
0100
0002
0000
0000
0000
1003
0000
0000
0000
,
0100
0000
0000
0000
1000
0000
0010
1000
0020
0000
0000
0000
0130
0000
0100
0000
,
0001
0000
0000
0000
1000
0000
0100
1000
0200
0000
0000
0000
0310
0000
0000
0000
,
0001
0000
0000
0000
1000
0000
0010
0100
0020
0000
0000
0000
1030
0000
0001
0000
,
0100
0000
0000
0000
0001
0000
1000
0100
2000
0000
0000
0000
3001
0000
0000
0000
,
0010
0000
0100
0000
0010
0000
0001
0100
0002
0000
0000
0000
1003
0000
1000
0000
,
0100
0000
0010
0000
0001
0000
1000
0001
2000
0000
0000
0000
3010
0000
0010
0000
,
0100
0000
0001
0000
1000
0000
0100
0000
0010
0100
0010
0000
0200
0000
0000
0000
,
0310
0000
0000
0001
0000
0000
0100
0000
0000
0001
0000
0000
1000
0000
0010
0000
,
0100
0000
0000
0010
0000
0000
1000
0000
0000
0100
0000
0000
0010
0000
0001
0000
,
1000
0000
0000
0001
0000
0000
0100
0000
0000
0010
0000
0000
1000
0000
0010
0000
,
0100
0000
0000
0001
0000
0000
0010
0000
0000
0001
0000
0000
1000
0000
0001
0000
,
0100
0000
0000
0010
0000
0000
1000
0000
0000
0100
0000
0000
0010
0000
0001
0000
,
0100
0000
0000
0010
0000
0000
1000
0000
0000
0001
0010
0000
0001
0000
1000
0000
,
0001
0000
0000
0010
0000
0000
0100
0000
0000
1000
0000
0000
0001
0000
0010
0000
,
0001
0000
0000
0100
0000
0000
0010
0000
1000
0001
1000
0000
0200
0000
0000
0000
,
0320
0000
0000
0001
0000
0000
0031
0000
2000
0000
0000
0010
0000
0000
3010
0000
,
0200
0000
0000
0001
0000
0000
0301
0000
2000
0000
0000
0100
0000
0000
3100
0000
,
0020
0000
0000
0001
0000
0000
0130
0000
0002
0000
0000
1000
0000
0000
0103
0000
,
0010
0000
1000
0000
0001
0000
0100
0000
0010
0000
0000
1000
0000
0000
0001
0000
,
0010
0000
0000
0001
0000
0000
1000
0000
0100
0000
1000
0000
0001
0000
0010
0000
,
0001
0200
0310
1001
,
0020
0130
0110
1001
,
0010
0100
0010
0000
0001
0000
1000
0000
0001
1000
0001
0000
1000
0000
0001
0000
,
0100
0000
0000
0010
0000
0000
1000
0000
0000
0000
0001
0000
0000
0000
0010
0000
,
0000
0001
0000
0100
0000
0010
1000
0100
,
0010
0000
0000
0100
0000
0000
1000
0000
0000
0000
0001
0000
0000
0000
0010
0000
,
0200
0000
0320
0000
0032
0000
1003
0001
,
0100
0000
0000
0010
0000
0000
1000
0000
0100
0000
0100
0000
0010
0000
0010
0000
,
0001
1000
0001
0100
0001
1000
0001
0100
,
0010
1000
0100
0010
0001
1000
0001
1000
,
0100
0100
0010
0010
0001
1000
0010
0100
,
1001
0000
0000
0000
;

//---------------dance-single - ----------------
#NOTEDATA:;
#CHARTNAME:[Ness];
#STEPSTYPE:dance-single;
#DESCRIPTION:[Ness];
#CHARTSTYLE:;
#DIFFICULTY:Medium;
#METER:5;
#RADARVALUES:0.279143,0.296631,0.200108,0.094169,0.000000,166.000000,149.000000,17.000000,8.000000,0.000000,0.000000,0.000000,0.000000,0.000000,0.279143,0.296631,0.200108,0.094169,0.000000,166.000000,149.000000,17.000000,8.000000,0.000000,0.000000,0.000000,0.000000,0.000000;
#CREDIT:[Ness];
#NOTES:
0000
0000
0000
0000
,
0000
0000
0000
0000
,
0000
0000
0000
0000
,
0000
0000
0000
0000
,
1000
0000
0001
1000
0200
0000
1300
0000
,
0010
0000
0100
0001
0200
0000
0310
0000
,
1000
0000
0001
1000
0020
0000
1030
0000
,
0100
1000
0001
0000
0200
0000
0310
0000
,
1000
0000
0001
1000
0200
0000
1300
0000
,
0001
0000
1000
0001
0020
0000
0031
0000
,
0100
0000
0010
0100
0002
0000
1003
0000
,
0010
1000
0010
0000
0200
0000
0301
0000
,
1000
0100
0001
0100
,
1000
0001
1001
0110
,
0100
0000
0010
1000
0100
0000
0010
0001
,
0100
0000
0001
1000
0100
0000
1000
0001
,
0010
0001
1000
0010
,
0100
0001
0101
1100
,
0100
0000
0010
0001
0100
0000
0001
1000
,
0001
0000
0010
0100
1000
0000
0001
0000
,
0010
1001
0100
1001
,
0010
1001
0100
1001
,
0010
0011
0100
1100
,
0010
1010
0100
0101
,
1000
0000
0001
0000
0100
0010
1000
0010
,
0100
0001
0010
0110
,
1001
0010
1001
0100
,
1001
0000
0000
0000
,
0000
0001
0000
0010
0000
0001
0000
0001
,
0000
1000
0000
1000
0000
0001
0000
0100
,
0000
0010
0000
0010
0000
0100
0000
0100
,
0001
0010
0100
1000
,
0001
0000
1000
0000
0100
0100
0010
0000
,
0001
1000
0001
0000
0100
0001
1000
0000
,
0010
0000
0100
0000
0010
0010
1000
0000
,
0100
1000
0010
0000
0100
0001
1000
0000
,
1001
0000
0000
0000
;

//---------------dance-single - ----------------
#NOTEDATA:;
#CHARTNAME:[Ness];
#STEPSTYPE:dance-single;
#DESCRIPTION:[Ness];
#CHARTSTYLE:;
#DIFFICULTY:Easy;
#METER:3;
#RADARVALUES:0.156387,0.190691,0.023542,0.082398,0.000000,93.000000,91.000000,2.000000,7.000000,0.000000,0.000000,0.000000,0.000000,0.000000,0.156387,0.190691,0.023542,0.082398,0.000000,93.000000,91.000000,2.000000,7.000000,0.000000,0.000000,0.000000,0.000000,0.000000;
#CREDIT:[Ness];
#NOTES:
// measure 0
0000
0000
0000
0000
,  // measure 1
0000
0000
0000
0000
,  // measure 2
0000
0000
0000
0000
,  // measure 3
0000
0000
0000
0000
,  // measure 4
0010
0001
0100
0000
,  // measure 5
0001
0001
1000
0000
,  // measure 6
0100
1000
0010
0000
,  // measure 7
1000
0001
0001
0000
,  // measure 8
0010
0100
0010
0000
,  // measure 9
0001
0001
0100
0000
,  // measure 10
0100
0010
1000
0000
,  // measure 11
1000
0100
0010
0000
,  // measure 12
0001
0001
0000
1000
,  // measure 13
0010
1000
0100
0000
,  // measure 14
0000
0010
0000
0001
,  // measure 15
0010
0001
0100
0000
,  // measure 16
1000
0100
0010
0000
,  // measure 17
0001
1000
0001
0100
,  // measure 18
0001
0010
0001
0000
,  // measure 19
0010
0000
0100
0100
,  // measure 20
2000
3000
1000
0000
,  // measure 21
0020
0030
0100
0000
,  // measure 22
0002
0003
0010
0000
,  // measure 23
0100
1000
0001
0000
,  // measure 24
0010
0000
0001
1000
,  // measure 25
0100
0000
0000
1000
,  // measure 26
0010
0000
0100
0100
,  // measure 27
1001
0000
0000
0000
,  // measure 28
0002
0000
0000
0000
,  // measure 29
0013
1000
0010
0001
,  // measure 30
2000
0000
0000
3000
,  // measure 31
0001
1000
0010
0100
,  // measure 32
0002
0000
0103
0100
,  // measure 33
1000
0100
0001
0100
,  // measure 34
2000
0000
3100
0100
,  // measure 35
0001
0100
1000
0100
,  // measure 36
1001
0000
0000
0000
;

//---------------dance-single - ----------------
#NOTEDATA:;
#CHARTNAME:[Ness];
#STEPSTYPE:dance-single;
#DESCRIPTION:[Ness];
#CHARTSTYLE:;
#DIFFICULTY:Beginner;
#METER:1;
#RADARVALUES:0.104258,0.127128,0.011771,0.000000,0.000000,62.000000,61.000000,1.000000,0.000000,0.000000,0.000000,0.000000,0.000000,0.000000,0.104258,0.127128,0.011771,0.000000,0.000000,62.000000,61.000000,1.000000,0.000000,0.000000,0.000000,0.000000,0.000000,0.000000;
#CREDIT:[Ness];
#NOTES:
// measure 0
0000
0000
0000
0000
,  // measure 1
0000
0000
0000
0000
,  // measure 2
0000
0000
0000
0000
,  // measure 3
0000
0000
0000
0000
,  // measure 4
0001
0000
0010
0000
,  // measure 5
0001
0000
1000
0000
,  // measure 6
0010
0000
1000
0000
,  // measure 7
0100
0000
0010
0000
,  // measure 8
0001
0000
1000
0000
,  // measure 9
0001
0000
1000
0000
,  // measure 10
0001
0000
0100
0000
,  // measure 11
0010
0000
1000
0000
,  // measure 12
0100
0000
0000
0000
,  // measure 13
0100
0000
0010
0000
,  // measure 14
0001
0000
0000
0000
,  // measure 15
1000
0000
0000
0010
,  // measure 16
0010
0000
0000
0100
,  // measure 17
0100
0000
0000
0001
,  // measure 18
0001
0000
0000
1000
,  // measure 19
1000
0000
0100
0000
,  // measure 20
0010
0000
0010
0000
,  // measure 21
0001
0000
0100
0000
,  // measure 22
0010
0000
1000
0000
,  // measure 23
0100
0000
0000
0000
,  // measure 24
0000
0000
0010
0010
,  // measure 25
0010
0000
0000
0001
,  // measure 26
0001
0000
1000
0000
,  // measure 27
1001
0000
0000
0000
,  // measure 28
0010
0000
0010
0000
,  // measure 29
0010
0000
0001
0000
,  // measure 30
0100
0000
0100
0000
,  // measure 31
1000
0000
0100
0000
,  // measure 32
0001
0000
0001
0000
,  // measure 33
1000
0000
1000
0000
,  // measure 34
0010
0000
1000
0000
,  // measure 35
0001
0000
0010
0000
,  // measure 36
0100
0000
0000
0000
;
