#TITLE:GOLDENVENGEANCE;
#SUBTITLE:;
#ARTIST:OMORI;
#TITLETRANSLIT:;
#SUBTITLETRANSLIT:;
#ARTISTTRANSLIT:;
#GENRE:OMORI;
#CREDIT:[Ness];
#BANNER:OMORI - GOLDENVENGEANCE.png;
#BACKGROUND:Black.png;
#LYRICSPATH:;
#CDTITLE:;
#MUSIC:OMORI - GOLDENVENGEANCE.mp3;
#OFFSET:-0.058000;
#SAMPLESTART:27.421934;
#SAMPLELENGTH:13.714291;
#SELECTABLE:YES;
#BPMS:0.000000=140.000000
;
#STOPS:
;
#BGCHANGES:-0.250=OMORI - GOLDENVENGEANCE.avi=1.000=0=0=1=====,
45.000=OMORI - GOLDENVENGEANCE-bg.png=1.000=1=0=1===CrossFade==,
324.500=Defeat.png=1.000=0=0=1=====,
327.000=Defeat.png=1.000=0=0=1===CrossFade_Fastest=#808080=,
99999=-nosongbg-=1.000=0=0=0 // don't automatically add -songbackground-
;
#KEYSOUNDS:;
#ATTACKS:;

//---------------dance-single - ----------------
#NOTES:
     dance-single:
     :
     Challenge:
     12:
     0.894165,0.951827,0.352336,0.200348,1.195181,906.000000,855.000000,51.000000,29.000000,97.000000,0.000000,0.894165,0.951827,0.352336,0.200348,1.195181,906.000000,855.000000,51.000000,29.000000,97.000000,0.000000:
0000
0000
0000
0000
,
0000
0000
0200
0000
,
0020
0000
0000
0000
0300
0000
1030
0001
,
0020
0000
0000
0030
,
0220
0000
0000
0000
0330
0000
1000
0001
,
0200
0000
0320
0000
,
2030
0000
0000
0000
,
0002
0000
0000
0000
3003
0000
1000
0001
,
0100
0000
0000
0100
0010
0000
0000
0000
1000
0000
0000
1000
0100
0000
0000
0000
,
0001
0000
0000
0001
0010
0000
0000
0000
0100
0000
0000
0100
1000
0000
0001
0000
,
0100
0000
0000
0010
1000
0000
0000
0000
0001
0000
0000
0010
0100
0000
0000
0000
,
0010
0000
0000
0001
1000
0000
00M1
0000
0100
0000
0000
0100
0010
0000
1000
0000
,
0001
0000
M000
0001
0010
0000
0100
0000
1000
0000
0000
1000
0010
0000
0000
0000
,
0110
0000
0000
0001
01M0
0000
0100
0000
1001
0000
0000
1000
010M
0000
0010
0000
,
0110
0000
M000
0011
0000
0000
1010
0000
0000
0101
0000
0000
1100
0000
0010
0000
,
0100
0000
0000
0101
00M0
0000
1000
0010
0100
0001
0010
1000
010M
0000
0000
0000
,
1010
0000
1000
0100
M010
0000
0010
0001
0100
0000
0100
0010
100M
0000
1000
0001
,
0010
0000
0010
0100
100M
0000
1000
0010
0100
0000
0100
0001
10M0
0000
1000
0100
,
0010
0000
0010
0001
M100
0000
0100
0010
1000
0000
1000
0001
0M10
0000
0010
0001
,
0100
0000
0100
0010
100M
0000
1000
0001
0100
0000
0100
0010
1M00
0000
0100
0001
,
0010
0000
0001
0010
M100
0000
0010
0100
1000
0000
0100
1000
00M1
0000
1000
0001
,
0010
0000
0001
0010
M100
0000
0010
0100
1000
0000
0010
0100
00M1
0000
1000
0010
,
1000
0000
0100
0010
0M01
0000
0100
0010
1000
0000
0001
0010
M100
0000
0010
0001
,
1000
0000
0000
0000
0000
0000
0001
0000
0000
1000
0000
0000
0M10
0000
0000
0000
0000
0000
0100
0000
0000
0001
0000
0000
1000
0000
0000
0000
0010
0000
0000
0000
0100
0000
0000
0000
0101
0000
0000
0000
0000
0000
0000
0000
0000
0000
0000
0000
,
1001
0000
0001
0010
010M
0000
1000
0010
0100
0000
0001
1000
01M0
0000
0010
0001
,
0100
0000
0001
1000
0M10
0000
1000
0100
0010
0000
0001
0100
M010
0000
0001
0100
,
1000
0000
0100
0010
M001
0000
1000
0010
0100
0000
0010
1000
0M01
0000
1000
0100
,
0010
0000
0001
1000
001M
0000
0100
0001
0010
0000
0100
1000
00M1
0000
0100
0010
,
0001
0000
1000
0010
010M
0000
0010
1000
0001
0000
1000
0100
M010
0000
0100
1000
,
0001
0000
0010
0100
10M0
0000
0001
0010
0100
0000
0010
0001
1M00
0000
0010
0001
,
0100
0000
0010
1000
00M1
0000
1000
0100
0010
0000
0001
0100
M010
0000
1000
0001
,
0010
0000
0000
0000
0000
0000
0100
0000
0000
1000
0000
0000
001M
0000
0000
0000
0000
0000
0100
0000
0000
0001
0000
0000
1000
0000
0000
0000
0010
0000
0000
0000
0001
0000
0000
0000
0100
0000
0000
0000
1000
0000
0000
0000
0001
0000
0000
0000
,
0010
0100
1000
0100
0010
0001
1000
0010
1000
0001
1000
0100
0010
0001
0010
0100
,
1000
0010
0100
0001
1000
0010
0100
0010
1000
0100
0010
0001
0100
0010
0001
0010
,
0100
0001
1000
0010
0100
0001
0010
0100
1000
0010
0100
0001
1000
0100
0010
0001
,
1000
0010
0100
0010
1000
0001
0010
0100
0010
0001
1000
0100
0010
1000
0010
0100
,
1000
0001
1000
0010
1000
0001
0100
0010
0100
0001
1000
0010
0100
0001
0010
0100
,
1000
0010
0100
0001
1000
0010
1000
0001
0010
0100
1000
0100
0010
1000
0010
0100
,
0010
0001
1000
0001
0010
0100
1000
0001
0100
0010
1000
0001
0010
0001
1000
0010
,
0100
0001
0010
0100
0010
0001
1000
0010
0100
0001
1000
0010
0100
1000
0100
0010
,
1000
0001
0100
0010
1000
0001
0010
0100
0010
0001
1000
0001
0100
0010
1000
0001
,
0010
0100
1000
0100
0010
0001
1000
0001
0010
0100
0010
0001
1000
0100
0001
0100
,
1000
0010
0100
0001
1000
0010
0100
0010
1000
0001
0010
0100
0010
0001
1000
0001
,
0010
0100
1000
0100
0010
0001
0100
0001
1000
0010
0100
0001
0010
1000
0010
0001
,
0100
0010
1000
0001
0100
0010
1000
0010
0100
0001
0010
0100
0010
0001
1000
0100
,
0010
0100
1000
0010
0100
0001
1000
0001
0010
0100
1000
0010
0100
1000
0001
0010
,
1000
0100
0010
0001
0010
0100
1000
0001
0010
0100
0010
0001
1000
0100
0010
0001
,
1000
0000
0000
0100
0000
0000
1000
0000
0000
0001
0000
0000
0010
0000
0000
0100
0000
0000
1000
0000
0000
0001
0000
0000
0010
0000
0000
0000
0100
0000
0000
0000
1000
0000
0000
0000
1100
0000
0000
0000
1000
0000
0000
0000
0010
0000
0000
0000
,
0011
0000
1000
0000
10M1
0000
0100
0001
0010
0000
0100
0000
1M01
0000
0100
1000
,
0010
0000
0100
0000
101M
0000
0100
0010
1000
0000
0100
0000
M011
0000
1000
0010
,
1000
0000
0001
0000
11M0
0000
0100
0010
0001
0000
1000
0000
M101
0000
0010
1000
,
0001
0000
0010
0000
011M
0000
1000
0001
0100
0000
0010
0000
1M10
0000
0001
1000
,
0100
0000
0010
0000
10M1
0000
0010
0001
0100
0000
0010
0000
1M01
0000
0100
1000
,
0010
0000
0100
0000
10M1
0000
0100
0001
0010
0000
0100
0000
1M01
0000
0100
0010
,
0001
0000
1000
0000
011M
0000
1000
0010
0001
0000
1000
0000
M110
0000
0001
0100
,
1000
0000
0000
0000
0000
0000
0010
0000
0000
0000
0000
0000
1M01
0000
0000
0000
0000
0000
0100
0000
0000
0010
0000
0000
1000
0000
0000
0000
0100
0000
0000
0000
0010
0000
0000
0000
0011
0000
0000
0000
0000
0000
0000
0000
0000
0000
0000
0000
,
10M0
0100
1000
0100
00M1
0100
1000
0100
10M0
0100
1000
0100
00M1
0100
1000
0100
,
M010
0001
0010
0100
1000
0001
0010
0100
M010
0001
0010
0001
0010
0100
1000
0001
,
0010
0100
0010
0100
100M
0100
0010
0100
001M
0100
0010
0100
100M
0100
0010
0100
,
M010
0001
1000
0001
0100
0010
0100
0001
1000
0001
0100
0010
0100
0001
1000
0010
,
0100
0001
0010
0001
M100
0010
1000
001M
0100
0001
0010
0001
M100
0010
1000
0010
,
0100
0001
1000
0010
0100
0001
1000
0010
0100
0001
0010
0100
1000
0010
0100
0001
,
1000
0100
1000
0001
10M0
0100
0010
0001
M100
0001
1000
0001
01M0
0001
0010
0100
,
100M
0000
0000
0010
0000
0000
0100
0000
0000
0010
0000
0000
1000
0000
0000
0001
0000
0000
0010
0000
0000
0100
0000
0000
0010
0000
0000
0000
0001
0000
0000
0000
1000
0000
0000
0000
0101
0000
0000
0000
0000
0000
0000
0000
0000
0000
0000
0000
,
2001
0000
0000
0000
000M
0000
0020
0000
0M00
3000
0000
0000
0200
0000
M000
0030
0000
0000
20M0
0000
0000
0300
000M
0000
,
0200
0000
00M0
3000
0000
0000
M002
0000
00M0
0300
0000
0000
0013
0000
0000
1001
0000
0000
0010
0000
0000
1001
0000
0000
,
0020
0000
0000
0000
0M00
0000
2000
0000
000M
0030
0000
0000
0002
0000
00M0
3000
0000
0000
0020
0000
M000
0003
0000
0000
,
0130
1001
0100
1001
0100
1001
0110
0000
,
0020
0000
0000
0000
M000
0000
0002
0000
0M00
0030
0000
0000
2000
0000
00M0
0003
0000
0000
0M20
0000
000M
3000
0000
0000
,
0002
0000
0M00
0030
0000
0000
0020
0000
M000
0003
0000
0000
0130
0000
0000
1001
0000
0000
0010
0000
0000
1001
0000
0000
,
0200
0000
0000
0000
00M0
0000
2000
0000
000M
0300
0000
0000
00M2
0000
0000
3000
0M00
0000
0020
0000
M000
0003
0000
0000
,
0130
0101
1000
0101
0010
1100
0101
0101
,
1001
0000
0010
1000
0100
0000
0100
0001
0100
0000
0100
1000
0010
0000
0100
0001
,
0010
0000
0100
1000
0010
0000
0100
0001
1000
0010
0001
0010
1000
0100
0010
0100
,
1000
0000
0010
0100
0001
0000
0010
1000
0010
0000
0100
1000
0001
0000
1000
0100
,
0010
0000
0001
0100
0010
0000
1000
0001
0010
0100
0001
0100
0010
0001
1000
0001
,
0010
0000
0100
1000
0010
0000
0100
0001
1000
0000
0001
0010
0100
0000
1000
0010
,
0001
0000
0010
0100
0001
0000
1000
0010
0100
1000
0100
0001
1000
0001
0100
0010
,
1000
0000
0100
0010
0001
0000
0010
0100
1000
0000
1000
0000
0001
0000
1000
0001
,
0101
0000
0000
1001
0000
0000
1100
0000
0000
0110
0000
0000
1001
0000
0000
0000
,
0000
0000
0000
0000
,
0000
0000
0000
0000
,
0000
0000
0000
0000
,
0000
0000
MMMM
0000
;

//---------------dance-single - ----------------
#NOTES:
     dance-single:
     :
     Hard:
     9:
     0.531959,0.633601,0.117445,0.283251,0.352336,539.000000,522.000000,17.000000,41.000000,0.000000,0.000000,0.531959,0.633601,0.117445,0.283251,0.352336,539.000000,522.000000,17.000000,41.000000,0.000000,0.000000:
0000
0000
0000
0000
,
0000
0000
0000
0000
,
0000
0000
0000
0000
,
0000
0000
0000
0000
,
0000
0000
0000
0000
,
0000
0000
0000
0000
,
0000
0000
0000
0000
,
0000
0000
0000
0000
,
1000
0000
0000
1000
0100
0000
0000
0000
0001
0000
0000
0001
0010
0000
0000
0000
,
1000
0000
0000
1000
0001
0000
0000
0000
0100
0000
0000
0100
0010
0000
1000
0000
,
0001
0000
0000
0010
0100
0000
0000
0000
1000
0000
0000
0010
1000
0000
0000
0000
,
0001
0000
0000
0010
0001
0000
1000
0000
0001
0000
0000
0100
0001
0000
0100
0000
,
0010
0000
0000
1000
0001
0000
1000
0000
0010
0000
0000
1000
0100
0000
0000
0000
,
0010
0000
0000
0001
1000
0000
0001
0000
0100
0000
0000
0010
1000
0000
0100
0000
,
0010
0000
0000
0001
0000
0000
1000
0000
0000
0010
0000
0000
0100
0000
0001
0000
,
1000
0000
0000
0010
0000
0000
0100
0001
1000
0001
1000
0001
1000
0000
0000
0000
,
0001
1001
0010
1001
,
0100
0010
0100
0101
,
1000
1010
0100
1001
,
0100
0000
0011
0000
1000
0001
0100
0000
,
0010
1010
0100
0110
,
1000
1001
0010
0011
,
1000
0101
0010
1100
,
0001
0000
0000
0110
0000
0000
1000
0100
0010
0001
0000
0000
,
1000
0000
0020
0000
0000
0100
0000
0130
0000
0000
0002
0000
0000
1000
0000
1003
,
0000
0000
0200
0000
0000
1000
0000
0310
0000
0000
2000
0000
0000
0010
0000
3100
,
0000
0000
0020
0000
0000
0001
0000
0130
0000
0000
0002
0000
0000
1000
0000
0103
,
0000
0000
0020
0000
0000
0001
0000
0130
0000
0000
2000
0000
0000
0100
0000
3001
,
0000
0000
0010
0000
0000
0001
0000
1000
0000
0000
0001
0000
0000
0100
0000
0010
,
0000
0000
1000
0000
0000
0010
0000
1000
0000
0000
0100
0000
0000
0010
0000
0001
,
0000
0000
1000
0000
0000
0001
0000
0010
0000
0000
0100
0000
0000
1000
0000
0010
,
0000
0000
0000
0000
0000
0000
0100
0000
0000
0000
0000
0000
0000
0000
0000
0001
0000
0000
0000
0000
0000
1000
0000
0000
0100
0000
0000
0000
1000
0000
0000
0000
0001
0000
0000
0000
0100
0000
0000
0000
0001
0000
0000
0000
1000
0000
0000
0000
,
0100
0000
1000
0001
0100
0000
0010
0000
1000
0000
0100
0010
0001
0000
1000
0000
,
0010
0000
1000
0100
0010
0000
0100
0000
1000
0000
0001
0100
0010
0000
0100
0000
,
0001
0000
1000
0010
0100
0000
0010
0000
1000
0000
0001
0010
0100
0000
0010
0000
,
0001
0100
0010
0100
1000
0100
0010
0100
,
0001
0000
0010
0100
1000
0000
0010
0000
1000
0000
0100
0010
0001
0000
1000
0000
,
0010
0000
0100
0001
1000
0000
0010
0000
0100
0000
0001
0010
0100
0000
1000
0000
,
0001
0000
1000
0010
0100
0000
0010
0000
1000
0000
0100
0010
0001
0000
1000
0000
,
0010
0000
1000
0001
0100
0000
0010
0000
0100
0000
0001
0010
0100
0000
1000
0000
,
0001
0000
1000
0100
1000
0000
0001
0000
0100
0000
0010
1000
0100
0000
0010
0000
,
0001
0000
0100
0001
0100
0000
0010
0000
1000
0000
0001
1000
0010
0000
0100
0000
,
0001
0000
0010
0100
1000
0000
0010
0000
1000
0000
0001
0000
0100
0000
0010
0000
,
0100
1000
0100
0010
0100
0001
1000
0001
,
0010
0000
0100
1000
0001
0000
0100
0000
0010
0000
1000
0100
0010
0000
0001
0000
,
0100
0000
0010
1000
0100
0000
0010
0000
0001
0000
1000
0001
0100
0000
0010
0000
,
1000
0000
0100
1000
0010
0000
1000
0000
0100
0000
0010
0001
0100
0000
0010
0000
,
1000
0000
0000
0000
0000
0000
0100
0000
0000
0010
0000
0000
0001
0000
0000
0000
0000
0000
0100
0000
0000
0000
0000
0000
0001
0000
0000
0000
0010
0000
0000
0000
0100
0000
0000
0000
1000
0000
0000
0000
0001
0000
0000
0000
0100
0000
0000
0000
,
0002
0000
1000
0000
0013
0001
0100
0000
,
1000
0001
0100
0000
0010
1000
0100
0000
,
2000
0000
0001
0000
3010
1000
0100
0000
,
1000
0100
0001
0000
0010
0100
1000
0000
,
0002
0000
1000
0000
0103
0010
1000
0001
,
0100
0010
0100
0010
1000
0001
0010
0001
,
1000
0001
0100
0010
1000
0100
0010
0100
,
1000
0000
0000
0001
0000
0000
0010
0000
0000
0100
0000
0000
1000
0000
0001
0000
0100
0000
0001
0000
0000
0000
0000
0000
,
1000
0100
0001
0100
1000
0100
0001
0100
,
1000
0010
0100
0001
1000
0010
0100
0001
,
1000
0010
0001
0010
1000
0010
0001
0010
,
1000
0100
0010
0001
1000
0100
0010
0001
,
0100
0010
1000
0001
0010
0100
1000
0001
,
0100
0010
1000
0001
0010
0100
1000
0001
,
0100
1000
0100
0001
0010
1000
0010
0001
,
0100
0000
0000
1000
0000
0000
0100
0000
0000
0001
0000
0000
1000
0000
0001
0000
0100
0000
0010
0000
0000
0000
0000
0000
,
2010
3200
0320
0032
,
2003
3002
0203
0320
,
2030
3002
0023
0230
,
2300
3020
0032
0023
,
2030
3002
0203
0320
,
2030
3002
0023
0230
,
2300
3020
0230
0302
,
2003
0000
3002
0000
0103
0000
1001
1001
,
0010
0000
1000
0100
1000
0000
0001
0000
0010
0000
0100
0010
0100
0000
0010
0000
,
0001
0000
0100
0001
0100
0000
0010
0000
1000
0000
0001
1000
0100
0000
0010
0000
,
0001
0000
0100
0001
0100
0000
0010
0000
1000
0000
0100
1000
0100
0000
0010
0000
,
0001
0000
1000
0001
0100
0000
0010
0000
1000
0000
0100
1000
0100
0000
0010
0000
,
0001
0000
1000
0010
0100
0000
0010
0000
1000
0000
0001
0010
0100
0000
0010
0000
,
0001
0000
0100
0010
1000
0000
0100
0000
0010
0000
0100
0010
0001
0000
0100
0000
,
0010
1000
0001
0100
0001
1000
0010
0001
,
0100
0000
0000
0010
0000
0000
1000
0000
0000
0001
0000
0000
1001
0000
0000
0000
;

//---------------dance-single - ----------------
#NOTES:
     dance-single:
     :
     Medium:
     7:
     0.420435,0.468314,0.124354,0.131263,0.017271,426.000000,408.000000,18.000000,19.000000,0.000000,0.000000,0.420435,0.468314,0.124354,0.131263,0.017271,426.000000,408.000000,18.000000,19.000000,0.000000,0.000000:
0000
0000
0000
0000
,
0000
0000
0000
0000
,
0000
0000
0000
0000
,
0000
0000
0000
0000
,
0000
0000
0000
0000
,
0000
0000
0000
0000
,
0000
0000
0000
0000
,
0000
0000
0000
0000
,
1000
0000
1000
0001
0100
0000
0100
0001
,
0010
0000
0010
0100
1000
0000
1000
0010
,
1000
0000
1000
0100
0010
0000
0010
0001
,
0100
0010
1000
0001
,
1000
0000
0100
1000
0010
0000
1000
0001
,
0010
0000
0010
0001
0100
0000
0010
1000
,
0001
0000
0000
0010
0000
0000
0100
0000
0000
1000
0000
0000
0001
0000
1000
0000
,
0001
0000
0000
0100
0000
0000
0010
0000
1000
0000
0001
0000
1000
0000
0000
0000
,
0100
1001
1000
1001
,
1000
0010
0100
0110
,
0001
0011
0100
1001
,
0100
0000
1010
0000
0100
0001
1000
0000
,
0010
0110
1000
1001
,
0010
1001
0010
0011
,
0100
0101
0010
1100
,
0001
0110
2000
3001
,
1000
0100
1000
0000
0001
0100
0001
0000
,
1000
0010
1000
0000
0001
0010
0001
0000
,
0100
0010
0100
0000
0001
1000
0001
0000
,
0010
0001
0010
0000
0100
1000
0100
0000
,
1000
0001
1000
0000
0010
1000
0010
0000
,
0100
0001
0100
0000
0010
1000
0100
0000
,
1000
0100
1000
0000
0001
0010
0001
0000
,
0100
0010
0100
0000
0002
0000
2003
0000
,
3100
1000
0100
1000
0001
1000
0001
1000
,
0002
0203
0320
2030
,
3001
0000
0010
0000
0001
1000
0001
1000
,
0001
0100
0001
0100
1000
0100
1000
0100
,
0001
0000
0100
0000
0010
1000
0100
0010
,
0001
0000
1000
0010
0100
0000
0001
0000
,
1000
0100
0010
1001
,
1000
0000
1001
0000
0010
0000
0100
0001
,
1000
0100
0010
0000
0001
0100
0001
0000
,
1000
0010
0100
0000
0001
0010
0100
0000
,
0010
0000
0001
0000
1000
0001
0100
0001
,
0100
0010
0100
0010
0100
1000
0100
1000
,
0200
0310
2000
3001
,
0020
0130
2000
3001
,
0010
0000
0001
0000
1000
0001
0100
0010
,
1000
0100
0020
0230
,
2300
0000
0000
0000
,
0000
0000
3002
0000
0000
0000
0103
0010
,
1000
0001
0010
0100
,
0020
0000
0032
0000
,
2003
0000
0000
0000
0000
3100
0010
0100
,
0010
0001
0010
0001
0010
0001
0010
0001
,
1000
0001
1000
0001
0100
0001
0100
0001
,
1000
0001
1000
0001
2000
0000
3001
0000
,
1000
0100
0010
0100
1000
0100
1000
0100
,
0010
0001
0010
0001
0010
0001
0010
0001
,
1000
0100
0010
0100
1000
0100
1000
0100
,
1000
0001
1000
0001
0100
0001
0100
0001
,
0100
0010
1000
0010
1000
0010
1000
0010
,
0100
0001
0100
0001
1000
0010
1000
0010
,
0100
0001
0100
0001
1000
0001
1000
0001
,
0100
0010
1000
0001
0100
0010
1000
0000
,
0001
0010
0100
1000
,
0010
0100
0001
1000
,
0100
0010
0001
1000
,
0010
0001
0010
1001
,
0010
0001
0100
1000
,
0100
0010
1000
0100
,
0001
0100
0010
0001
,
1000
0001
0100
1001
,
0100
0001
0100
0001
1000
0100
1000
0100
,
0010
0001
0010
0001
1000
0010
1000
0010
,
0100
0001
0100
0001
1000
0100
1000
0100
,
0010
0001
0010
0001
1000
0010
1000
0010
,
0100
0001
0100
0001
1000
0100
1000
0100
,
0010
0001
0010
0001
1000
0010
1000
0010
,
0100
0001
0100
0001
1000
0100
1000
0100
,
0010
0000
0000
0001
0000
0000
1000
0000
0000
0100
0000
0000
1001
0000
0000
0000
;

//---------------dance-single - ----------------
#NOTES:
     dance-single:
     :
     Easy:
     4:
     0.271408,0.327466,0.082903,0.075994,0.000000,275.000000,263.000000,12.000000,11.000000,0.000000,0.000000,0.271408,0.327466,0.082903,0.075994,0.000000,275.000000,263.000000,12.000000,11.000000,0.000000,0.000000:
0000
0000
0000
0000
,
0000
0000
0000
0000
,
0000
0000
0000
0000
,
0000
0000
0000
0000
,
0000
0000
0000
0000
,
0000
0000
0000
0000
,
0000
0000
0000
0000
,
0000
0000
0000
0000
,
1000
0100
0001
0100
,
0010
0001
1000
0001
,
0100
0010
1000
0001
,
0010
0100
0010
0100
,
1000
0100
0001
0100
,
0010
0001
1000
0010
,
0200
0300
0020
0030
,
1000
0001
0100
1001
,
0001
0010
0001
1000
,
0010
0100
0010
1000
,
0001
0010
0100
0010
,
0001
1000
0100
0010
,
0100
1000
0001
1000
,
0010
0100
0001
0100
,
1000
0100
0010
0100
,
0001
1000
0100
0100
,
0010
0001
1000
0001
,
0010
0100
1000
0100
,
1000
0001
0100
0010
,
1000
0001
0010
0100
,
0010
0001
1000
0001
,
0010
0100
0010
0001
,
1000
0001
0100
0010
,
1000
0001
0100
0100
,
0010
1000
0100
1000
,
0001
0010
0001
1000
,
0001
0100
0010
1000
,
0100
0001
0010
1000
,
0100
0010
0100
1000
,
0001
1000
0001
0010
,
0100
0010
0001
1000
,
0010
1000
0001
0100
,
1000
0100
0010
1000
,
0001
0010
0100
1000
,
0100
0010
0001
0100
,
1000
0010
0001
0100
,
1000
0100
0001
0100
,
1000
0100
0001
0100
,
0010
1000
0010
0100
,
0001
1000
0001
0010
,
0200
0300
2000
3000
,
0001
1000
0010
0100
,
0001
0001
1000
1000
,
0200
0300
0020
0030
,
0001
1000
0010
0100
,
0001
0010
1000
0100
,
0001
0010
1000
0100
,
0001
0010
0100
1000
,
0001
0010
0001
1000
,
0100
1001
0100
1001
,
0001
0100
0001
1000
,
0010
1001
0010
1001
,
1000
0001
0100
0010
,
1000
1001
0100
1001
,
0010
0100
0001
0010
,
0100
1001
0010
0100
,
2002
0000
0000
3003
,
0000
0000
0001
1000
,
0200
0000
0000
0300
,
1000
0001
0100
1001
,
0200
0000
0000
0300
,
0000
0000
0010
1000
,
0200
0000
0000
0300
,
0010
1000
0001
1001
,
0001
0100
0010
0100
,
1000
0100
0001
0100
,
1000
0100
0001
0100
,
0010
0100
0001
0100
,
1000
0010
0100
0010
,
0001
0010
0100
0010
,
1000
0100
0010
0001
,
1001
0000
0000
0000
;

//---------------dance-single - ----------------
#NOTES:
     dance-single:
     :
     Beginner:
     3:
     0.179623,0.382043,0.151988,0.000000,0.000000,182.000000,160.000000,22.000000,0.000000,0.000000,0.000000,0.179623,0.382043,0.151988,0.000000,0.000000,182.000000,160.000000,22.000000,0.000000,0.000000,0.000000:
// measure 0
0000
0000
0000
0000
,  // measure 1
0000
0000
0000
0000
,  // measure 2
0000
0000
0000
0000
,  // measure 3
0000
0000
0000
0000
,  // measure 4
0000
0000
0000
0000
,  // measure 5
0000
0000
0000
0000
,  // measure 6
0000
0000
0000
0000
,  // measure 7
0000
0000
0000
0000
,  // measure 8
0001
0000
1000
0000
,  // measure 9
0001
0000
0010
0000
,  // measure 10
0100
0000
1000
0000
,  // measure 11
0010
0000
1000
0000
,  // measure 12
0100
0000
0010
0000
,  // measure 13
0001
0000
0001
0000
,  // measure 14
1000
0000
1000
0000
,  // measure 15
0100
0000
0010
0000
,  // measure 16
0001
0000
0100
0000
,  // measure 17
1000
1000
1000
0000
,  // measure 18
0010
0000
0100
0000
,  // measure 19
0001
0001
0001
0000
,  // measure 20
1000
0000
0100
0000
,  // measure 21
1000
1000
1000
0000
,  // measure 22
0010
0000
0100
0000
,  // measure 23
0001
0001
0001
0000
,  // measure 24
1000
0000
0100
0000
,  // measure 25
0010
0010
0010
0000
,  // measure 26
0001
0000
1000
0000
,  // measure 27
0100
0100
0100
0000
,  // measure 28
0010
0000
0100
0000
,  // measure 29
1000
1000
1000
0000
,  // measure 30
0001
0000
0100
0000
,  // measure 31
0010
0010
0010
0000
,  // measure 32
1000
0000
0001
0000
,  // measure 33
0100
0100
0100
0000
,  // measure 34
0010
0000
0100
0000
,  // measure 35
0001
0001
0001
0000
,  // measure 36
1000
0000
0100
0000
,  // measure 37
0010
0000
0100
0000
,  // measure 38
1000
0000
0001
0000
,  // measure 39
0010
0000
0100
0000
,  // measure 40
1000
0000
0001
0000
,  // measure 41
0100
0100
0100
0000
,  // measure 42
0010
0000
1000
0000
,  // measure 43
0001
0001
0001
0000
,  // measure 44
0010
0000
0100
0000
,  // measure 45
1000
0000
0001
0000
,  // measure 46
0100
0000
0010
0000
,  // measure 47
1000
0000
0001
0000
,  // measure 48
0100
0000
0100
0000
,  // measure 49
0100
0000
0010
0000
,  // measure 50
1000
0000
1000
0000
,  // measure 51
0001
0000
0001
0000
,  // measure 52
0100
0000
0100
0000
,  // measure 53
0010
0000
0010
0000
,  // measure 54
1000
0000
1000
0000
,  // measure 55
0001
0000
0001
0000
,  // measure 56
1001
0000
0110
0000
,  // measure 57
1001
1001
1001
0000
,  // measure 58
0110
0000
1001
0000
,  // measure 59
0110
0110
0110
0000
,  // measure 60
1001
0000
0110
0000
,  // measure 61
1001
1001
1001
0000
,  // measure 62
0110
0000
1001
0000
,  // measure 63
0110
0110
0110
0110
,  // measure 64
0110
0000
0000
0000
,  // measure 65
0000
0000
1000
1000
,  // measure 66
1000
0000
0000
0000
,  // measure 67
0001
0001
0001
0001
,  // measure 68
0001
0000
0000
0000
,  // measure 69
0000
0000
0100
0100
,  // measure 70
0100
0000
0000
0000
,  // measure 71
0010
0010
0010
0010
,  // measure 72
0010
0000
1000
0000
,  // measure 73
0001
0000
1000
0000
,  // measure 74
0100
0000
0001
0000
,  // measure 75
1000
0000
0001
0000
,  // measure 76
0010
0000
1000
0000
,  // measure 77
0001
0000
1000
0000
,  // measure 78
0100
0000
0001
0000
,  // measure 79
1000
0000
0000
0000
;
