#VERSION:0.83;
#TITLE:CHAOS ASSEMBLY;
#SUBTITLE:;
#ARTIST:OMORI;
#TITLETRANSLIT:;
#SUBTITLETRANSLIT:;
#ARTISTTRANSLIT:;
#GENRE:OMORI;
#ORIGIN:;
#CREDIT:[Ness];
#BANNER:OMORI - CHAOS ASSEMBLY.png;
#BACKGROUND:OMORI - CHAOS ASSEMBLY-bg.png;
#PREVIEWVID:;
#JACKET:OMORI - CHAOS ASSEMBLY-jacket.png;
#CDIMAGE:;
#DISCIMAGE:;
#LYRICSPATH:;
#CDTITLE:;
#MUSIC:OMORI - CHAOS ASSEMBLY.mp3;
#OFFSET:-0.020000;
#SAMPLESTART:7.971362;
#SAMPLELENGTH:16.000000;
#SELECTABLE:YES;
#DISPLAYBPM:120.000000;
#BPMS:0.000=120.000,
80.000=480.000,
96.000=120.000;
#STOPS:;
#DELAYS:;
#WARPS:;
#TIMESIGNATURES:0.000=4=4;
#TICKCOUNTS:0.000=2;
#COMBOS:0.000=1;
#SPEEDS:0.000=1.000=0.000=0;
#SCROLLS:0.000=1.000;
#FAKES:;
#LABELS:0.000=Song Start;
#BGCHANGES:147.000=Defeat1.png=1.000=0=0=1=====,
149.000=Defeat2.png=1.000=0=0=1===CrossFade_Fastest==,
99999=-nosongbg-=1.000=0=0=0 // don't automatically add -songbackground-
;
#KEYSOUNDS:;
#ATTACKS: TIME=0.05:LEN=2.00:MODS=200% Beat,Blink: TIME=0.05:LEN=2.00:MODS=200% Beat,Blink: TIME=0.05:LEN=2.00:MODS=200% Beat,Blink;

//---------------dance-single - [Ness]----------------
#NOTEDATA:;
#CHARTNAME:[Ness];
#STEPSTYPE:dance-single;
#DESCRIPTION:[Ness];
#CHARTSTYLE:;
#DIFFICULTY:Challenge;
#METER:11;
#RADARVALUES:0.818324,0.927084,0.328111,0.328111,1.510677,419.000000,395.000000,24.000000,24.000000,205.000000,0.000000,0.000000,0.000000,0.000000,0.818324,0.927084,0.328111,0.328111,1.510677,419.000000,395.000000,24.000000,24.000000,205.000000,0.000000,0.000000,0.000000,0.000000;
#CREDIT:[Ness];
#ATTACKS:TIME=0.05:LEN=2.00:MODS=200% Beat,Blink:TIME=0.05:LEN=2.00:MODS=200% Beat,Blink:TIME=0.05:LEN=2.00:MODS=200% Beat,Blink:TIME=0.050000:LEN=2.000000:MODS=200% Beat,Blink:TIME=0.050000:LEN=2.000000:MODS=200% Beat,Blink:TIME=0.050000:LEN=2.000000:MODS=200% Beat,Blink:TIME=0.050000:LEN=2.000000:MODS=200% Beat,Blink:TIME=0.050000:LEN=2.000000:MODS=200% Beat,Blink:TIME=0.050000:LEN=2.000000:MODS=200% Beat,Blink;
#DISPLAYBPM:120.000000;
#NOTES:
000M
0000
0000
0000
0000
0000
0000
0000
00M0
0000
0000
0000
0000
0000
0000
0000
0M00
0000
0000
0000
0000
0000
0000
0000
M000
0000
0000
0000
0000
0000
0000
0000
0000
0000
0000
0000
0000
0000
0000
0000
0000
0000
0000
0000
0000
0000
0000
0000
00M0
0000
0000
0000
0000
0000
0000
0000
0000
0000
0000
0000
0000
0000
0000
0000
0000
0000
0000
0000
0000
0000
0000
0000
0M00
0000
0000
0000
0000
0000
0000
0000
0000
0000
0000
0000
0000
0000
0000
0000
0000
0000
0000
0000
0000
0000
0000
0000
000M
0000
0000
0000
0000
0000
0000
0000
0000
0000
0000
0000
M000
0000
0000
0000
0000
0000
0000
0000
0000
0000
0000
0000
00M0
0000
0000
0000
0000
0000
0000
0000
0000
0000
0000
0000
0M00
0000
0000
0000
0000
0000
000M
0000
0000
0000
0000
0000
M000
0000
0000
0000
0000
0000
0000
0000
0000
0000
0000
0000
00M0
0000
0000
0000
0000
0000
0000
0000
0000
0000
0000
0000
0M00
0000
0000
0000
0000
0000
0000
0000
0000
0000
0000
0000
000M
0000
0000
0000
0000
0000
0000
0000
0000
0000
0000
0000
,
00M0
0000
0M00
0000
M000
0000
000M
0000
0000
0000
0000
0000
0M00
0000
0000
0000
0000
0000
00M0
0000
0000
0000
0000
0000
M000
0000
0000
000M
0000
0000
0M00
0000
0000
00M0
0000
0000
M000
0000
0000
0000
0000
0000
000M
0000
0000
0000
0000
0000
,
1000
0000
0000
0000
0000
0000
0000
0000
0010
0000
0000
0000
0000
0000
0000
0000
0100
0000
0000
0000
0000
0000
0000
0000
0001
0000
0000
0000
0000
0000
0000
0000
0000
0000
0000
0000
0000
0000
0000
0000
0000
0000
0000
0000
0000
0000
0000
0000
1000
0000
0000
0000
0000
0000
0000
0000
0000
0000
0000
0000
0000
0000
0000
0000
0000
0000
0000
0000
0000
0000
0000
0000
0001
0000
0000
0000
0000
0000
0000
0000
0000
0000
0000
0000
0000
0000
0000
0000
0000
0000
0000
0000
0000
0000
0000
0000
0010
0000
0000
0000
0000
0000
0000
0000
0000
0000
0000
0000
0100
0000
0000
0000
0000
0000
0000
0000
0000
0000
0000
0000
0010
0000
0000
0000
0000
0000
0000
0000
0000
0000
0000
0000
0001
0000
0000
0000
0000
0000
1000
0000
0000
0000
0000
0000
0001
0000
0000
0000
0000
0000
0000
0000
0000
0000
0000
0000
0100
0000
0000
0000
0000
0000
0000
0000
0000
0000
0000
0000
0010
0000
0000
0000
0000
0000
0000
0000
0000
0000
0000
0000
1000
0000
0000
0000
0000
0000
0000
0000
0000
0000
0000
0000
,
0100
0000
0010
0000
0001
0000
0100
0000
0000
0000
0000
0000
0010
0000
0000
0000
0000
0000
1000
0000
0000
0000
0000
0000
0001
0000
0000
0100
0000
0000
0010
0000
0000
1000
0000
0000
0100
0000
0000
0000
0000
0000
0100
0000
0000
0000
0000
0000
,
1000
0001
0010
0100
1000
0010
0100
0010
1000
0001
0100
0010
1000
0100
0010
0100
,
1000
0001
0010
0100
1000
0010
0100
0010
1000
0100
0010
0001
1000
0100
1000
0001
,
0010
0100
0010
0001
1000
0100
0010
0100
1000
0001
0100
0010
1000
0001
0010
0100
,
0010
0000
0001
0000
1000
0000
0001
0000
0100
0000
0010
0000
0100
0000
0001
0000
1000
0010
1000
0000
0001
0100
0001
0000
1000
0000
0010
0000
0100
0000
0001
0000
,
1000
0100
1000
0001
1000
0100
1000
0001
0010
0001
1000
0001
0010
0100
1000
0001
,
0100
0010
1000
0010
0100
0001
0100
0010
1000
0001
0100
0010
1000
0001
0010
0100
,
1000
0010
0100
0010
1000
0001
1000
0100
1000
0010
0100
0010
1000
0001
0010
0100
,
0010
0001
0100
0001
1000
0001
0010
0100
1000
0010
0100
0001
0010
0100
0010
0001
,
1000
0100
1000
0000
0001
0000
1100
0000
0000
0011
0000
0001
0100
0000
1001
0000
,
0100
0001
1000
0000
0100
0000
1001
0000
0000
1010
0000
0001
0100
0000
0110
0000
,
0001
0100
0001
0000
1100
0000
0011
0000
0000
1000
0000
0010
0100
0000
0101
0000
,
0010
1000
0100
0000
0010
0000
0001
0001
0000
1000
0000
0100
1000
0001
0010
0100
,
1000
0200
2300
3000
0000
0000
0000
0000
0001
0000
0000
0000
1000
0002
2003
3000
0100
0000
0010
0000
0000
0000
0001
0000
0000
0000
1000
0000
0010
0000
0000
0000
,
0100
0002
0203
0300
0000
0000
0000
0000
1000
0000
0000
0000
0010
0200
0320
0030
1000
0000
0001
0000
0000
0000
0010
0000
0000
0000
0100
0000
1000
0000
0001
0000
,
0100
0020
0230
0300
0000
0000
0000
0000
1000
0000
0000
0000
0001
0020
0032
0003
0010
0000
0100
0000
0000
0000
1000
0000
0000
0000
0001
0000
0100
0000
0010
0000
,
1000
0200
2300
3000
0000
0000
0000
0000
0001
0000
0000
0000
0100
0020
0230
0300
0010
0000
1000
0000
0000
0000
0100
0000
0000
0000
0010
0000
0001
0000
0001
0000
,
2000
0000
0000
0MMM
0MMM
0MMM
0MMM
0MMM
0MMM
0MMM
0MMM
0MMM
0MMM
0MMM
0MMM
0MMM
,
0MMM
0MMM
0MMM
0MMM
0MMM
0MMM
0MMM
0MMM
0MMM
0MMM
0MMM
0MMM
0MMM
0MMM
0MMM
0MMM
,
0MMM
0MMM
0MMM
0MMM
0MMM
0MMM
0MMM
0MMM
0MMM
0MMM
0MMM
0MMM
0MMM
0MMM
0MMM
0MMM
,
0MMM
0MMM
0MMM
0MMM
0MMM
0MMM
0MMM
0MMM
0MMM
0MMM
0MMM
0MMM
0MMM
0000
0000
0000
,
3001
0000
0010
0000
0100
0000
1000
0000
0000
0000
0000
0000
0001
0000
0000
0000
0000
0000
1001
0000
0000
0000
0000
0000
1000
0000
0000
0100
0000
0000
1000
0000
0000
0001
0000
0000
0010
0000
0000
0000
0000
0000
0110
0000
0000
0000
0000
0000
,
0100
0000
1000
0000
0010
0000
0100
0000
0000
0000
0000
0000
0001
0000
0000
0000
0000
0000
1001
0000
0000
0000
0000
0000
0001
0000
0000
1000
0000
0000
0010
0000
0000
0100
0000
0000
0010
0000
0000
0000
0000
0000
1010
0000
0000
0000
0000
0000
,
1000
0000
0100
0000
0010
0000
0100
0000
0000
0000
0000
0000
1000
0000
0000
0000
0000
0000
0101
0000
0000
0000
0000
0000
0100
0000
0000
0001
0000
0000
1000
0000
0000
0100
0000
0000
0010
0000
0000
0000
0000
0000
0110
0000
0000
0000
0000
0000
,
0010
0000
0000
0000
0000
0000
0000
0000
0001
0000
0000
0000
0000
0000
0000
0000
1000
0000
0000
0000
0000
0000
0000
0000
0010
0000
0000
0000
0000
0000
0000
0000
0000
0000
0000
0000
0000
0000
0000
0000
0000
0000
0000
0000
0000
0000
0000
0000
0100
0000
0000
0000
0000
0000
0000
0000
0000
0000
0000
0000
0000
0000
0000
0000
0000
0000
0000
0000
0000
0000
0000
0000
0010
0000
0000
0000
0000
0000
0100
0000
0000
0000
0000
0000
0010
0000
0000
0000
0000
0000
0000
0000
0000
0000
0000
0000
0000
0000
0000
0000
0000
0000
0000
0000
0000
0000
0000
0000
0000
0000
0000
0000
0000
0000
0000
0000
0000
0000
0000
0000
0000
0000
0000
0000
0000
0000
1001
0000
0000
0000
0000
0000
0000
0000
0000
0000
0000
0000
0000
0000
0000
0000
0000
0000
0000
0000
0000
0000
0000
0000
0000
0000
0000
0000
0000
0000
1000
0000
0000
0000
0000
0000
0000
0000
0000
0000
0000
0000
0000
0000
0000
0000
0000
0000
0001
0000
0000
0000
0000
0000
0000
0000
0000
0000
0000
0000
0000
0000
0000
0000
0000
0000
,
0010
0000
0001
0000
1000
0000
0010
0000
0000
0000
0000
0000
0200
0000
0000
0000
0000
0000
0001
0000
0000
0000
0000
0000
0301
0000
0000
0010
0000
0000
0100
0000
0000
1000
0000
0000
0010
0000
0000
0000
0000
0000
1001
0000
0000
0000
0000
0000
,
0100
0000
1000
0000
0001
0000
0010
0000
0000
0000
0000
0000
0200
0000
0000
0000
0000
0000
1000
0000
0000
0000
0000
0000
1300
0000
0000
0001
0000
0000
0100
0000
0000
0010
0000
0000
1000
0000
0000
0000
0000
0000
0101
0000
0000
0000
0000
0000
,
1000
0000
0100
0000
0010
0000
0001
0000
0000
0000
0000
0000
2000
0000
0000
0000
0000
0000
0010
0000
0000
0000
0000
0000
3010
0000
0000
0100
0000
0000
0001
0000
0000
1000
0000
0000
0010
0000
0000
0000
0000
0000
1100
0000
0000
0000
0000
0000
,
0010
0000
0000
0000
0000
0000
0000
0000
0001
0000
0000
0000
0000
0000
0000
0000
1000
0000
0000
0000
0000
0000
0000
0000
0100
0000
0000
0000
0000
0000
0000
0000
0000
0000
0000
0000
0000
0000
0000
0000
0000
0000
0000
0000
0000
0000
0000
0000
0020
0000
0000
0000
0000
0000
0000
0000
0000
0000
0000
0000
0000
0000
0000
0000
0000
0000
0000
0000
0000
0000
0000
0000
0130
0000
0000
0000
0000
0000
0010
0000
0000
0000
0000
0000
0100
0000
0000
0000
0000
0000
0000
0000
0000
0000
0000
0000
0000
0000
0000
0000
0000
0000
0000
0000
0000
0000
0000
0000
0000
0000
0000
0000
0000
0000
0000
0000
0000
0000
0000
0000
0000
0000
0000
0000
0000
0000
1001
0000
0000
0000
0000
0000
0000
0000
0000
0000
0000
0000
0000
0000
0000
0000
0000
0000
0000
0000
0000
0000
0000
0000
0000
0000
0000
0000
0000
0000
1000
0000
0000
0000
0000
0000
0000
0000
0000
0000
0000
0000
0000
0000
0000
0000
0000
0000
0001
0000
0000
0000
0000
0000
0000
0000
0000
0000
0000
0000
0000
0000
0000
0000
0000
0000
,
0100
0000
0001
0000
1000
0000
0010
0000
0000
0000
0000
0000
0200
0000
0000
0000
0000
0000
1000
0000
0000
0000
0000
0000
1300
0000
0000
0100
0000
0000
0001
0000
0000
1000
0000
0000
0001
0000
0000
0000
0000
0000
0110
0000
0000
0000
0000
0000
,
0001
0000
0010
0000
0100
0000
1000
0000
0000
0000
0000
0000
0020
0000
0000
0000
0000
0000
0001
0000
0000
0000
0000
0000
0031
0000
0000
0010
0000
0000
1000
0000
0000
0010
0000
0000
0100
0000
0000
0000
0000
0000
1001
0000
0000
0000
0000
0000
,
0100
0000
0001
0000
1000
0000
0100
0000
0000
0000
0000
0000
0020
0000
0000
0000
0000
0000
1000
0000
0000
0000
0000
0000
1030
0000
0000
0010
0000
0000
0100
0000
0000
0010
0000
0000
0001
0000
0000
0000
0000
0000
0011
0000
0000
0000
0000
0000
,
0001
0000
0000
0000
0000
0000
0000
0000
0100
0000
0000
0000
0000
0000
0000
0000
0010
0000
0000
0000
0000
0000
0000
0000
1000
0000
0000
0000
0000
0000
0000
0000
0000
0000
0000
0000
0000
0000
0000
0000
0000
0000
0000
0000
0000
0000
0000
0000
0010
0000
0000
0000
0000
0000
0000
0000
0000
0000
0000
0000
0000
0000
0000
0000
0000
0000
0000
0000
0000
0000
0000
0000
0110
0000
0000
0000
0000
0000
0000
0000
0000
0000
0000
0000
0000
0000
0000
0000
0000
0000
0000
0000
0000
0000
0000
0000
1000
0000
0000
0000
0000
0000
0010
0000
0000
0000
0000
0000
1000
0000
0000
0000
0000
0000
0000
0000
0000
0000
0000
0000
0001
0000
0000
0000
0000
0000
0100
0000
0000
0000
0000
0000
0001
0000
0000
0000
0000
0000
0000
0000
0000
0000
0000
0000
0010
0000
0000
0000
0000
0000
0000
0000
0000
0000
0000
0000
0100
0000
0000
0000
0000
0000
0000
0000
0000
0000
0000
0000
1000
0000
0000
0000
0000
0000
0000
0000
0000
0000
0000
0000
0001
0000
0000
0000
0000
0000
0000
0000
0000
0000
0000
0000
,
1000
0000
0000
0000
,
0000
0000
0000
0000
,
0000
0000
0000
MMMM
;

//---------------dance-single - ----------------
#NOTEDATA:;
#CHARTNAME:[Ness];
#STEPSTYPE:dance-single;
#DESCRIPTION:[Ness];
#CHARTSTYLE:;
#DIFFICULTY:Hard;
#METER:7;
#RADARVALUES:0.464824,0.516775,0.464824,0.095699,0.150384,238.000000,204.000000,34.000000,7.000000,0.000000,0.000000,0.000000,0.000000,0.000000,0.464824,0.516775,0.464824,0.095699,0.150384,238.000000,204.000000,34.000000,7.000000,0.000000,0.000000,0.000000,0.000000,0.000000;
#CREDIT:[Ness];
#DISPLAYBPM:120.000000;
#NOTES:
0000
0000
0000
0000
,
0000
0000
0000
0000
,
1000
0100
1000
0001
0010
0100
0010
0100
,
0010
0001
0100
1000
0100
0001
0010
0010
,
0100
1100
0000
1001
0000
0101
0000
1001
,
0000
1100
0000
1001
0000
0010
0001
0100
,
0000
0101
0000
1001
0000
1100
0000
1001
,
0000
0101
0000
1001
0001
1000
0010
0100
,
0001
0011
0000
1001
0000
1010
0000
1001
,
0000
0011
0000
1001
0000
0010
1000
0100
,
0000
1010
0000
0110
0000
0101
0000
1001
,
0000
0011
0000
0110
0100
1000
0001
0100
,
0001
1000
0001
0000
0100
0000
0100
0000
0000
0010
0000
0000
1000
0000
0001
0000
,
0010
0001
0010
0000
0100
0000
1000
0000
0000
0010
0000
0000
0100
0000
0001
0000
,
1000
0100
1000
0000
0010
0000
0100
0000
0000
0001
0000
0000
0010
0000
0100
0000
,
1000
0001
1000
0000
0010
0000
0100
0001
0000
1000
0000
0010
0100
0000
0001
0000
,
1001
0000
0000
0000
2010
0000
0000
0000
3001
0100
0000
0010
0000
0100
0001
0000
,
1001
0000
0000
0000
0012
0000
0000
0000
1003
0100
0000
0010
0000
0001
0100
0000
,
0110
0000
0000
0000
1020
0000
0000
0000
1030
0001
0000
0010
0000
0100
0010
0000
,
1001
0000
0000
0000
0021
0000
0000
0000
0031
1000
0000
0010
0000
0100
0010
0000
,
0220
0000
0000
0000
,
0000
0000
0000
0000
,
0000
0000
0000
0000
,
0000
0000
0330
0000
,
0001
0100
0001
0100
0010
0100
0001
0000
,
1000
0010
0100
0001
1000
0010
1000
0000
,
0100
1000
0001
0010
0100
1000
0100
0000
,
0010
0001
1000
0010
0200
0000
0000
0000
,
0310
1000
0100
0000
1000
0001
0100
0000
,
0010
1000
0100
0001
0100
1000
0010
0000
,
0100
0001
1000
0000
0100
1000
0001
0000
,
0010
0001
1000
0010
0100
0001
1000
0000
,
0100
1000
0010
0100
0001
0010
0001
1000
,
0010
0100
0010
1000
0100
0010
0100
1000
,
0001
0010
0100
1000
0010
1000
0001
0010
,
1000
0010
0100
0010
0001
1000
0001
0100
,
1001
0000
0000
0000
;

//---------------dance-single - ----------------
#NOTEDATA:;
#CHARTNAME:[Ness];
#STEPSTYPE:dance-single;
#DESCRIPTION:[Ness];
#CHARTSTYLE:;
#DIFFICULTY:Medium;
#METER:5;
#RADARVALUES:0.310534,0.369125,0.300768,0.054685,0.000000,159.000000,137.000000,22.000000,4.000000,0.000000,0.000000,0.000000,0.000000,0.000000,0.310534,0.369125,0.300768,0.054685,0.000000,159.000000,137.000000,22.000000,4.000000,0.000000,0.000000,0.000000,0.000000,0.000000;
#CREDIT:[Ness];
#DISPLAYBPM:120.000000;
#NOTES:
0000
0000
0000
0000
,
0000
0000
0000
0000
,
1000
0001
0100
0010
,
1000
0001
0010
0100
,
1000
1010
1001
0010
,
0001
0000
0101
0000
1001
0000
0010
0001
,
1000
1010
0110
1000
,
0001
0000
0101
0000
0110
0000
0001
0100
,
0001
1100
0110
0010
,
0001
0000
1001
0000
0110
0000
1000
0001
,
0100
1010
1100
0100
,
0010
0101
0011
0100
,
0010
0000
1000
0000
0000
0001
1000
0000
,
0001
0000
0010
0000
0000
0100
0010
0000
,
0100
0000
1000
0000
0000
0001
1000
0000
,
0010
0000
0100
0000
0000
0001
1000
0000
,
1001
0000
0010
0000
0001
0100
0001
0000
,
1001
0000
0010
0000
1000
0100
1000
0000
,
1100
0000
0010
0000
0100
0001
1000
0000
,
0101
0000
0010
0000
0100
1000
0001
0000
,
2002
0000
0000
0000
,
0000
0000
0000
0000
,
0000
0000
0000
0000
,
0000
0000
3003
0000
,
0001
0000
1000
0000
0010
0100
0010
0000
,
1000
0000
0001
0000
0100
0010
1000
0000
,
0001
0000
1000
0000
0100
0010
0001
0000
,
0010
0100
2000
0000
,
3001
0000
1000
0000
0010
0100
0001
0000
,
1000
0000
0001
0000
1000
0010
0100
0000
,
0010
0000
1000
0000
0100
1000
0001
0000
,
0100
0010
0200
0000
,
0301
0000
0010
0000
0001
1000
0100
0000
,
0010
0000
0100
0000
1000
0001
0100
0000
,
0010
0000
0100
0000
0010
1000
0001
0000
,
1000
0000
0100
0000
0010
0100
0010
0000
,
1001
0000
0000
0000
;

//---------------dance-single - ----------------
#NOTEDATA:;
#CHARTNAME:[Ness];
#STEPSTYPE:dance-single;
#DESCRIPTION:[Ness];
#CHARTSTYLE:;
#DIFFICULTY:Easy;
#METER:3;
#RADARVALUES:0.195304,0.221475,0.000000,0.068356,0.000000,100.000000,100.000000,0.000000,5.000000,0.000000,0.000000,0.000000,0.000000,0.000000,0.195304,0.221475,0.000000,0.068356,0.000000,100.000000,100.000000,0.000000,5.000000,0.000000,0.000000,0.000000,0.000000,0.000000;
#CREDIT:[Ness];
#DISPLAYBPM:120.000000;
#NOTES:
// measure 0
0000
0000
0000
0000
,  // measure 1
0000
0000
0000
0000
,  // measure 2
0001
0100
1000
0100
,  // measure 3
0001
0100
0010
0000
,  // measure 4
1000
0100
1000
0000
,  // measure 5
1000
0001
0100
0000
,  // measure 6
0001
0100
0001
0000
,  // measure 7
0010
0001
0100
0000
,  // measure 8
0010
0100
0001
0000
,  // measure 9
1000
0010
0100
0000
,  // measure 10
0010
1000
0100
0000
,  // measure 11
0010
0100
1000
0000
,  // measure 12
0002
0000
1000
1003
,  // measure 13
0200
0000
0010
0310
,  // measure 14
2000
0000
0001
3001
,  // measure 15
0020
0000
0230
0000
,  // measure 16
1300
0100
1000
0000
,  // measure 17
0001
0010
0100
0000
,  // measure 18
0010
0001
0010
0000
,  // measure 19
0001
1000
0010
0000
,  // measure 20
0100
0000
0000
0000
,  // measure 21
0000
0000
0000
0000
,  // measure 22
0000
0000
0000
0000
,  // measure 23
0000
0000
0000
0000
,  // measure 24
0100
0001
0010
0100
,  // measure 25
0010
0001
0100
0000
,  // measure 26
0010
1000
0001
1000
,  // measure 27
0010
0100
0001
0000
,  // measure 28
1000
0100
1000
0001
,  // measure 29
0010
0100
1000
0000
,  // measure 30
0001
0010
0001
1000
,  // measure 31
0100
0010
0001
0000
,  // measure 32
1000
0001
1000
0010
,  // measure 33
1000
0100
1000
0001
,  // measure 34
0010
0001
1000
0001
,  // measure 35
0100
0001
1000
0010
,  // measure 36
0100
0000
0000
0000
;

//---------------dance-single - ----------------
#NOTEDATA:;
#CHARTNAME:[Ness];
#STEPSTYPE:dance-single;
#DESCRIPTION:[Ness];
#CHARTSTYLE:;
#DIFFICULTY:Beginner;
#METER:1;
#RADARVALUES:0.099605,0.147650,0.013671,0.000000,0.000000,51.000000,50.000000,1.000000,0.000000,0.000000,0.000000,0.000000,0.000000,0.000000,0.099605,0.147650,0.013671,0.000000,0.000000,51.000000,50.000000,1.000000,0.000000,0.000000,0.000000,0.000000,0.000000,0.000000;
#CREDIT:[Ness];
#DISPLAYBPM:120.000000;
#NOTES:
// measure 0
0000
0000
0000
0000
,  // measure 1
0000
0000
0000
0000
,  // measure 2
0010
0000
0010
0000
,  // measure 3
0010
0000
0100
0000
,  // measure 4
0001
0000
0000
0000
,  // measure 5
1000
0000
0000
0000
,  // measure 6
0010
0000
0000
0000
,  // measure 7
0100
0000
0000
0000
,  // measure 8
0001
0000
0000
0000
,  // measure 9
1000
0000
0000
0000
,  // measure 10
0010
0000
0000
0000
,  // measure 11
0100
0000
0000
0000
,  // measure 12
0001
0000
0000
0000
,  // measure 13
0001
0000
0000
0000
,  // measure 14
0010
0000
0000
0000
,  // measure 15
1000
0000
0100
0000
,  // measure 16
1000
0000
1000
0000
,  // measure 17
0010
0000
0010
0000
,  // measure 18
0100
0000
0100
0000
,  // measure 19
0001
0000
0001
0000
,  // measure 20
0000
0000
0000
0000
,  // measure 21
0000
0000
0000
0000
,  // measure 22
0000
0000
0000
0000
,  // measure 23
0000
0000
0000
0000
,  // measure 24
0010
0000
0010
0000
,  // measure 25
0100
0000
0100
0000
,  // measure 26
0010
0000
0010
0000
,  // measure 27
0100
0000
0100
0000
,  // measure 28
1000
0000
1000
0000
,  // measure 29
0001
0000
0001
0000
,  // measure 30
1000
0000
1000
0000
,  // measure 31
0001
0000
0001
0000
,  // measure 32
0100
0000
0100
0000
,  // measure 33
0010
0000
0010
0000
,  // measure 34
0100
0000
0100
0000
,  // measure 35
0010
0000
0010
0000
,  // measure 36
1001
0000
0000
0000
;
