#TITLE:ゾナパラ;
#SUBTITLE:[WHY! パラパラ・リミックス];
#ARTIST:ゾベッカ;
#TITLETRANSLIT:ZONAPARA;
#SUBTITLETRANSLIT:[WHY! PARAPARA REMIX];
#ARTISTTRANSLIT:ZOBEKKA;
#BANNER:ZONAPARA [WHY! PARAPARA REMIX].png;
#BACKGROUND:ZONAPARA [WHY! PARAPARA REMIX]-bg.png;
#CDTITLE:./CDTITLES/THE SUPER KIDS STATION SINGLE.png;
#MUSIC:ZONAPARA [WHY! PARAPARA REMIX].ogg;
#SAMPLESTART:19.56;
#SAMPLELENGTH:15;
#DISPLAYBPM:158;
#BPMS:0=157.98;

//---------------dance-single - ----------------
#NOTES:
     dance-single:
     :
     Easy:
     1:
     :
0000
0000
0000
0000
,
0000
0000
0000
0000
,
0000
0000
0000
0000
,
0000
0000
0000
0000
,
0000
0000
0000
0000
,
0001
0000
0000
0000
,
1000
0000
0000
0000
,
0001
0000
0000
0000
,
1000
0000
0000
0000
,
0001
0000
0000
0000
,
1000
0000
0000
0000
,
0001
0000
0000
0000
,
1000
0000
0000
0000
,
0000
0000
0000
0000
,
0000
0000
0000
0000
,
0001
0000
1000
0000
,
0000
0000
0000
0000
,
0000
0000
0000
0000
,
0000
0000
0000
0000
,
0001
0000
1000
0000
,
0000
0000
1001
0000
,
0000
0000
0000
0000
,
1000
0000
0000
0000
,
0001
0000
0000
0000
,
1000
0000
0000
0000
,
0001
0000
0000
0000
,
1000
0000
0000
0000
,
0001
0000
0000
0000
,
1000
0000
0000
0000
,
0001
0000
1000
0000
,
0000
0000
0000
0000
,
0001
0000
1000
0000
,
0000
0000
0000
0000
,
0001
0000
1000
0000
,
0000
0000
0000
0000
,
0001
0000
1000
0000
,
0000
0000
0000
0000
,
1000
0000
0001
0000
,
1000
0000
0001
0000
,
1000
0000
0001
0000
,
1000
0000
0000
0000
,
0000
0000
0000
0000
,
0001
0000
0000
0000
,
0001
0000
1000
0000
,
0001
0000
1000
0000
,
0000
0000
0000
0000
,
0000
0000
0000
0000
,
0001
0000
1000
0000
,
0000
0000
0000
0000
,
0001
0000
0000
0000
,
1000
0000
0000
0000
,
0001
0000
1000
0000
,
0000
0000
1001
0000
,
0000
0000
0000
0000
,
1000
0000
0000
0000
,
0001
0000
1000
0000
,
0000
0000
0000
0000
,
0001
0000
0000
0000
,
1000
0000
0000
0000
,
0001
0000
1000
0000
,
0001
0000
1000
0000
,
0001
0000
1000
0000
,
0000
0000
1001
0000
;

//---------------dance-single - ----------------
#NOTES:
     dance-single:
     :
     Medium:
     4:
     :
0000
0000
0000
0000
,
0000
0000
0000
0000
,
0000
0000
0000
0000
,
0000
0000
0000
0000
,
0000
0000
0000
0000
,
0001
0000
0000
1001
,
1000
0000
0000
1001
,
0001
0000
0000
1001
,
1000
0000
0001
0000
,
1000
0000
0000
1001
,
0001
0000
0000
1001
,
1000
0000
0000
1001
,
0000
0000
0000
0000
,
0001
0100
0100
0100
,
1000
0100
0100
0100
,
0001
0100
1000
0100
,
0001
1000
0110
0000
,
1000
0100
1000
1000
,
0001
0100
0001
0001
,
0100
1000
0100
0001
,
1001
1000
0011
0000
,
0000
0000
0000
0000
,
1000
0000
0000
1001
,
0001
0000
0000
1001
,
1000
0000
0001
0000
,
0001
0000
0000
1001
,
1000
0000
0000
1001
,
0001
0000
0000
1001
,
0000
0000
0000
0000
,
0001
0100
1000
0100
,
0001
0000
0001
0000
,
1000
0100
0001
0100
,
1000
0000
1000
0000
,
0100
0001
0100
1000
,
0001
0000
0001
0000
,
0100
1000
0100
0001
,
1000
0000
1000
0000
,
0010
0001
0100
0000
,
0010
1000
0100
0000
,
0001
0000
1000
0000
,
0001
0000
1000
0000
0010
0010
0000
0001
,
0000
0000
0000
0000
,
1000
0000
0000
0000
,
0001
1000
0110
1001
,
0110
1001
0000
0110
,
1000
0001
0100
0100
,
0001
1000
0100
0100
,
0100
0001
0100
1000
,
0001
1000
0110
0000
,
1000
0100
1000
0001
,
0001
0100
0001
1000
,
0001
1000
0010
0100
,
1001
1000
0011
0000
,
0000
0000
0000
0000
,
1000
0100
0100
0100
,
1000
0001
0010
0100
,
0110
1001
0110
0000
,
1000
0100
1000
0001
,
0001
1000
0100
1001
,
0001
1000
0100
1001
,
0001
1000
0100
1001
,
0001
1000
0010
0100
,
1001
1000
0011
0000
;

//---------------dance-single - ----------------
#NOTES:
     dance-single:
     :
     Hard:
     6:
     :
0000
0000
0000
0000
,
0000
0000
0000
0000
,
0000
0000
0000
0000
,
0000
0000
0000
0000
,
0000
0000
0000
0000
,
0001
0000
0001
1001
,
1000
0000
1000
1001
,
0001
0000
0001
1001
,
1000
0100
0001
0100
,
1000
0000
1000
1001
,
0001
0000
0001
1001
,
1000
0000
1000
1001
,
0000
0000
0000
0000
,
0001
0100
0100
0100
,
1000
0100
0100
0100
,
0001
0100
1000
0100
,
1000
0000
0001
1000
0100
0000
0000
0000
,
1000
0100
1000
0101
,
0001
0100
0001
1100
,
0100
1000
0010
0100
,
1000
0001
1000
0000
0011
0000
0000
0000
,
0000
0000
0000
0000
,
1000
0000
1000
1001
,
0001
0000
0001
1001
,
1000
0100
0001
0100
,
1000
0000
1000
1001
,
0001
0000
0001
1001
,
1000
0000
1000
1001
,
0000
0000
0000
0000
,
0001
0100
1000
0100
,
0101
0000
0001
0000
,
1000
0100
0001
0100
,
1100
0000
1000
0000
,
0001
0010
1000
0010
,
0101
0000
0001
0000
,
1000
0010
0001
0010
,
1100
0000
1000
0000
,
0010
0001
0100
1000
,
0010
1000
0100
0001
,
0010
0001
0100
0000
0010
1000
0100
0000
,
0001
0000
1000
0000
0001
1000
0000
0101
,
0000
0000
0000
0000
,
1100
0000
0000
0000
,
0001
1000
0110
1001
,
0110
0000
1001
0000
0010
0100
0010
0000
,
0001
0100
0100
0100
,
1000
0100
0100
0100
,
0001
0100
1000
0100
,
1000
0000
0001
1000
0100
0000
0000
0000
,
1000
0100
1000
0101
,
0001
0100
0001
1100
,
0001
1000
0010
0100
,
1000
0001
1000
0000
0011
0000
0000
0000
,
0000
0000
0000
0000
,
1000
0100
0001
0100
,
0001
1000
0010
0001
,
0001
0000
1000
0001
0100
0000
0000
0000
,
1000
0100
1000
0101
,
0001
1000
0100
0101
,
0001
1000
0100
0101
,
0001
1000
0100
0101
,
0001
1000
0010
0100
,
1000
0001
1000
0000
0011
0000
0000
0000
;

//---------------dance-double - ----------------
#NOTES:
     dance-double:
     :
     Easy:
     6:
     :
00000000
00000000
00000000
00000000
,
00000000
00000000
00000000
00000000
,
00000000
00000000
00000000
00000000
,
00000000
00000000
00000000
00000000
,
00000000
00000000
00000000
00000000
,
00000100
00000000
00000000
00010000
,
00100000
00000000
00000000
00001000
,
00000100
00000000
00000000
00011000
,
00010000
00000000
00001000
00000000
,
00000010
00000000
00000000
00010000
,
01000000
00000000
00000000
00001000
,
00000010
00000000
00000000
00011000
,
00000000
00000000
00000000
00000000
,
00000001
00000100
00000100
00000100
,
00001000
00000100
00000100
00000100
,
00000001
00000100
00001000
00100000
,
10000000
01000000
01100000
00000000
,
00100000
00001000
00010000
00000100
,
00000010
00010000
00001000
01000000
,
10000000
01000000
00010000
00001000
,
00011000
00000100
00101000
00000000
,
00000000
00000000
00000000
00000000
,
00100000
00000000
00000000
00001000
,
00000100
00000000
00000000
00011000
,
00010000
00000000
00001000
00000000
,
00000010
00000000
00000000
00010000
,
01000000
00000000
00000000
00001000
,
00000010
00000000
00000000
00011000
,
00000000
00000000
00000000
00000000
,
00000001
00000100
00001000
00000100
,
00000001
00000000
00000000
00000000
,
10000000
01000000
00010000
01000000
,
10000000
00000000
00000000
00000000
,
00000100
00000001
00000100
00001000
,
00010000
00000000
01000000
00000000
,
01000000
10000000
01000000
00010000
,
00001000
00000000
00000100
00000000
,
00000010
00000001
00001000
00000000
,
00100000
10000000
00010000
00000000
,
00001000
00000000
00010000
00000000
,
00000010
00000000
00010000
00000000
00001000
00001000
00000000
00000000
,
00000001
00000000
00000000
00000000
,
10000000
00000000
00000000
00000000
,
00001000
00010000
00011000
00000010
,
00011000
00100000
00010000
00000010
,
00000001
00000100
00000100
00000100
,
00001000
00000100
00000100
00000100
,
00000001
00000100
00001000
00100000
,
10000000
01000000
01100000
00000000
,
00100000
00001000
00010000
00000100
,
00000010
00010000
00001000
01000000
,
10000000
01000000
00010000
00001000
,
00011000
00000100
00101000
00000000
,
00000000
00000000
00000000
00000000
,
10000000
01000000
10000000
00010000
,
10000000
01000000
00010000
00000010
,
00000001
00000100
00000110
00000000
,
00000001
00000100
00000001
00001000
,
00000010
00000001
00000100
00001000
,
00100000
10000000
01000000
00010000
,
00000010
00000001
00000100
00001000
,
00100000
00010000
00010000
00010000
,
00011000
00001000
00010100
00000000
;
