#TITLE:WHY!;
#SUBTITLE:~THE ZONA'S SONG~;
#ARTIST:怪人ゾナー;
#ARTISTTRANSLIT:MORIKUBO SHOUTAROU;
#BANNER:WHY! ~THE ZONA'S SONG~.png;
#BACKGROUND:WHY! ~THE ZONA'S SONG~-bg.png;
#CDTITLE:./CDTITLES/OHA STUDIO BEST ~VOL.1~.png;
#MUSIC:WHY! ~THE ZONA'S SONG~.ogg;
#SAMPLESTART:6.4;
#SAMPLELENGTH:15;
#DISPLAYBPM:180;
#BPMS:0=180.08;

//---------------dance-single - ----------------
#NOTES:
     dance-single:
     :
     Easy:
     6:
     :
0000
0000
0000
0000
,
0000
0000
0000
0000
,
0000
0000
0000
0000
,
0000
0000
0000
0000
,
0000
0000
0000
0000
,
0010
0001
0100
0100
,
0001
1000
0100
0000
,
1000
0010
0100
0001
,
0010
0001
0100
1000
,
0010
1000
0100
0100
,
1000
0001
0100
0000
,
0001
0010
0100
1000
,
0010
1000
0100
0000
,
0010
0000
0001
0000
,
0100
0000
1000
0000
,
1000
0001
0010
0100
,
1001
0000
0000
0000
,
1000
0100
0001
0100
,
1000
0100
0001
0100
,
1000
0100
0001
1000
,
0010
0010
0100
0100
,
0001
0010
1000
0001
,
0001
0100
1000
1000
,
0010
0001
0100
1000
,
0010
0001
0100
1000
,
0001
0001
1000
1000
,
0001
0000
1000
0000
,
0001
0010
0001
1000
,
0100
0001
1000
0001
,
0100
0010
0100
0001
,
0100
1000
0100
1000
,
0001
1000
1000
1000
,
0010
0010
0000
0010
0000
0010
0000
0000
,
0010
0001
0100
0100
,
0001
1000
0100
0100
,
1000
0010
0100
0001
,
0010
0001
0100
1000
,
0010
1000
0100
0100
,
1000
0001
0100
0100
,
0001
0010
0100
1000
,
0010
1000
0110
0000
,
0010
0000
0000
0000
,
0010
0000
0000
0000
,
0010
0001
0010
1000
,
0010
1000
0001
0010
,
0001
0000
0001
0000
0001
0001
0000
0000
,
0001
0000
0100
0000
,
0001
0010
0100
1000
,
0010
1000
0100
0001
,
1000
0000
1000
0000
1000
1000
0000
0000
,
1000
0000
0100
0000
,
0001
0010
0100
1000
,
0010
1000
0100
0000
,
0001
0100
1000
0000
1000
0000
0000
0000
,
1000
0001
0001
0100
,
1000
0010
0100
0001
,
0010
0001
0100
1000
,
1000
1001
0001
0100
,
0001
1001
1000
0100
,
0001
0010
0100
1000
,
0010
0000
0010
0000
,
0010
0000
0010
0000
,
0010
0001
1000
0100
,
1001
0000
0000
0000
;

//---------------dance-single - ----------------
#NOTES:
     dance-single:
     :
     Medium:
     7:
     :
0000
0000
0000
0000
,
0000
0000
0000
0000
,
0000
0000
0000
0000
,
0000
0000
0000
0000
,
0000
0000
0000
0000
,
0010
0001
0100
0100
,
0001
1000
0001
0100
,
1000
0010
0100
0001
,
0010
0001
0100
1000
,
0010
1000
0100
0000
,
1000
0001
1000
0100
,
0001
0010
0100
1000
,
0010
1000
0101
0000
,
0010
0000
0000
0000
,
0000
0000
0000
0000
,
0010
0000
0010
1000
0010
0000
0000
0000
,
1001
0000
0000
0000
,
1000
0100
0001
0100
,
1000
0000
0100
0000
0001
1000
0100
0000
,
1000
0100
0001
1000
,
0010
0011
0100
1100
,
0001
0010
1000
0001
,
0001
0100
1000
1000
,
0010
0001
0100
1000
,
0010
0001
0100
1000
,
0011
0011
1100
1100
,
0001
0001
1000
1000
,
0001
0010
0001
1000
,
0100
0000
0001
0000
1000
0001
0000
0100
,
0000
0110
0100
0001
,
0100
1000
0100
1000
,
0010
0000
0000
0000
,
0010
1000
0000
0100
0000
0001
0000
1000
,
0010
0001
0100
0100
,
0001
1000
0101
0100
,
1000
0010
0100
0001
,
0010
0001
0100
1000
,
0010
1000
0100
0100
,
1000
0001
1100
0100
,
0001
0010
0100
1000
,
0010
1000
0101
0000
,
0010
0000
1000
0000
,
0010
0000
0001
0000
,
0001
0000
0000
1000
0000
0000
1001
0000
,
0000
0000
0000
0000
,
0010
0000
0001
0000
0100
0100
0000
0000
,
0001
1000
0100
0000
,
1000
0010
0100
0001
,
0010
0001
0100
1000
,
0010
0000
1000
0000
0100
0100
0000
0000
,
1000
0001
0100
0000
,
0001
0010
0100
1000
,
0010
1000
0100
0000
,
1000
0100
0001
0000
0001
0000
0100
0000
,
1000
1001
0001
0100
,
1000
0010
0100
0001
,
0010
0001
0100
1000
,
0001
0100
1000
0000
1000
0000
0100
0000
,
0001
1001
1000
0100
,
0001
0010
0100
1000
,
0000
1000
0001
0000
1000
0001
0000
1000
,
0001
0001
0001
0001
,
0010
1000
0001
0100
,
1001
0000
0000
0000
;

//---------------dance-single - ----------------
#NOTES:
     dance-single:
     :
     Hard:
     8:
     :
0000
0000
0000
0000
,
0000
0000
0000
0000
,
0000
0000
0000
0000
,
0000
0000
0000
0000
,
0000
0000
0000
0000
,
0010
0000
0001
0000
0100
0001
0100
0000
,
0001
1000
0101
0100
,
1000
0001
0010
0000
0100
0000
0001
0000
,
0010
0000
0001
0000
0100
0000
1000
0001
,
0010
0000
1000
0000
0100
0001
0100
0000
,
1000
0001
1100
0100
,
0001
1000
0010
0000
0100
0000
1000
0000
,
0010
1000
0101
0000
,
0010
0000
0010
0001
0010
0000
0100
0000
,
0010
0001
0010
1000
,
0010
0000
0010
1000
0010
0000
0100
0000
,
1001
0000
0000
0000
,
1000
0001
0100
0000
0001
0000
0100
0000
,
1000
0000
0100
0000
0001
1000
0100
0000
,
1000
0100
0001
1000
,
1000
0100
0001
0100
1000
0100
0001
0000
,
0001
0010
1000
0001
,
0001
0000
0100
0000
1000
0001
1000
0000
,
0011
0101
1100
1010
,
0011
0101
1100
1010
,
0001
0001
1000
1000
,
0010
1000
0001
0000
1000
0001
0100
0000
,
0001
0010
0001
1000
,
0100
0000
0001
0000
1000
0001
0000
1000
,
0000
0110
0100
0001
,
0100
1000
0100
1000
,
0001
0010
0001
1000
0100
1000
0001
0100
,
0010
1000
0000
0100
0000
0001
0000
1000
,
0010
0001
0100
0100
,
0001
1000
0101
0100
,
1000
0010
0100
0001
,
0010
0000
0001
0000
0100
0000
1000
0001
,
0010
1000
0100
0100
,
1000
0001
1100
0100
,
0001
0010
0100
1000
,
0010
1000
0101
0000
,
0010
0010
1000
0000
,
0010
1000
0100
0000
0001
0000
0000
0000
,
1001
0000
0000
0110
0000
0000
0001
0000
,
0100
0000
0100
0000
0100
0000
0000
1000
,
0010
0000
0001
0000
0100
0001
0100
0000
,
0001
1000
0101
0100
,
1000
0010
0100
0001
,
0100
0000
1000
0000
0010
0000
0001
1000
,
0010
0000
1000
0000
0100
1000
0100
0000
,
1000
0001
1100
0100
,
0001
1000
0010
0000
0100
0000
1000
0000
,
0100
0001
1010
0000
,
0010
0001
0010
0000
0010
0100
1000
0000
,
0010
1000
0010
0000
0010
0100
0001
0000
,
1000
0010
0100
0001
,
0010
0000
0001
0000
0100
0000
1000
0001
,
0000
0100
0001
1000
0001
0100
0000
1000
,
0000
0100
1000
0001
1000
0100
0000
0000
,
0001
0010
0100
1000
,
0000
0001
0010
0000
0001
1000
0000
0010
,
0100
0010
0100
0010
0100
0010
0100
0000
,
0001
0010
0001
0100
0010
1000
0001
0010
,
0100
0000
0000
0000
;

//---------------dance-double - ----------------
#NOTES:
     dance-double:
     :
     Easy:
     8:
     :
00000000
00000000
00000000
00000000
,
00000000
00000000
00000000
00000000
,
00000000
00000000
00000000
00000000
,
00000000
00000000
00000000
00000000
,
00000000
00000000
00000000
00000000
,
00100000
00010000
00000100
00001000
,
00010000
00010000
01010000
00000000
,
00100000
00010000
00001000
00000100
,
00000010
00000001
00000100
00001000
,
00100000
10000000
01000000
01000000
,
10000000
00010000
11000000
00000000
,
00010000
00001000
00000100
00000001
,
00000010
00001000
00000101
00000000
,
00010000
00000000
00001000
00010000
00001000
00000000
00000000
00000000
,
00011000
00000100
00011000
01000000
,
00001000
00000000
00010000
00001000
00010000
00000000
00000000
00000000
,
01001000
00000000
00000000
00000000
,
10000000
01000000
00010000
00001000
,
00000100
00000001
00000001
00000100
,
00001000
00000100
00010000
00001000
,
00100000
00010000
00001000
00000100
,
00000100
00001000
00010000
00000100
,
00001000
00000100
00001000
00010000
,
00100000
00000000
10000000
00000000
,
01000000
00000000
00010000
00000000
,
00011000
01000000
00011000
00000010
,
00011000
00100000
00011000
00000100
,
00010000
00001000
00010000
00001000
,
00000100
00000000
00000001
00000000
00000100
00010000
00000000
01000000
,
00000000
00100000
01000000
00010000
,
01000000
10000000
01000000
00010000
,
10010000
00000000
00000000
00000000
,
00100000
00010000
00000000
00001000
00000000
00000010
00000000
00000100
,
00000010
00001000
01000000
00010000
,
00001000
00001000
00001100
00000000
,
00000010
00001000
00010000
01000000
,
00100000
10000000
01000000
00010000
,
00000010
00000001
00000100
00000100
,
00000001
00001000
00000101
00000000
,
00001000
00010000
01000000
10000000
,
00100000
00010000
11000000
00000000
,
00100000
00000000
00000000
00000000
,
00000010
00000000
00000000
00000000
,
00000010
00000000
00000000
00010000
00000000
00000000
01100000
00000000
,
00000000
00000000
00000000
00000000
,
00100000
00010000
00000100
00001000
,
00010000
00010000
01010000
01000000
,
00100000
01000000
00001000
00010000
00001000
00000000
00000000
00000000
,
00000010
00000001
00000100
00001000
,
00100000
10000000
01000000
01000000
,
10000000
00010000
11000000
01000000
,
00010000
00001000
00000100
00000001
,
00000010
00001000
00000101
00000000
,
00011000
00000000
01000000
00000000
00010000
01000000
00010000
00000000
,
00011000
00000000
00000100
00000000
00001000
00000100
00001000
00000000
,
00001000
00000010
00000100
00001000
,
00100000
00000000
00010000
00000000
01000000
00000000
10000000
00010000
,
00000000
01000000
00010000
00000000
00000100
00000000
00000000
00001000
,
00000000
00000100
00001000
00000000
01000000
00000000
00000000
00000000
,
00001000
00010000
01000000
01000000
,
00000000
00100000
00001000
00000000
00010000
00000100
00000000
00001000
,
00000001
00000000
00000000
00000000
,
00101000
00010100
00010010
01001000
,
00011000
00000000
00000000
00000000
;
