#TITLE:サヨナラのかわりに;
#ARTIST:おはぐみ;
#TITLETRANSLIT:SAYONARA NO KAWARI NI;
#ARTISTTRANSLIT:OHHAGUMI;
#BANNER:SAYONARA NO KAWARI NI.png;
#BACKGROUND:SAYONARA NO KAWARI NI-bg.png;
#CDTITLE:./CDTITLES/THE SUPER KIDS STATION SINGLE.png;
#MUSIC:SAYONARA NO KAWARI NI.ogg;
#SAMPLESTART:1.48;
#SAMPLELENGTH:15;
#BPMS:0=100;

//---------------dance-single - ----------------
#NOTES:
     dance-single:
     :
     Easy:
     2:
     :
0000
0000
0000
0000
,
0000
0000
0000
0000
,
0000
0000
0000
0000
,
0000
0000
0000
0000
,
0000
0000
0000
0000
,
0010
0000
0000
0000
,
0010
0000
0000
0000
,
1000
0000
0001
0000
,
1000
0000
0000
0000
,
0010
0000
0010
0000
,
0100
0000
0010
0000
,
1000
0000
0001
0000
,
0100
0000
0000
0000
,
0010
0010
0001
0000
,
0100
0000
0000
0000
,
0100
0100
0001
0000
,
0010
0000
0000
0000
,
0010
0000
0001
0000
,
1000
0000
0100
0000
,
0010
0001
0100
0000
,
0100
0000
0000
0000
,
0010
0000
0000
0000
0010
0010
0010
0000
,
0000
0000
0000
0000
,
1000
0000
0000
0000
1000
1000
1000
0000
,
0000
0000
0000
0000
,
0001
0100
0010
0000
,
1000
0100
0010
0000
,
0000
0000
0000
0000
,
0010
0010
0010
0010
,
0010
0000
0010
0000
,
0100
0000
0010
0000
,
1000
0000
0001
0000
,
0010
0000
0000
0000
,
0100
0000
0010
0000
,
0000
1000
0100
0001
,
0001
0000
0000
0000
,
0000
0000
0000
0000
,
0001
0100
1000
0000
,
1000
0100
0001
0000
,
0000
0000
0010
0000
,
1001
0000
0000
0000
;

//---------------dance-single - ----------------
#NOTES:
     dance-single:
     :
     Medium:
     2:
     :
0000
0000
0000
0000
,
0000
0000
0000
0000
,
0000
0000
0000
0000
,
0000
0000
0000
0000
,
0000
0000
0000
0000
,
0010
0001
0100
0000
,
0010
1000
0100
0000
,
0010
0000
0100
0000
,
0010
0000
0000
0000
,
0010
1000
0000
0001
,
0100
1000
0100
0000
,
0000
1000
0100
0001
,
0100
0000
0000
0000
,
1000
0100
1000
0000
,
0010
0000
0100
0000
,
0001
0010
0001
0000
,
0100
0000
0100
0000
,
0010
1000
0100
0000
,
0010
0001
0100
0000
,
1000
0000
0001
0000
,
0000
1000
0100
0001
,
1000
0000
0000
0000
0001
0001
0001
0000
,
0000
0000
0010
0000
,
0001
0000
0000
0000
1000
1000
1000
0000
,
0000
0000
0010
0000
,
0010
1000
0010
0001
,
0010
1000
0010
0001
,
0010
0000
0000
0000
,
0100
0100
0100
0000
,
0001
0000
0010
0000
,
0100
0000
1000
0000
,
0010
0100
1000
0000
,
0010
0100
0001
0000
,
0001
0100
1000
0100
,
0001
0100
1000
0000
,
0010
0000
0100
1000
,
1000
0001
0001
0000
,
1000
0100
0001
0100
,
1000
0100
0001
0100
,
1000
0000
0010
0010
,
1001
0000
0000
0000
;

//---------------dance-single - ----------------
#NOTES:
     dance-single:
     :
     Hard:
     3:
     :
0000
0000
0000
0000
,
0000
0000
0000
0000
,
0000
0000
0000
0000
,
0000
0000
0000
0000
,
0000
0000
0000
0000
,
0010
0000
0100
0000
,
0001
0000
1000
0010
,
0010
0010
1000
0100
,
1000
0000
0000
0000
0001
0000
0000
0000
0000
0000
0000
0000
1000
0001
1000
0000
,
0000
0000
1000
0001
1000
0000
0000
0000
,
1000
0100
0001
0100
,
0001
0000
0001
1000
0001
0000
1000
0100
,
0000
0100
0100
0000
,
0010
0000
0001
1000
1000
0000
0000
0000
,
0010
1000
0001
0000
,
0010
0000
1000
0001
0001
0000
1000
0000
,
0010
0001
1000
0001
,
0100
0000
0010
1000
0100
0000
0100
0000
,
0100
0010
0001
1000
,
0100
0000
0010
0001
0100
0000
0100
0000
,
0000
1000
0001
1000
0010
0000
0100
0000
,
1000
0000
0000
0001
0100
0000
0001
0000
,
0001
0000
0000
1000
0100
0000
1000
0000
,
0010
0000
0000
1000
0100
0000
0001
0000
,
0010
0000
0001
1000
0000
0100
0001
0000
,
0010
0000
1000
0100
1000
0000
1000
0000
,
0010
0000
0001
0100
0001
0000
0001
0000
,
0000
0010
0001
1000
0001
0000
0100
0000
,
1000
0001
0001
0001
,
1000
0100
0001
0100
,
1000
0000
0100
0000
0001
1000
0100
0000
,
0001
0100
1000
0100
,
0001
0000
0100
0000
1000
0001
0100
0000
,
0001
0010
0010
0001
,
1000
0010
1001
0100
,
1000
0010
0000
0100
,
0000
0001
1000
0110
,
1000
0010
0010
1000
,
0001
0010
1001
0100
,
0001
0000
1000
0001
0100
0000
0001
1000
,
0001
0000
0000
0000
;

//---------------dance-double - ----------------
#NOTES:
     dance-double:
     :
     Easy:
     4:
     :
00000000
00000000
00000000
00000000
,
00000000
00000000
00000000
00000000
,
00000000
00000000
00000000
00000000
,
00000000
00000000
00000000
00000000
,
00000000
00000000
00000000
00000000
,
00100000
00000000
00000000
00000000
,
00100000
00000000
00100000
00000000
,
10000000
01000000
00010000
00000000
,
00000100
00001000
00000001
00000000
,
00001000
00000100
00000001
00000100
,
00000001
00000100
00001000
00010000
,
10000000
01000000
01000000
00000000
,
10010000
00000000
01000000
00000000
,
00100000
00010000
00001000
00000100
,
00000001
00000000
00000100
00000000
,
00000010
00001000
00010000
01000000
,
10000000
00000000
01000000
00000000
,
00100000
00000000
00010000
00000000
,
00001000
00000000
00000100
00000000
,
00000010
00001000
00010000
01000000
,
10000000
00000000
00000000
00000000
,
00100000
10000000
01000000
01000000
,
00010000
00000100
00001000
00000000
,
00000010
00000001
00000100
00000100
,
00001000
01000000
00010000
00000000
,
10000000
01000000
00100000
00000000
,
00001000
00010000
00000100
00000000
,
00000000
00000000
00000000
00000000
,
00000001
00001000
00010000
10000000
,
10000000
01000000
00010000
01000000
,
10000000
01000000
00010000
01000000
,
10000000
00000000
00010000
00000000
,
00000100
00000000
00001000
00000000
,
00000001
00000100
00001000
01000000
,
00100000
10000000
01000000
00010000
,
00001000
00000000
00001000
00000000
,
00000100
00010000
00001000
00100000
,
10000000
01000000
00010000
00001000
,
00000010
00000001
00000010
00001000
,
00010000
00000000
00100000
10000000
,
10010000
00000000
00000000
00000000
;
