#TITLE:OHA SKA!;
#ARTIST:おはおはキッズ with イマクニ?;
#ARTISTTRANSLIT:OHA KIDS with IMAKUNI?;
#BANNER:OHA SKA!.png;
#BACKGROUND:OHA SKA!-bg.png;
#CDTITLE:./CDTITLES/OHA STUDIO BEST ~VOL.1~.png;
#MUSIC:OHA SKA!.ogg;
#SAMPLESTART:14.975;
#SAMPLELENGTH:15;
#DISPLAYBPM:190;
#BPMS:0=190.05;

//---------------dance-single - ----------------
#NOTES:
     dance-single:
     :
     Easy:
     5:
     :
0000
0000
0000
0000
,
0000
0000
0000
0000
,
0000
0000
0000
0000
,
0000
0000
0000
0000
,
0000
0000
0000
0000
,
0000
0000
0000
0000
,
0000
0000
0000
0000
,
0000
0000
0000
0000
,
1000
0000
1000
0000
,
0001
0000
0001
0000
,
1000
1000
0001
0001
,
0010
0010
0010
0000
,
1000
0000
0100
0000
,
0001
0000
0100
0000
,
0001
0000
0100
0100
,
1001
0000
0000
0000
,
0001
0000
0100
0000
,
1000
0000
0100
0000
,
1000
0100
0001
0100
,
1001
1001
1001
0000
,
1000
1001
1000
0100
,
1000
0100
0001
0100
,
0001
1001
0001
0100
,
0001
0100
1000
0100
,
1000
1000
0010
0010
,
0100
0001
1000
0100
,
1000
1000
0010
0010
,
0100
1000
1001
0000
,
0000
0000
0000
0000
,
0010
1001
0100
1000
,
0010
1000
0100
0001
,
0010
0000
0010
0000
,
0001
0001
0001
0000
,
0010
1001
0100
0001
,
0010
0001
0100
1000
,
0100
0100
0100
0100
,
1000
0001
1000
0000
,
0100
0000
1000
0000
,
0001
0000
0100
0000
,
0010
0000
1000
0000
,
0001
0000
0010
0000
,
0100
0100
1000
0000
,
1000
1000
0001
0000
,
0001
0001
0100
0000
,
0100
0100
0100
0100
,
1000
1001
0100
0000
,
0001
1000
0001
1000
,
0001
1000
0100
0100
,
0010
0100
0010
0100
,
0001
1001
0100
0000
,
1000
0001
1000
0001
,
0010
0100
0010
0100
,
0010
0010
0010
0000
,
0001
0010
1000
0100
,
0001
1000
1001
0000
;

//---------------dance-single - ----------------
#NOTES:
     dance-single:
     :
     Medium:
     6:
     :
0000
0000
0000
0000
,
0000
0000
0000
0000
,
0000
0000
0000
0000
,
0000
0000
0000
0000
,
0000
0000
0000
0000
,
0000
0000
0000
0000
,
0010
0000
0100
0000
,
0010
0010
0010
0000
,
0001
1000
0001
0000
,
1000
0001
1000
0000
,
0100
0010
0100
0000
0010
0000
0100
0000
,
0010
0010
0110
0000
,
1000
1001
0100
0001
,
0100
0100
0001
0100
,
1000
0001
0100
0000
,
1100
0000
1000
0100
,
0001
1001
0100
1000
,
0100
0100
1000
0100
,
0001
0001
0001
0100
,
0101
1001
1100
0000
,
1000
0000
0100
0000
0001
0100
0001
0000
,
1000
0010
0100
0001
,
1000
0000
0100
0000
1000
0100
1000
0000
,
0100
1000
0010
0001
,
1000
1001
0010
0010
,
1000
0100
0010
0001
,
0100
0001
1000
0010
,
0000
1000
0010
1000
0010
0000
0000
0000
,
0000
0100
0000
0100
,
0010
0110
1000
0001
,
0010
0000
0010
0000
0001
0010
0001
0000
,
0100
0100
0001
1000
,
0100
1000
0100
1000
0100
0000
0000
0000
,
0010
0110
0001
1000
,
0010
0000
0010
0000
1000
0010
1000
0000
,
0100
0100
0010
0010
,
0100
0001
0100
0001
0100
0000
0000
0000
,
0100
0001
0101
0000
,
0100
1000
1100
0000
,
0010
1000
0101
0000
,
0010
0001
1100
0000
,
0000
1000
0001
1000
,
0000
0001
1000
0001
,
0000
1000
0000
1000
,
0000
0001
0000
0001
,
0010
1001
1000
1000
,
0010
1000
0001
0000
0001
0000
0100
0000
,
0010
1001
0100
0001
,
0010
0001
1000
0000
1100
0000
0000
0000
,
1000
1000
0001
0001
,
0100
0010
0100
0000
0110
0000
0000
0000
,
1000
0010
1000
0000
0001
0100
0001
0000
,
0100
0010
0100
0000
0100
0000
0000
0000
,
0010
1000
0001
0000
0100
0001
1000
0000
,
0100
0010
0100
0010
0100
0000
0000
0000
;

//---------------dance-single - ----------------
#NOTES:
     dance-single:
     :
     Hard:
     7:
     :
0000
0000
0000
0000
,
0000
0000
0000
0000
,
0000
0000
0000
0000
,
0000
0000
0000
0000
,
0000
0000
0000
0000
,
0000
0000
0000
0000
,
0000
0000
0000
0000
,
0000
0000
0000
0000
,
0010
1001
1000
0001
,
0100
1000
0001
1000
,
0010
1000
0010
0000
0100
0000
0001
1000
,
0000
0100
0010
0000
0110
0000
0000
0000
,
0100
1100
0010
0010
,
0001
1000
0100
0001
,
0100
0001
0100
0000
0010
1000
0010
0000
,
1001
0000
0000
0000
0100
0010
0100
0000
,
0001
1001
1000
1000
,
0010
0100
0010
0100
,
0010
0000
0010
0000
0100
0000
0001
1000
,
0000
0100
0010
0000
0110
0000
0000
0000
,
0010
1001
1000
0100
,
1000
0010
0100
0001
,
1000
0100
0010
0001
,
0100
0000
0101
0000
0100
0010
0100
0000
,
0010
1001
0001
0100
,
0001
0010
0100
1000
,
0001
0100
0010
1000
,
0000
0100
1000
0100
1000
0000
0000
0000
,
0000
0100
1000
0001
0000
0100
0001
1000
,
0000
1001
0100
0100
,
1000
0001
0100
0000
0001
0000
0001
0000
,
0100
0100
0100
0100
,
0001
1000
0100
1000
0100
0000
0000
0000
,
1000
1001
1000
1000
,
1100
1100
0101
0101
,
0001
1000
0001
0000
0100
0000
0010
1000
,
0000
0001
0100
0000
0101
0000
0000
0000
,
0010
0000
1000
0000
,
0100
0000
0001
0000
,
0010
0000
0001
0000
,
0100
0000
1000
0000
,
0010
1000
0101
0001
,
0010
0001
1100
1000
,
0000
0100
0000
0100
,
0000
1000
0100
1000
0000
0001
0000
0001
,
0100
0110
0010
0010
,
0001
1000
0100
0001
,
0100
0001
1000
0000
0010
1000
0001
0000
,
1000
0000
0001
0000
0100
0010
0100
0000
,
0010
0110
0100
0100
,
1000
0001
0100
1000
,
0010
0100
0010
0000
0100
0000
0010
1000
,
0000
0100
1000
0000
1100
0000
0001
0000
,
1000
0100
1000
0000
0001
0000
1000
0010
,
0000
0100
0001
0000
0101
0000
0000
0000
;

//---------------dance-double - ----------------
#NOTES:
     dance-double:
     :
     Easy:
     7:
     :
00000000
00000000
00000000
00000000
,
00000000
00000000
00000000
00000000
,
00000000
00000000
00000000
00000000
,
00000000
00000000
00000000
00000000
,
00000000
00000000
00000000
00000000
,
00000000
00000000
00000000
00000000
,
00000000
00000000
00000000
00000000
,
00000000
00000000
00000000
00000000
,
10000000
00000000
01000000
00000000
,
00010000
00000000
00001000
00000000
,
00010000
00000000
00001000
00000000
,
00000100
00000100
00000100
00000000
,
00001000
00001001
00000001
00000000
,
00000100
00001000
00010000
00000000
,
10000000
01000000
00010000
01000000
,
10010000
00000000
01000000
01000000
,
00010000
00000000
00001000
00000010
,
00000100
00000000
00000100
00000000
,
00000001
00000100
00001000
00000100
,
00001000
00011000
00010000
00000000
,
00100000
10010000
00100000
00010000
,
00001000
00010000
00001000
00010000
,
01000000
00010000
01000000
10000000
,
00010000
01000000
10000000
01000000
,
10010000
00000000
00100000
00100000
,
01000000
00010000
00001000
00000100
,
00000001
00000000
00001000
00000000
,
00000000
00010000
00000100
00010000
00000100
00000000
00000000
00000000
,
00000000
00000000
00000000
00000000
,
00000010
00001001
00000100
00001000
,
00010000
00100000
10000000
00000000
,
00110000
00000000
00011000
00000000
,
00001000
00000010
00001000
00000010
00001000
00000000
00000000
00000000
,
00001000
00000100
00001000
00000100
,
00000010
00000001
00001000
00000100
,
00010000
00001000
00010000
00000000
01000000
00000000
00000000
00000000
,
00010000
00001000
00010000
00000000
00011000
00000000
00000000
00000000
,
00000010
00000000
00001000
00000000
,
00010000
00000000
01000000
00000000
,
00001000
01000000
00010000
00000100
,
00001000
01000000
00010000
00000100
,
00011000
01000000
00011000
00000100
,
00011000
01010000
00011000
00001100
,
00010000
00001000
00010000
00001000
,
00010000
00001000
00010000
00000000
,
00100000
10010000
01000000
10000000
,
01000000
01000000
10000000
01000000
,
00100000
00010000
01000000
01000000
,
00001000
00010000
00001000
00000000
,
00000100
00000100
00000001
00000001
,
00000010
00000100
00001000
00000001
,
00000100
00000001
00000100
00000000
00000010
00000000
00000010
00000000
,
00001000
00000000
00010000
00001000
00010000
00000000
00000000
00000000
,
10000000
10000000
00010000
00010000
,
01000000
00001000
00010000
00000000
00010100
00000000
00000000
00000000
;
