#TITLE:OHA OHA スターター;
#ARTIST:やまちゃん&レイモンド;
#TITLETRANSLIT:OHA OHA SUTAATAA;
#ARTISTTRANSLIT:YAMACHAN&REIMONDO;
#BANNER:OHA OHA SUTAATAA.png;
#BACKGROUND:OHA OHA SUTAATAA-bg.png;
#CDTITLE:./CDTITLES/OHA STUDIO BEST ~VOL.1~.PNG;
#MUSIC:OHA OHA SUTAATAA.ogg;
#SAMPLESTART:1.63;
#SAMPLELENGTH:15;
#BPMS:0=144;

//---------------dance-single - ----------------
#NOTES:
     dance-single:
     :
     Easy:
     4:
     :
0000
0000
0000
0000
,
0000
0000
0000
0000
,
0000
0000
0000
0000
,
0000
0000
0000
0000
,
0000
0000
0000
0000
,
0000
0000
0000
0000
,
0001
0000
1000
0000
,
0010
1000
0001
1001
,
1000
0000
0001
0000
,
0010
0001
1000
1001
,
0000
0000
0000
0000
,
0001
0000
0100
1000
,
0100
0001
1000
1001
,
1000
0000
0100
0001
,
0100
1000
0001
1001
,
0010
0000
0100
0001
,
0010
0100
1000
0001
,
1001
0000
0110
0000
,
1000
0000
0000
0001
0001
0000
0000
0000
,
1000
0000
0010
0100
,
0001
1000
0001
1001
,
0001
0000
0010
0100
,
1000
0001
1000
1001
,
0100
0000
1000
0010
,
0100
0001
0010
0100
,
0110
0000
1001
0000
,
0001
0000
0000
1000
1000
0000
0000
0000
,
0010
0000
1000
0000
,
0001
0000
0100
0000
,
0010
0010
0100
0100
,
0001
0001
1000
1000
,
0001
0000
0100
0000
,
0001
0100
0001
0100
,
0010
0000
1000
0000
,
0010
1000
0010
1000
,
0001
0000
1000
0000
,
0010
1000
0001
0000
,
1000
0000
1000
0000
,
0001
1000
0100
0000
0001
1000
0100
0000
,
0001
0000
0001
0000
,
0010
0001
1000
1001
,
0001
1000
0010
0100
,
1000
0001
0100
0010
,
0001
0000
1000
0000
,
0010
1000
0001
1001
,
0001
0000
1000
0000
,
0001
0001
0001
0000
1000
1000
1000
0000
,
0010
0001
0010
1000
,
0010
0001
1000
0000
,
0010
1000
0001
0000
,
0100
1000
0100
0001
,
0100
1000
0100
0001
,
1001
0000
0110
0000
,
1001
0000
0110
0000
,
1001
0000
0010
1000
,
0001
1000
0110
1001
;

//---------------dance-single - ----------------
#NOTES:
     dance-single:
     :
     Medium:
     5:
     :
0000
0000
0000
0000
,
0000
0000
0000
0000
,
0000
0000
0000
0000
,
0000
0000
0000
0000
,
0000
0000
0000
0000
,
0000
0000
0000
0000
,
0010
1000
0001
0100
,
0101
0101
1000
0001
,
0010
0001
1000
0100
,
1100
1100
0001
1000
,
0001
0000
1000
0000
,
1001
0000
0010
0100
,
0001
0000
1000
0000
0001
1000
0001
0000
,
1000
0000
0010
0100
,
1000
0000
0001
0000
1000
0001
1000
0000
,
0001
0000
0010
0001
,
0100
1000
0100
0001
,
1000
0001
1001
0000
,
0001
0000
0000
0001
0000
0000
1000
0000
1000
0000
0000
0000
0000
0000
0000
0000
,
1001
0000
0001
0001
,
1000
0000
0010
0000
0100
0001
1000
0000
,
0001
0000
1000
1000
,
0001
0000
0010
0000
0100
1000
0001
0000
,
1000
0000
0010
0010
,
0100
0001
1000
0001
,
0100
0101
1100
0001
,
1000
0000
0000
1000
0000
0000
0001
0000
0001
0000
0000
0000
0000
0000
0000
0000
,
0010
0000
0010
0000
,
0001
0000
1000
0000
,
0100
0000
0100
0000
,
0001
1000
0001
0000
,
0010
0001
1000
0100
,
0010
0001
1000
0100
,
1000
0001
1001
1001
,
0010
0000
0100
0000
0001
1000
0001
1000
,
0010
0100
0001
1000
,
1001
0110
1001
0000
,
0001
0001
1000
1000
,
0100
0001
0100
1000
,
0010
0100
1000
0001
,
0100
0010
0001
1000
,
1001
0000
1001
0000
,
0001
0001
0001
0000
1000
1000
1000
0000
,
0010
1000
1010
0000
,
0100
1000
1100
0000
,
0001
1000
1001
0000
,
0001
0100
0101
0000
,
1000
0010
0100
0001
,
1000
0001
1000
0000
,
0010
0100
0010
0000
,
1000
0010
1000
0001
,
0010
0100
1000
0001
,
1001
0000
1001
0000
,
0001
0001
0001
0000
1000
1000
1000
0000
,
0010
0100
0001
0000
1000
0001
1000
0000
,
1001
0000
0010
0100
;

//---------------dance-single - ----------------
#NOTES:
     dance-single:
     :
     Hard:
     6:
     :
0000
0000
0000
0000
,
0000
0000
0000
0000
,
0000
0000
0000
0000
,
0000
0000
0000
0000
,
0000
0000
0000
0000
,
0000
0000
0000
0000
,
0001
1000
0001
0000
0010
0100
0010
0000
,
0001
0000
1000
0000
0010
1000
0001
0000
,
1000
0001
1000
0000
0010
0100
0010
0000
,
1000
0000
0001
0000
0010
0001
1000
0000
,
0001
0000
1000
0000
,
0101
0100
0010
1000
,
0001
0000
0100
0000
0010
1000
0001
0000
,
1001
1000
0100
0010
,
0001
0000
1000
0000
0010
1000
0001
0000
,
1001
1000
0010
0100
,
0001
0000
1000
0000
0001
1000
0001
0000
,
0100
0100
0001
0000
,
0101
0000
0000
0100
0000
0000
0001
0000
0100
0000
0000
0000
0000
0000
0000
0000
,
1100
0100
0010
0001
,
1000
0000
0100
0000
0010
0001
1000
0000
,
1001
0001
1000
0001
,
0010
0000
0010
0000
0100
1000
0001
0000
,
1001
1000
0001
1000
,
0010
0000
0010
0000
0100
0001
1000
0000
,
0100
0100
1000
0000
,
1100
0000
0000
0100
0000
0000
1000
0000
0100
0000
0000
0000
0000
0000
0000
0000
,
1000
0000
0001
0000
,
1000
0000
0001
0000
,
0010
0001
0001
0100
,
1000
0000
0100
0000
0001
1000
0001
0000
,
1000
0000
0001
0000
,
0101
0101
1000
0000
,
1100
1100
0001
0000
,
1001
0000
1001
0000
0001
0001
1000
1000
,
0000
0000
0000
0000
0001
0100
1000
0000
,
0000
0000
0000
0000
0100
0001
1000
0000
,
0001
0001
1000
1000
,
0010
0010
1000
0000
0100
0100
1000
0000
,
0001
1000
0001
1000
,
0001
0001
0001
0000
1000
1000
1000
0000
,
0001
0010
0100
1000
,
0010
0100
0001
1000
,
0001
0001
1000
1000
,
0010
0010
1000
0000
0100
0100
1000
0000
,
0001
1000
0001
1000
,
0001
0001
0001
0000
1000
1000
1000
0000
,
0100
0001
0100
1000
,
1001
1001
0110
0000
,
0110
0110
1001
0000
,
0100
0001
0100
1000
,
0010
0001
0010
1000
,
1001
0000
0110
0000
,
1001
0000
0110
0000
,
0100
0010
0100
0000
1000
0001
1000
0000
,
0010
0100
0010
0000
0110
0000
1001
0000
;

//---------------dance-double - ----------------
#NOTES:
     dance-double:
     :
     Easy:
     6:
     :
00000000
00000000
00000000
00000000
,
00000000
00000000
00000000
00000000
,
00000000
00000000
00000000
00000000
,
00000000
00000000
00000000
00000000
,
00000000
00000000
00000000
00000000
,
00000000
00000000
00000000
00000000
,
00001000
00000000
00010000
00000000
,
00001000
00010000
00001000
00011000
,
00010000
00000000
00100000
00000000
,
10000000
00010000
10000000
10010000
,
00000000
00000000
00000000
00000000
,
00000001
00000000
00000010
00000100
,
00001000
00010000
00001000
00011000
,
00010000
00000000
00100000
01000000
,
00010000
10000000
00010000
10010000
,
10000000
00000000
00100000
01000000
,
00010000
00001000
00010000
00011000
,
00001000
00000000
00100000
00000000
,
10000000
00000000
00000000
10000000
00000000
00000000
00010000
00000000
00010000
00000000
00000000
00000000
00000000
00000000
00000000
00000000
,
01000000
00000000
00010000
01000000
,
00010000
01000000
00010000
01010000
,
00010000
00000000
00001000
00000100
,
00001000
00000100
00001000
00001100
,
00001000
00000000
00010000
00000000
,
00100000
00000000
10000000
00000000
,
01000000
00010000
00010000
00000000
,
00001000
00000000
00000000
00001000
00000000
00000000
00010000
00000000
00010000
00000000
00000000
00000000
00000000
00000000
00000000
00000000
,
00001000
00000000
00000010
00000000
,
00000001
00000000
00001000
00000000
,
00000100
00000000
00001000
00000000
,
00010000
00010000
00010000
00000000
,
00001000
00000000
00010000
00000000
,
00100000
00000000
01000000
00000000
,
00010000
00000000
10000000
00000000
,
01000000
00000000
01000000
00000000
00010000
00010000
00010000
00010000
,
00000000
00000000
00001000
00011000
,
00000000
00000000
00010000
00011000
,
00001000
00000000
00000010
00000000
,
00000001
00001000
00000001
00001001
,
00000100
00000000
00001000
00000000
,
00010000
01000000
00100000
01100000
,
10000000
00000000
00010000
00000000
,
01000000
00010000
00010000
00010000
,
01000000
00000000
00001000
00000000
,
00000001
00001000
00000001
00001001
,
00000100
00000100
00000000
00000000
,
01000000
01000000
00000000
00000000
,
00000100
00000100
00000000
00000000
,
01000000
01000000
01000000
00000000
,
00010000
00001000
00010000
00000000
,
00001000
00001000
00000010
00000010
,
00000001
00000001
00001000
00001000
,
00000100
00000000
00010000
00000000
,
00001000
00010000
00001000
00000000
00010000
00001000
00010000
00000000
,
00001000
00010000
00100000
01000000
,
00010000
10000000
01100000
10010000
;
