#TITLE:O-HA! Mambo;
#SUBTITLE:a Shiny new Today;
#ARTIST:わるじぇんぬ;
#ARTISTTRANSLIT:WARUJIENNU;
#BANNER:O-HA! Mambo a Shiny new Today.png;
#BACKGROUND:O-HA! Mambo a Shiny new Today-bg.png;
#CDTITLE:./CDTITLES/OHA STUDIO BEST ~VOL.2~.png;
#MUSIC:O-HA! Mambo a Shiny new Today.ogg;
#SAMPLESTART:9.6;
#SAMPLELENGTH:15;
#BPMS:0=125;

//---------------dance-single - ----------------
#NOTES:
     dance-single:
     :
     Easy:
     2:
     :
0000
0000
0000
0000
,
0000
0000
0000
0000
,
0000
0000
0000
0000
,
0000
0000
0000
0000
,
0000
0000
0000
0000
,
0010
0001
0001
0000
,
1000
0000
1000
0000
,
0010
0010
0010
0000
,
0100
0000
0000
0000
,
0010
0000
0001
0000
,
0100
0000
1000
0000
,
0001
0001
0001
0000
,
1000
1000
1000
0000
,
0010
0000
0000
0000
,
1000
0000
0000
0000
,
0001
0001
0000
0000
,
0100
0100
0100
0000
,
0001
0000
1000
0000
,
0010
0000
0100
0000
,
1000
0000
0001
0000
,
0010
0000
0000
0000
,
1000
1000
1000
0000
,
0010
0001
0001
0000
,
1000
0000
1000
0000
,
0010
0100
0010
0100
,
0010
0000
0000
0000
,
0010
0000
1000
0000
,
0100
0000
0001
0000
,
0001
0001
0001
0001
,
1000
1000
1000
0000
,
0000
0000
0000
0000
,
0001
0001
0001
0000
0000
0000
0000
0000
,
0000
0000
0000
0000
,
1000
0000
1000
0000
,
0010
0000
0100
0000
,
0010
0000
0100
0000
,
1000
1000
1000
0000
,
0001
0001
0001
0000
,
0010
0001
0100
0000
,
1000
0000
1000
0000
,
0010
1000
0100
0000
,
0001
0000
0000
0000
,
0010
0000
0001
0000
,
0100
0000
1000
0000
,
0001
0001
0001
0001
,
1000
1000
1000
0000
;

//---------------dance-single - ----------------
#NOTES:
     dance-single:
     :
     Medium:
     4:
     :
0000
0000
0000
0000
,
0000
0000
0000
0000
,
0000
0000
0000
0000
,
0000
0000
0000
0000
,
0000
0000
0000
0000
,
0010
0001
0010
0001
,
0110
0000
1001
0000
,
1000
1000
0001
0001
,
0100
0010
0100
1001
,
0010
0000
0001
0000
,
0100
0000
1000
0000
,
1000
0001
1000
1001
,
1000
0001
0100
0000
,
1000
0001
0100
0001
,
0001
1000
0100
1000
,
0010
0100
0001
1000
,
0010
1000
0010
0001
,
0001
0100
1000
1000
,
1000
0100
0001
0001
,
0001
0100
1000
0100
,
0010
0010
0100
0000
,
1000
0001
1000
1001
,
0010
1000
0010
1000
,
0110
0000
1001
0000
,
0001
0001
1000
0100
,
0010
0001
0010
1001
,
0010
0000
1000
0000
,
0100
0000
0001
0000
,
1000
0001
1000
0110
,
1000
0001
0100
1001
,
1000
1000
0001
1000
,
0001
0001
0001
0000
1000
0000
0001
0000
,
0100
0001
0100
0010
,
0100
1000
0100
1001
,
0010
0000
0100
0000
,
0010
0000
0100
0000
,
0010
0100
0010
0110
,
1000
0001
0100
1001
,
0010
0001
0010
0001
,
0110
1000
0110
0001
,
1000
1000
0001
0001
,
0100
0010
0100
1001
,
0010
0000
0001
0000
,
0100
0000
1000
0000
,
1000
0001
1000
1001
,
1000
0001
1100
0000
;

//---------------dance-single - ----------------
#NOTES:
     dance-single:
     :
     Hard:
     5:
     :
0000
0000
0000
0000
,
0000
0000
0000
0000
,
0000
0000
0000
0000
,
0000
0000
0000
0000
,
0000
0000
0000
0000
,
0010
0001
0010
0001
,
0001
1100
1000
0101
,
1000
1000
0001
0001
,
0100
0000
0010
0000
1000
0001
1000
0000
,
0010
0000
0001
0000
,
0100
0000
0011
1001
,
0101
0000
0100
0000
,
1000
0000
1000
0000
0100
1000
0000
1000
0000
0000
0000
0000
0000
0000
0000
0000
,
1000
0001
0100
0000
0100
0000
0001
0000
,
0001
1000
0100
0000
0100
0000
1000
0000
,
0010
0100
0001
1000
,
0010
0001
1000
0000
0010
1000
0001
0000
,
0001
0100
1000
0100
,
1000
0100
0001
0100
,
0001
0000
0100
0000
1000
0000
0010
1000
,
0001
0000
0000
0000
,
0010
0000
0000
0000
0001
0000
0000
0000
1000
0000
0001
0000
0000
1000
0000
0000
,
0010
1000
0010
1000
,
1000
0101
0001
1100
,
0001
0001
1000
1000
,
0010
0000
0001
0000
0010
0001
1000
0000
,
0010
0000
1000
0000
,
0100
0000
1010
1001
,
1100
0001
0100
1000
,
0001
0000
0001
0000
1000
0001
0000
0001
0000
0000
0100
0000
0000
0000
0000
0000
,
1000
0001
1000
0000
0001
0000
0100
0000
,
0001
1000
0001
0000
1000
0000
0100
0000
,
0100
0001
0100
0010
,
0100
0000
1000
0000
0100
0001
1000
0000
,
0010
0000
0000
1000
0100
0000
0000
0000
,
0010
0000
0000
0001
0100
0000
0000
0000
,
0010
0001
0010
1000
,
0001
0000
1000
0000
0100
0010
0000
0001
0000
0000
1000
0000
0000
0000
0000
0000
,
0010
0001
0010
0001
,
0001
1100
1000
0101
,
1000
1000
0001
0001
,
0100
0000
0010
0000
0100
1000
0001
0000
,
0010
0000
0001
0000
,
0100
0000
1001
1100
,
0101
1000
0100
0001
,
1000
0000
0001
0000
0100
0010
0000
1000
0000
0000
0000
0000
0000
0000
0000
0000
;

//---------------dance-double - ----------------
#NOTES:
     dance-double:
     :
     Easy:
     3:
     :
00000000
00000000
00000000
00000000
,
00000000
00000000
00000000
00000000
,
00000000
00000000
00000000
00000000
,
00000000
00000000
00000000
00000000
,
00000000
00000000
00000000
00000000
,
00011000
00010000
00001000
00000000
,
00011000
00000000
00011000
00000000
,
00000010
00000000
00001000
00000000
,
00011000
00000000
00000000
00000000
,
00001000
00000000
00010000
00000000
,
00100000
00000000
00000000
00000000
,
00010000
10000000
00010000
10000000
,
10000000
10000000
01000000
00000000
,
00100000
00000000
00000000
00000000
,
00001000
00000000
00000000
00000000
,
00001000
00010000
00000000
00000000
,
00010000
00001000
00000010
00000000
,
00000100
00000000
00000000
00000000
,
00000100
00000000
00000001
00000000
,
00000010
00000000
00001000
00000000
,
00010000
00000000
00000000
00000000
,
00001000
00010000
00001000
00000000
,
00001000
00010000
00000100
00000000
,
00011000
00000000
00011000
00000000
,
00010000
00001000
00010000
00001000
,
00010000
00000000
00000000
00000000
,
00100000
00000000
00010000
00000000
,
00001000
00000000
00000100
00000000
,
00000001
00001000
00000001
00000001
,
00001000
00000001
00000100
00000000
,
00000000
00000000
00000000
00000000
,
00010000
00001000
00000000
00000000
,
00000000
00000000
00000000
00000000
,
10000000
00000000
10000000
00000000
,
00100000
00000000
00010000
00000000
,
00001000
00000000
00000100
00000000
,
00000001
00001000
00000001
00001000
,
00000001
00000001
00000100
00000000
,
00000010
00001000
00000100
00000000
,
00010000
00000000
00000000
00000000
,
00001000
00010000
00100000
10000000
,
00000000
00000000
00000000
00000000
,
00100000
00000000
00000000
00000000
,
00011000
00000000
00000000
00000000
,
00010000
00001000
00010000
00001000
,
00000010
00011000
01000000
00000000
;
