#TITLE:HAPPY GO LUCKY;
#ARTIST:やまちゃん with ジムナスひかる;
#ARTISTTRANSLIT:YAMACHAN with JIMUSASUHIKARU;
#BANNER:HAPPY GO LUCKY.png;
#BACKGROUND:HAPPY GO LUCKY-bg.png;
#CDTITLE:./CDTITLES/OHA STUDIO BEST ~VOL.2~.png;
#MUSIC:HAPPY GO LUCKY.ogg;
#SAMPLESTART:41.99;
#SAMPLELENGTH:15;
#DISPLAYBPM:120;
#BPMS:0=120,132=125;

//---------------dance-single - ----------------
#NOTES:
     dance-single:
     :
     Easy:
     1:
     :
0000
0000
0000
0000
,
0000
0000
0000
0000
,
0000
0000
0000
0000
,
0000
0000
0000
0000
,
0000
0000
0000
0000
,
0010
0000
0000
0000
,
0001
0000
0000
0000
,
0100
0000
0000
0000
,
0001
0000
0000
0000
,
0010
0010
0000
0000
,
1000
0000
0000
0000
,
0100
0000
0000
0000
,
1000
0000
0000
0000
,
1000
0000
0001
0000
,
1000
0000
0001
0000
,
0010
0010
0000
0000
,
0100
0100
0000
0000
,
1000
0000
0001
0000
,
1000
0000
0001
0000
,
0010
0000
0100
0000
,
0010
0000
0000
0000
,
0010
0001
0100
0000
,
0000
0000
0000
0000
,
0010
1000
0100
0000
,
0000
0000
0000
0000
,
0010
0001
0100
0000
,
0010
0000
0100
0000
,
0010
1000
0100
0000
,
0010
0000
0100
0000
,
1000
0000
0001
0000
,
1000
0000
0001
0000
,
0010
0010
0010
0000
,
0010
0001
0100
0100
,
0000
0000
0000
0000
,
0010
0001
0100
0000
,
0000
0000
0000
0000
,
0010
1000
0100
0000
,
0000
0000
0000
0000
,
0010
0001
0100
0000
,
0010
0100
0010
0000
,
0010
1000
0100
0000
,
0010
0100
0010
0000
,
1000
0000
0001
0000
,
1000
0000
0001
0000
,
0010
0010
0010
0000
,
0010
0001
0100
0100
;

//---------------dance-single - ----------------
#NOTES:
     dance-single:
     :
     Medium:
     3:
     :
0000
0000
0000
0000
,
0000
0000
0000
0000
,
0000
0000
0000
0000
,
0000
0000
0000
0000
,
0000
0000
0000
0000
,
1001
0000
0001
0100
,
1000
0100
0001
0000
,
0010
0000
1000
0100
,
0001
0100
1000
0000
,
0010
0000
1000
0100
,
0010
0000
0001
0100
,
0010
0000
0010
0001
,
0001
0100
1000
0000
,
1001
0000
0000
0000
,
1000
1000
0001
0001
,
0010
0001
1000
0100
,
0010
0001
0100
0000
,
1000
0000
1000
0100
,
0001
1000
0001
0100
,
1000
0000
0000
0000
,
1001
0000
0000
1000
,
0010
0010
0001
1000
,
0001
0010
0100
1000
,
1000
0100
0001
0100
,
1000
0100
0001
0000
,
0001
0100
0010
1000
,
1000
0100
0010
0001
,
0001
1000
1000
0100
,
0001
0100
1000
0010
,
1000
1000
0000
0000
,
0001
0001
0000
0000
,
0010
0001
0010
1000
,
0010
0001
0100
1000
,
0100
0000
0000
0000
,
1001
0000
0000
0000
,
0010
0000
0000
0000
,
1000
0010
0001
1000
,
1000
0100
0001
0100
,
0001
0010
0100
1000
,
0010
0010
0100
0001
,
0001
1000
1000
0001
,
0001
0100
1000
0100
,
1001
0000
0000
0100
,
0001
0001
1000
0100
,
0010
0001
0010
1000
,
0010
0001
0100
1000
,
0001
0100
0000
0000
;

//---------------dance-single - ----------------
#NOTES:
     dance-single:
     :
     Hard:
     4:
     :
0000
0000
0000
0000
,
0000
0000
0000
0000
,
0000
0000
0000
0000
,
0000
0000
0000
0000
,
0000
0000
0000
0000
,
1001
0000
0001
0100
,
1000
0100
0001
0000
,
0010
0000
0000
0000
1000
0001
0100
0000
,
0001
0100
1000
0000
,
0010
0011
1000
0100
,
0010
1010
0001
0100
,
0010
0000
0010
0001
,
0001
0100
1000
0110
,
1001
0000
0000
0110
,
1001
0001
1000
1000
,
0010
0001
0010
0000
1000
0000
0100
0000
,
0010
1000
0001
0000
0100
0000
0000
0000
,
1000
0001
1000
0100
,
0001
0100
1000
0001
,
1000
0001
0100
0001
0100
0000
0000
0000
,
0000
0000
1000
0000
0010
0100
0010
0000
,
0001
1000
0001
0010
,
0100
1000
1000
0001
,
0001
0100
1000
0000
0100
0000
1000
0001
,
0100
0000
0001
0100
,
0010
1000
1000
0100
,
0010
0001
0001
1000
,
1000
0000
0001
0000
0001
0100
1000
0000
,
1000
0010
1000
1000
,
0001
1000
0100
0000
0001
0000
0001
0000
,
1000
0001
0100
0000
0010
0000
0001
0000
,
0010
1000
0010
0001
,
0100
1000
0110
0000
,
0010
0000
0001
0000
0010
0100
0010
0100
,
0010
1000
1000
0010
,
0100
0001
1000
0001
,
0001
0100
1000
0000
1000
0000
0100
0000
,
0001
1000
0100
0000
0001
0000
0010
0000
,
0100
1000
0010
0010
,
0100
0000
0001
0000
0001
0010
1000
0000
,
1000
0100
0001
0000
0001
0000
0100
0000
,
1000
0000
0100
0000
1000
0001
1000
0000
,
0000
0000
0100
0000
0001
1000
0001
0000
,
0010
0100
0010
0001
,
0010
1000
0010
0001
,
0101
0000
1100
0000
0001
1000
0100
0000
;

//---------------dance-double - ----------------
#NOTES:
     dance-double:
     :
     Easy:
     2:
     :
00000000
00000000
00000000
00000000
,
00000000
00000000
00000000
00000000
,
00000000
00000000
00000000
00000000
,
00000000
00000000
00000000
00000000
,
00000000
00000000
00000000
00000000
,
10000000
00000000
00000000
00000000
,
00001000
00000000
00000000
00000000
,
00010000
00000000
00000000
00000000
,
00000001
00000000
00000000
00000000
,
00000010
00000001
00000100
00000000
,
00000010
00000000
00001000
00000000
,
00000000
00000000
00000000
00000000
,
10000000
00000000
00000000
00000000
,
00100000
10000000
01000000
00000000
,
00100000
00000000
00010000
00000000
,
00000000
00000000
00000000
00000000
,
00001000
00000000
00000000
00000000
,
00000001
00000100
00001000
00000000
,
00000000
00000000
00011000
00000000
,
00000000
00000000
00000000
00000000
,
10010000
00000000
00000000
00000000
,
00010000
01000000
10000000
01000000
,
10000000
00000000
00010000
00000000
,
00100000
00000000
00010000
00000000
,
00000000
00000000
00000000
00000000
,
00000001
00000000
00000100
00000000
,
00000010
00000000
00001000
00000000
,
00000000
00000000
00000000
00000000
,
00010000
00000000
00000000
00000000
,
10000000
00100000
01000000
00010000
,
00010000
00100000
00010000
00010000
,
10000000
00000000
00000000
00000000
,
00000001
00000000
00000000
00000000
,
00011000
00000000
00000000
00000000
,
00000010
00000000
00000000
00000000
,
00000001
00000010
00000100
00000000
,
00000010
00000000
00001000
00000000
,
00000000
00000000
00000000
00000000
,
00100000
00000000
00000000
00000000
,
10000000
00100000
01000000
00000000
,
00010000
00000000
00000000
00000000
,
00000000
00000000
00000000
00000000
,
00000001
00000010
00000000
00000000
,
00000100
00010000
00000000
00000000
,
00000000
00000000
00010000
00000000
,
00001000
00000000
00000100
00000000
,
00001000
00010000
00000000
00000000
;
