#TITLE:CUTIE CHASER;
#SUBTITLE:MORNING MIX;
#ARTIST:CLUB SPICE;
#BANNER:CUTIE CHASER MORNING MIX.png;
#BACKGROUND:CUTIE CHASER MORNING MIX-bg.png;
#CDTITLE:./CDTITLES/KONAMI ORIGINAL REMIX.png;
#MUSIC:CUTIE CHASER MORNING MIX.ogg;
#SAMPLESTART:24.265;
#SAMPLELENGTH:15;
#DISPLAYBPM:126;
#BPMS:0=126.168,9=126.141;

//---------------dance-single - ----------------
#NOTES:
     dance-single:
     :
     Easy:
     2:
     :
0000
0000
0000
0000
,
0000
0000
0000
0000
,
0000
0000
0000
0000
,
0000
0000
0000
0010
,
0000
0000
0100
0000
,
0000
0001
0000
0000
,
1000
0000
0000
0010
,
0000
0000
0001
0100
,
0000
0010
0000
0000
,
1000
0100
0000
0010
,
0000
0000
0001
0100
,
0000
0010
0000
0000
,
1000
0001
0000
0010
,
0000
0000
0010
0001
,
0001
0100
0000
0000
,
0010
1000
1000
0100
,
0000
0000
0001
0000
,
0000
0100
0000
0000
,
1000
0000
0000
0000
,
0010
1000
0100
0001
,
0000
0000
0010
0100
,
1000
0000
0000
0000
,
0010
1000
0100
0001
,
0000
0000
0010
0100
,
0001
0000
0000
1001
,
0000
0010
0010
1000
,
0001
0000
0001
0000
,
0000
0100
0000
0001
,
0001
0000
0100
0100
,
0000
1000
1000
0000
,
0010
0010
0000
0010
,
0000
0000
0010
0001
,
0001
0100
0000
0000
,
0010
1000
1000
0100
,
0000
0000
0001
0000
,
0000
0100
0000
0000
,
1000
0000
0000
0001
,
0010
1000
0100
0001
,
0000
0000
0001
0100
,
1000
0000
0000
1000
,
0010
0001
0100
1000
,
0000
0000
0010
0100
,
0001
0000
0000
1001
,
0000
0010
0010
0001
,
1000
0100
0000
0000
;

//---------------dance-single - ----------------
#NOTES:
     dance-single:
     :
     Medium:
     3:
     :
0000
0000
0000
0000
,
0000
0000
0000
0000
,
0000
0000
0000
0000
,
0000
0000
0000
0010
,
0010
0000
0100
0100
,
0000
0001
0001
0000
,
1000
1000
0000
0010
,
0010
0010
0001
0100
,
0000
0010
0010
0010
,
1000
0100
0000
0010
,
0001
0100
0010
1000
,
0100
1001
0000
0010
,
0010
0001
1000
0001
,
0010
0100
0010
1000
,
0001
1000
0010
0100
,
0010
0001
1000
0010
,
0100
0000
0100
1000
,
0000
1000
0010
0000
,
0010
0001
0000
0010
,
1000
0100
0001
0010
,
1000
0010
0001
0100
,
0010
0100
0000
0010
,
0001
0100
1000
0010
,
0001
1000
0001
0100
,
1000
0010
0000
1001
,
0000
0010
0010
1000
,
0001
1000
0001
0000
,
0000
0100
0000
0010
,
0100
1000
0010
1000
,
0001
0100
0010
0001
,
1000
0100
0001
0001
,
0010
0100
0010
1000
,
0001
1000
0010
0100
,
0010
0001
1000
1000
,
0001
0000
0100
0010
,
0000
0001
1000
0000
,
1000
0010
0000
0010
,
1000
0100
0001
0010
,
1000
0010
0001
0100
,
0010
0100
1001
0010
,
1000
0100
0001
0010
,
0001
0100
1000
0010
,
1000
0001
0000
1001
,
0000
0010
0010
0001
,
1000
0100
0000
0000
;

//---------------dance-single - ----------------
#NOTES:
     dance-single:
     :
     Hard:
     5:
     :
0000
0000
0000
0000
,
0000
0000
0000
0000
,
0000
0000
0000
0000
,
0000
0000
0000
0010
,
0010
0000
0001
0100
,
0000
0100
1000
0000
,
1000
0000
0010
0000
0000
0000
1000
0001
,
0000
0001
0000
0001
0000
0000
0000
0000
,
0000
0000
0001
1000
0000
1000
0000
1000
,
0000
0000
0000
0010
,
0001
0100
0010
1000
,
0100
0000
1001
0000
0000
1000
0000
0001
,
0000
0000
1000
0001
0000
0001
1000
0001
,
0100
0010
0001
0001
,
0000
0000
0001
0010
0100
0000
0010
0000
,
1000
0100
0000
0001
,
0100
0000
0010
1000
,
0000
0010
0001
0000
,
1000
0010
0000
0010
,
1000
0100
0001
0010
,
1000
0001
0000
0000
0001
0000
0100
0000
,
1000
0010
0000
0010
,
1000
0100
0001
0010
,
1000
0001
0000
0000
0001
0000
0100
0000
,
1000
0010
0010
1001
,
0000
0100
0000
0010
0000
0000
1000
0001
,
0000
0001
1000
0000
0101
0000
0000
0000
,
0000
0010
0000
0010
,
0100
1000
0010
1000
,
0001
0000
0010
0000
0001
1000
0000
1000
,
0100
0000
1000
0001
0000
0001
0100
0000
,
0010
0100
0010
0001
,
0001
0000
1000
0000
0001
1000
0100
0000
,
0010
1000
1000
0001
,
0100
0100
1000
0100
,
0100
0001
0010
0010
,
1000
0010
0001
0100
,
0001
0010
1000
0100
,
0001
1000
0000
0000
1000
0000
0010
0000
,
0001
0100
0000
0100
,
1000
0010
0001
0100
,
1000
0001
0000
0000
1000
0000
0100
0000
,
0001
0000
1000
0001
0010
0000
1001
0000
,
0001
1000
0000
1000
0100
0000
1000
0001
,
0000
1001
0000
0000
0000
0000
0000
0000
;

//---------------dance-double - ----------------
#NOTES:
     dance-double:
     :
     Easy:
     4:
     :
00000000
00000000
00000000
00000000
,
00000000
00000000
00000000
00000000
,
00000000
00000000
00000000
00000000
,
00000000
00000000
00000000
00100000
,
00000000
00000000
00010000
00000000
,
00000000
00001000
00000000
00000000
,
00000100
00000000
00000000
00000001
,
00000000
00000000
00001000
00000100
,
00000000
00001000
00000000
00000000
,
00000001
00000100
00000000
00001000
,
00000000
00000000
00010000
00001000
,
00000000
00100000
00000000
00000000
,
10000000
00010000
00000000
00100000
,
00000000
00000000
00100000
00010000
,
00001000
00000100
00000000
00000000
,
00000010
00001000
00010000
01000000
,
00000000
00000000
00010000
00000000
,
00000000
00001000
00000000
00000000
,
00000010
00000000
00000000
00000000
,
00000010
00000001
00000100
00001000
,
00000000
00000000
00100000
01000000
,
10000000
00000000
00000000
00000000
,
00100000
10000000
01000000
00010000
,
00000000
00000000
00000010
00000100
,
00000001
00000000
00000000
00001001
,
00000000
00000010
00000010
00001000
,
00000100
00000000
00010000
00000000
,
00000000
01000000
00000000
00100000
,
00000000
00000000
00010000
00000000
,
00000000
00001000
00000000
00000000
,
00000100
00000000
00000000
00000000
,
00000000
00000000
00000010
00001000
,
00010000
01000000
00000000
00000000
,
00100000
00010000
00001000
00000100
,
00000000
00000000
00000001
00000000
,
00000000
00001000
00000000
00000000
,
00010000
00000000
00000000
00010000
,
00100000
10000000
01000000
00010000
,
00000000
00000000
00000010
00000100
,
00001000
00000000
00000000
00001000
,
00000010
00000001
00000100
00001000
,
00000000
00000000
00100000
01000000
,
10000000
00000000
00000000
00011000
,
00000000
00000010
00000010
00001000
,
00000100
00001001
00000000
00000000
;
