#TITLE:CANDY;
#ARTIST:わるじぇんぬ;
#ARTISTTRANSLIT:WARUJIENNU;
#BANNER:CANDY.png;
#BACKGROUND:CANDY-bg.png;
#CDTITLE:./CDTITLES/OHA STUDIO BEST ~VOL.2~.PNG;
#MUSIC:CANDY.ogg;
#SAMPLESTART:18.795;
#SAMPLELENGTH:15;
#DISPLAYBPM:140;
#BPMS:0=140.03;

//---------------dance-single - ----------------
#NOTES:
     dance-single:
     :
     Easy:
     3:
     :
0000
0000
0000
0000
,
0000
0000
0000
0000
,
0000
0000
0000
0000
,
0000
0000
0000
0000
,
0000
0000
0000
0000
,
0000
0001
0000
0010
,
0000
0100
0000
1000
,
0000
0010
0000
0100
,
0000
0001
0000
1000
,
0000
0001
1000
0001
,
0001
0000
0000
0000
,
0010
0010
0001
0000
,
0001
0000
1000
0000
,
1000
1000
0010
0000
,
0100
0000
0001
0000
,
0000
0010
0000
0001
,
0000
1000
0000
0001
,
0000
1000
0000
0001
,
0000
0000
0000
0000
,
0001
0001
0001
0000
,
0100
0000
0010
0000
,
1000
1000
1000
0000
,
0010
0000
0100
0000
,
0000
0001
0000
1000
,
0000
0010
0000
0100
,
0000
0001
0000
1000
,
0000
0000
0000
0000
,
0010
1000
0001
0100
,
0001
0000
0000
0000
,
0001
0100
0001
1000
,
0010
0000
0000
0000
,
1000
0001
1001
0000
,
0001
1000
1001
0000
,
0010
0100
0001
1000
,
1001
0000
0000
0000
,
0010
0010
1000
0000
,
1000
0000
0001
0000
,
0001
0001
0100
0000
,
0001
0000
1000
0000
,
0000
0010
0000
1000
,
0000
0001
0000
1000
,
0000
0001
0000
1000
,
0000
0000
0000
0000
,
0001
0001
0001
0000
,
1000
1000
1000
0000
,
0010
1000
0001
0000
,
0100
0001
1000
0000
,
0001
0100
0001
0100
,
0001
1000
0001
1000
,
0100
1000
0100
1000
,
0001
0000
1001
0000
;

//---------------dance-single - ----------------
#NOTES:
     dance-single:
     :
     Medium:
     4:
     :
0000
0000
0000
0000
,
0000
0000
0000
0000
,
0000
0000
0000
0000
,
0000
0000
0000
0000
,
0000
0000
0000
0000
,
0000
0001
0000
1000
,
0010
0100
0001
1000
,
0001
1000
0010
0000
,
0100
0001
1000
0000
,
0001
0000
0000
0100
0001
0000
1000
0000
,
1000
0000
0000
0000
,
0010
1000
0001
0000
,
0100
0010
0110
1001
,
0100
0001
1000
0000
,
0010
0100
0110
1001
,
0000
0010
0000
0100
,
0000
0100
1000
0001
,
0000
1000
0000
0001
,
0000
1001
0000
0000
,
0010
1000
1010
0000
,
0100
1000
0001
0010
,
0001
0010
0011
0000
,
0000
1000
0000
0001
,
0010
0001
0100
1000
,
0100
0010
1000
0001
,
0000
0110
0000
1001
,
0000
0000
0000
0010
0100
0000
0001
0000
,
1000
1000
0001
0001
,
1001
0000
0000
0000
,
0010
0010
0100
0100
,
0110
0000
0000
0000
,
0001
0001
0100
1000
,
0100
0100
0010
1000
,
0001
0010
0100
1000
,
1001
0000
0000
0000
,
0010
1000
0001
0000
,
0100
0010
1001
0110
,
0100
0001
1000
0000
,
0010
0100
1001
0110
,
0000
0001
0000
1000
,
0000
0010
0000
0100
,
0001
1000
0010
0100
,
0001
1000
0010
0100
,
0001
0001
0001
0000
,
1000
1000
1000
0000
,
1100
1100
0001
0000
,
0101
0101
1000
0000
,
0100
0001
0100
1000
,
0100
0001
0010
0100
,
1000
0001
0100
0010
,
1000
0001
1001
0000
;

//---------------dance-single - ----------------
#NOTES:
     dance-single:
     :
     Hard:
     5:
     :
0000
0000
0000
0000
,
0000
0000
0000
0000
,
0000
0000
0000
0000
,
0000
0000
0000
0000
,
0000
0000
0000
0000
,
0010
0100
0001
1000
,
0001
0001
1000
1000
,
0001
0100
0101
0000
,
1000
0100
1100
0000
,
0001
0000
0000
0010
0100
0000
1000
0000
,
0001
0000
0110
1001
,
0001
0001
0100
0100
,
0001
0100
1000
0000
0100
0000
0001
0000
,
1000
1000
0100
0100
,
0001
0100
1000
0000
0100
0000
0010
0000
,
0000
1001
0000
0110
,
0001
0010
0100
1000
,
0001
0101
1000
1100
,
0001
0000
1000
0000
,
0001
0001
0010
0010
,
0100
1000
0001
0000
0100
0000
0001
0000
,
1000
1000
0010
0010
,
0100
0001
1000
0000
0100
0000
1000
0000
,
0001
0100
1000
0100
,
0001
0100
1000
0100
,
0001
0010
0100
1000
,
0001
0000
0000
1000
0001
0000
0100
0000
,
0010
0100
0010
0100
,
0110
0000
1001
0110
,
0100
0010
0100
0010
,
0110
0000
1001
0001
,
1000
1000
0001
0000
,
0010
0100
1000
0100
0010
0000
0000
0000
,
0001
1000
0010
0100
,
1001
0000
0000
0000
,
0001
0001
0100
0100
,
0001
0100
1000
0000
0100
0000
0001
0000
,
1000
1000
0100
0100
,
0001
0100
1000
0000
0100
0000
0010
0000
,
0000
1001
0000
0110
,
0010
1000
0001
0100
,
0010
1000
0001
0100
,
0101
0000
1100
0000
,
0001
0010
0100
1000
,
0010
1000
0001
0100
,
0101
0101
1000
0000
,
1100
1100
0001
0000
,
0100
0000
1000
0000
0100
1000
0001
0000
,
0100
0000
0001
0000
0100
0001
1000
0000
,
0001
1000
0001
1000
,
0001
0110
1001
0000
;

//---------------dance-double - ----------------
#NOTES:
     dance-double:
     :
     Easy:
     5:
     :
00000000
00000000
00000000
00000000
,
00000000
00000000
00000000
00000000
,
00000000
00000000
00000000
00000000
,
00000000
00000000
00000000
00000000
,
00000000
00000000
00000000
00000000
,
00000000
00000010
00000000
00001000
,
00000000
00010000
00000000
01000000
,
00000000
00000000
00000001
00000001
,
00000000
00000000
00100000
00100000
,
00010000
00000000
10000000
00010000
,
10000000
00000000
00000000
00000000
,
01000000
01000000
00100000
00000000
,
00010000
00000000
00001000
00000000
,
00000100
00000100
00000010
00000000
,
00000001
00000000
00001000
00000000
,
00000000
00000100
00000000
00001000
,
00000000
00010000
00000000
01000000
,
00000000
00010000
00000000
10000000
,
00000000
00000000
00000000
00000000
,
00000100
00000100
00000010
00000000
,
00001000
00000000
00010000
00000000
,
01000000
01000000
00100000
00000000
,
10000000
00000000
00010000
00000000
,
00000000
01000000
00000000
00010000
,
00000000
00001000
00000000
00000100
,
00000000
00000001
00000000
00001000
,
00000000
00000000
00000000
00000000
,
00001000
00010000
00001000
00010000
,
00011000
00000000
00000000
00000000
,
00010000
00001000
00010000
00001000
,
00011000
00000000
00000000
00000000
,
00001000
00001000
00010000
00000000
,
00100000
10000000
00010000
00000000
,
01000000
00010000
00001000
00000100
,
00000010
00000000
00000000
00000000
,
00000001
00001000
00000001
00000000
,
00001000
00000000
00010000
00000000
,
10000000
00010000
10000000
00000000
,
10010000
00000000
10010000
00000000
,
00100000
01000000
00010000
10000000
,
00100000
01000000
00010000
10000000
,
00000000
00010000
00000000
00001000
,
00000000
00000001
00000000
00001000
,
00000001
00001000
00000001
00000000
,
00000010
00000100
00001000
00000001
,
00001000
00000001
00001000
00000000
,
00000010
00000100
00000001
00001000
,
00000000
00000100
00000000
00001000
,
00000000
00010000
00000000
01000000
,
00000000
00100000
00000000
01000000
,
00100000
00000000
10010000
00000000
;
