#TITLE:V3;
#SUBTITLE:;
#ARTIST:BeautifulDay;
#TITLETRANSLIT:;
#SUBTITLETRANSLIT:;
#ARTISTTRANSLIT:;
#GENRE:;
#CREDIT:DJSuperNOVA;
#MUSIC:V3.ogg;
#BANNER:V3.png;
#BACKGROUND:V3-bg.png;
#CDTITLE:;
#SAMPLESTART:40.020;
#SAMPLELENGTH:12.000;
#SELECTABLE:YES;
#OFFSET:1.418;
#BPMS:0.000=80.000
,40.000=160.000
,312.000=80.000
,314.000=160.000
,408.000=80.000
,410.000=160.000
;
#STOPS:;
#DISPLAYBPM:80.000:160.000;
#BGCHANGES:;
#FGCHANGES:;

//--------------- dance-single - DJSuperNOVA ----------------
#NOTES:
     dance-single:
     DJSuperNOVA:
     Beginner:
     3:
     0,0,0,0,0:
0000
0000
0000
0000
,
0001
0000
1000
0000
,
0001
0000
0100
0000
,
0010
0000
0100
0000
,
0010
0000
1000
1000
,
1001
0000
1001
0000
,
0001
0000
0010
0000
,
0100
0000
0100
0000
,
2000
0000
0000
0000
,
3002
0000
0000
0000
,
0103
0000
0000
0000
,
0100
0000
0000
0000
,
0010
0000
0000
0000
,
0010
0010
0010
0000
,
1000
0000
0000
0000
,
1000
0000
0000
0000
,
0001
0000
0000
0000
,
0001
0001
0001
0000
,
0100
0000
0010
0000
,
0100
0000
1000
0000
,
1000
0000
0010
0010
,
0010
0000
0000
0000
,
0001
0000
0010
0000
,
0001
0000
0100
0000
,
0010
0000
0010
0000
,
0100
0100
0100
0000
,
1001
0000
0100
0000
,
0010
0000
1000
0000
,
0001
0000
0100
0100
,
0100
0000
0000
0000
,
0010
0000
1000
0000
,
0001
0000
1000
0000
,
0010
0000
0010
0000
,
0010
0010
0010
0000
,
1000
0000
1000
0000
,
0001
0000
0001
0000
,
0100
0000
0100
0000
,
0001
0001
0001
0000
,
0010
0000
0010
0000
,
1000
0000
1000
0000
,
0100
0000
0100
0000
,
0010
0010
0010
0000
,
1001
0000
0000
0000
,
0110
0000
0000
0000
,
1010
0000
0000
0000
,
0101
0000
0000
0000
,
1000
0000
1000
0000
,
0001
0000
0001
0000
,
1000
0000
0000
1000
,
0000
0000
1000
1000
,
0001
0000
0000
0001
,
0000
0000
0001
0001
,
0200
0000
0000
0300
,
0020
0000
0000
0030
,
0002
0000
0000
0003
,
2000
0000
0000
3000
,
0002
0000
0000
0003
,
0200
0000
0000
0300
,
0020
0000
0000
0000
,
0200
0000
0000
0330
,
1001
0000
0000
0000
,
1000
0000
0000
0000
,
0010
0000
0000
0000
,
0100
0000
0000
0000
,
0001
0000
0000
0000
,
1000
0000
0000
0000
,
0010
0000
0000
0000
,
0100
0000
0000
0000
,
0001
0000
0001
0000
,
1000
0000
1000
0000
,
0020
0000
0000
0030
,
0200
0000
0000
0300
,
0002
0000
0000
0003
,
0002
0000
0000
0003
,
2000
0000
0000
3000
,
2000
0000
0000
3000
,
0010
0000
0010
0000
,
0100
0000
0100
0000
,
1001
0000
0000
0000
,
0100
0000
0010
0000
,
0100
0000
1000
0000
,
1000
0000
0010
0010
,
0010
0000
0000
0000
,
0001
0000
0010
0000
,
0001
0000
0100
0000
,
0010
0000
0010
0000
,
0100
0100
0100
0000
,
1001
0000
0100
0000
,
0010
0000
1000
0000
,
0001
0000
0100
0100
,
0100
0000
0000
0000
,
0010
0000
1000
0000
,
0001
0000
1000
0000
,
0010
0000
0010
0000
,
0010
0010
0000
0010
,
0000
1000
1000
1000
,
0000
0001
0000
0001
,
0000
0100
0100
0100
,
0100
0000
0010
0000
,
0100
0000
0010
0000
,
1000
0001
1000
0001
,
1000
1000
0001
0001
,
2002
0000
3003
0000
,
1001
0000
0000
0000
;

//--------------- dance-single - DJSuperNOVA ----------------
#NOTES:
     dance-single:
     DJSuperNOVA:
     Easy:
     7:
     0,0,0,0,0:
0000
0000
0000
0000
,
0010
0000
0100
0000
,
0010
0000
0000
1000
0100
0010
0001
0100
,
0010
0010
0100
0100
,
0001
0001
1000
1000
,
1001
0100
0101
0010
,
1001
0000
0000
0000
0110
1000
0100
0010
,
0011
0000
0000
0000
1000
0000
0001
0000
0100
0000
0000
0000
0000
0010
0000
0000
,
1000
1000
0100
0010
0001
0001
0010
0100
,
0110
0000
0000
0000
,
1001
0100
0001
0100
,
0001
1000
0010
1000
,
0010
0100
0001
0100
,
0010
0110
1001
0000
,
1000
1000
0001
0002
,
0003
0100
0010
0020
,
0030
0100
1000
0010
,
0100
0001
0100
0100
,
0020
0030
0002
0003
,
0200
0300
1000
0100
,
1000
0100
0110
0110
,
0110
0000
0000
0001
,
0200
0000
0310
0010
,
2000
0000
3010
0100
,
0101
0001
1010
0001
,
1001
0110
1001
0100
,
0020
0030
2000
3000
,
0200
0300
0001
0100
,
0010
1000
1001
0110
,
1001
0000
0000
1000
,
0002
0000
1003
1000
,
0020
0000
0130
0100
,
1001
1000
0110
0010
,
0101
1010
0101
1000
,
0010
0010
0100
0100
,
0010
0010
0100
0100
,
0001
0001
1000
1000
,
0001
0001
2002
3003
,
1000
1000
0010
0010
,
0100
0100
0001
0001
,
1000
1000
0010
0010
,
0100
0001
1000
0010
,
0110
0000
0000
0001
0000
0000
0100
0100
,
0100
0000
0000
0010
0000
0000
0100
0000
,
0001
0000
0000
1000
0000
0000
0010
0010
,
0010
0000
0000
0100
0000
0000
0010
0000
,
1010
0100
0010
0001
,
0101
0010
0100
1000
,
0010
0000
0000
0100
0000
0000
1000
0000
,
0000
0001
0000
0000
1000
1000
0010
0000
,
0100
0000
0000
0001
0000
0000
1000
0000
,
0000
0010
0000
0000
0100
0100
0001
0000
,
1000
0010
1000
0010
,
0010
0100
0010
0100
,
0100
0001
0100
1000
,
0100
0001
1000
0100
,
0010
0010
0001
0001
,
0100
0100
1000
1000
,
0010
0010
0010
0010
,
0100
0100
0100
0100
,
1001
0100
1000
0100
,
0001
0100
0001
0100
,
1000
1000
0010
0010
,
1000
1000
0010
0010
,
0100
0001
0010
0100
,
1000
0010
0100
0010
,
0001
0001
0100
0100
,
0010
0010
1000
1000
,
1001
0100
0010
0100
,
1000
0100
0010
0100
,
0020
0001
0031
0100
,
0020
0000
1000
0000
1030
0000
1000
0100
,
0001
0100
0001
0100
,
1000
0000
0100
0000
0001
0000
1000
0100
,
0010
0010
0010
0010
,
0100
0100
0100
0100
,
0001
0001
0001
0000
1000
1000
1000
0000
,
0010
0010
0000
0100
0000
0100
0000
0100
,
0010
0000
0000
0010
,
0020
0030
0002
0003
,
0200
0300
1000
0100
,
0001
0100
0110
1001
,
0220
0000
0330
0001
,
0201
0000
0310
0010
,
2010
0000
3010
0100
,
0101
0001
1010
0001
,
1001
0110
1001
0110
,
1002
0003
2000
3000
,
0200
0300
0001
0100
,
0010
1000
1001
0110
,
2002
0000
3003
1000
,
1002
0000
1003
1000
,
0120
0000
0130
0100
,
1001
1000
0110
0010
,
0101
0020
0030
0020
,
0030
1000
0100
0010
,
0001
0200
0300
0200
,
0300
0001
0010
0100
,
1001
0100
1001
0010
,
1001
0010
1001
0010
,
1000
0000
0001
0000
1000
0000
0001
1000
,
0001
0100
0010
0001
,
2002
0000
3003
0000
,
1001
0000
0000
0000
;

//--------------- dance-single - DJSuperNOVA ----------------
#NOTES:
     dance-single:
     DJSuperNOVA:
     Medium:
     11:
     0,0,0,0,0:
0000
0000
0000
0000
,
0001
0000
0000
0000
0000
0000
0000
0001
1000
0000
0000
0000
0000
0000
0000
1000
,
0001
0000
0000
0100
0010
0001
0100
0010
,
1000
0100
1000
0000
0100
0001
0100
0000
,
0001
0000
0010
0000
0100
0000
0000
0000
1000
0010
1000
0000
0010
0000
0100
0000
,
1001
0000
0001
1000
1001
1000
0010
0100
,
0001
0000
0000
0100
0001
0100
1000
0100
,
0110
0000
0000
0000
1000
0000
0001
0000
0110
0000
0000
0000
0000
0001
0000
0000
,
1000
0100
0010
0001
1000
0010
0100
0001
,
2000
0000
0000
0000
0000
0000
0000
0000
0000
0000
3000
0000
0000
0100
0010
0000
,
0001
0000
1000
0000
0010
0000
1000
0000
0001
0000
0000
0100
0000
0000
0010
0000
,
0000
0000
1000
0000
0010
0000
0000
0000
0001
0000
0000
1000
0000
0000
0010
0000
,
0000
0000
0100
0000
0001
0000
0000
0000
0001
0000
0000
1000
0000
0000
0010
0000
,
1000
0000
0000
0001
0000
0000
0100
0000
1000
0000
0000
0000
0200
0000
0000
0000
,
0301
0000
0010
0000
0001
0000
0100
0000
0010
0000
0000
1000
0000
0000
0010
0000
,
0000
0000
1000
0000
0010
0000
0100
0000
0010
0000
0000
1000
0000
0000
0010
0000
,
0000
0000
1000
0000
0100
0000
0010
0000
0001
0000
0000
0100
0000
0000
0010
0000
,
1000
0000
0000
0100
0000
0000
1000
0000
0010
0000
1000
0000
0100
0000
0010
0000
,
0002
0000
0000
0103
0020
0000
0000
1030
,
0200
0000
0000
1300
0001
0100
1000
0010
,
1000
0001
0010
0001
1001
0000
0110
0000
,
2002
0000
0000
0000
3003
0000
1000
0100
,
0020
0000
0000
0000
0130
0000
0001
0100
,
0020
0000
0000
0000
0130
0000
1000
0001
,
0100
0000
0001
1000
0010
0000
1000
0100
,
0010
0000
0110
0000
0001
1000
0100
0010
,
0002
0000
0000
0013
0200
0000
0000
0301
,
2000
0000
0000
3001
1000
0010
0100
0010
,
0001
0100
0010
1000
0010
0000
0110
0000
,
0202
0000
0000
0000
0303
0000
1000
0010
,
0200
0000
0000
0000
0301
0000
0001
0010
,
0200
0000
0000
0000
1300
0000
0001
0100
,
0001
0000
1000
0010
1000
0000
0001
0100
,
0001
0000
0110
0000
1001
0000
1000
0100
,
0001
0000
1000
0000
0100
0000
0001
1000
,
0100
0000
0001
0000
0100
0000
0001
1000
,
0010
0000
0001
0000
0100
0000
0100
1000
,
0001
0010
0100
0001
0200
0000
0300
0000
,
0010
0000
0001
0000
0100
0000
0001
1000
,
0001
0000
0010
0000
1000
0000
0100
1000
,
0010
0000
0001
0000
1000
0000
0001
0100
,
0001
0000
0100
0000
0001
0010
1000
0010
,
0001
0000
0000
1000
0000
0000
0001
0000
,
1000
0100
0010
0001
1000
0100
0010
0001
,
1000
0000
0000
0001
0000
0000
0010
0000
,
1000
0010
0100
0001
1000
0010
0100
0001
,
0010
0000
0100
0000
1000
0000
0010
1000
,
0100
0000
0010
0001
0100
0000
1000
0100
,
1100
0000
0000
0010
0000
0000
0101
0000
,
0000
1000
0000
0000
0011
0000
1100
0000
,
1001
0000
0000
0100
0000
0000
1010
0000
,
0000
0001
0000
0000
0011
0000
1100
0000
,
0201
0010
0001
0310
,
1002
0100
1000
0013
,
0201
1000
0001
1300
,
0001
1000
0001
0100
,
0120
0031
1200
0301
,
0021
1030
0201
1300
,
2001
0001
0001
3001
,
0120
0100
0100
0130
,
0001
0100
0010
0000
0001
0100
1000
0000
,
0001
0100
0001
0100
1000
0010
0100
0000
,
2000
0000
0000
3000
0200
0000
0000
0300
0002
0000
0000
0003
0020
0000
0000
0030
,
2000
0000
0000
3000
0200
0000
0000
0300
0002
0000
0000
0003
0020
0000
0000
0030
,
1000
0100
0001
0000
0001
0100
1000
0000
,
0010
1000
0001
0100
1000
0010
0100
0000
,
0010
1000
0100
0000
0001
0100
1000
0000
,
1000
0010
0100
0001
1000
0100
0010
0000
,
1000
0001
1000
0010
0100
0001
0010
0000
,
1000
0010
1000
0100
0010
0100
0001
0100
,
0020
0001
1030
0001
,
0201
0000
1000
0000
0001
0000
0310
1000
,
0100
0210
0001
1000
,
0001
0000
0000
0000
0310
0000
0000
0000
0001
0000
0000
1000
0000
0000
0100
0000
,
0010
0120
0001
1000
,
0001
0100
0001
1030
,
0001
0010
0100
0000
0100
1000
0100
0000
,
0001
1000
0000
0100
0000
0010
0000
1000
,
0001
0000
0000
0000
0000
1000
0100
0010
,
0002
0000
0000
0103
0020
0000
0000
1030
,
0200
0000
0000
1300
0001
0100
1000
0010
,
1000
0001
0010
0001
1001
0000
0110
0000
,
2002
0000
0000
0000
3003
0000
1000
0100
,
0020
0000
0000
0000
0130
0000
0001
0100
,
0020
0000
0000
0000
0130
0000
1000
0001
,
0100
0000
0001
1000
0010
0000
1000
0100
,
0011
1010
0101
1100
,
2001
0000
0000
3010
0200
0000
0000
0301
,
2000
0000
0000
3001
1000
0010
0100
0010
,
0001
0100
0010
1000
1010
0000
0110
0000
,
0202
0000
0000
0000
0303
0000
1000
0010
,
0200
0000
0000
0000
0301
0000
0001
0010
,
0200
0000
0000
0000
1300
0000
0001
0100
,
1000
0000
0001
0010
1000
0000
0001
0100
,
1000
0000
0000
0000
0220
0000
0000
0330
0000
0000
0000
0000
2002
0000
0000
3003
,
0000
0010
0100
0001
1000
0010
0100
0001
,
1000
0000
0000
0000
0022
0000
0000
0033
0000
0000
0000
0000
2200
0000
0000
3300
,
0000
0001
0100
0010
1000
0001
0010
0100
,
1001
0020
0130
0010
,
0110
1000
0110
0001
,
1000
0001
1000
0001
1000
0001
1000
0001
,
1000
0100
0010
0100
0010
0100
0010
0100
,
0020
0000
0030
0000
,
0110
0000
0000
0000
;

//--------------- dance-single - DJSuperNOVA ----------------
#NOTES:
     dance-single:
     DJSuperNOVA:
     Hard:
     13:
     0,0,0,0,0:
0000
0000
0000
0000
,
0001
0000
0000
0000
0000
0000
0000
0001
1000
0000
0000
0000
0000
0000
0000
1000
,
0001
0000
0000
0000
0000
1000
0100
0000
0010
0000
0001
0000
0100
0000
0010
0000
,
1000
0100
1000
0010
0100
0001
0100
0010
,
0001
0000
0010
0000
0100
0000
0001
0000
1000
0010
1000
0000
0100
0010
0100
0010
,
0100
0000
0000
0000
0001
0000
1000
0000
0001
0000
1000
0100
0010
0000
0100
0010
,
0001
0000
0000
0000
0000
0000
1000
0100
1000
0000
0100
0000
1000
0000
0100
0001
,
0010
0000
0000
0000
1000
0000
0001
0000
0010
0000
0000
0000
0000
0001
0000
0000
,
1000
0100
0010
0001
1000
0010
0100
0001
1000
0100
0010
0001
1000
0010
0100
0001
,
2000
0000
0000
0000
0000
0000
0000
0000
0000
0000
3000
0000
0000
0100
0010
0000
,
0001
0000
1000
0000
0010
0000
1000
0000
0001
0000
0000
0100
0000
0000
0010
0000
,
0000
0000
1000
0000
0010
0000
1000
0000
0001
0000
0000
1000
0000
0000
0010
0000
,
0000
0000
0100
0000
0001
0000
0010
0000
0001
0000
0000
1000
0000
0000
0010
0000
,
1000
0000
0000
0100
0001
0000
0100
0000
1000
0000
0000
0000
0100
0000
0010
0000
,
1001
0000
0010
0000
0001
0000
0100
0000
0010
0000
0000
1000
0000
0000
0010
0000
,
0000
0000
1000
0000
0010
0000
0100
0000
0010
0000
0000
1000
0000
0000
0010
0000
,
0000
0000
1000
0000
0100
0000
0010
0000
0001
0000
0000
0100
0000
0000
0010
0000
,
1000
0000
0000
0100
0000
0000
1000
0000
0010
0000
1000
0000
0100
0000
0010
0000
,
0012
0000
0000
0103
0020
0000
0000
1030
,
0200
0000
0000
0000
0000
0000
1300
0001
1000
0000
0100
0000
1000
0000
0010
0000
,
1000
0100
0010
0001
1001
0000
1001
0000
,
2002
0000
0000
0000
3003
0000
1000
0100
,
0020
0000
0000
0000
0130
0000
0001
0100
,
0020
0000
0000
0000
0130
0000
1000
0100
,
0001
0000
0001
0100
1000
0000
1000
0100
,
0010
0000
0110
0000
1001
1000
0100
0010
,
2001
0000
0000
3010
0200
0000
0000
0301
,
2000
0000
0000
0000
0000
0000
3001
1000
0001
0000
1000
0000
0100
0000
0010
0000
,
0001
0100
0010
1000
1010
0000
0110
0000
,
0202
0000
0000
0000
0303
0000
1000
0010
,
0200
0000
0000
0000
0301
0000
0001
0010
,
0200
0000
0000
0000
1300
0000
0001
0100
,
1000
0000
0001
0010
1000
0000
0001
0100
,
1001
0000
0110
0000
0001
1000
0100
0010
,
0001
0100
0001
0010
0100
1000
0001
1000
,
0100
1000
0001
0010
0100
1000
0001
1000
,
0010
1000
0001
0010
0100
1000
0100
1000
,
0001
0010
0100
0001
0200
0000
0300
0000
,
0010
1000
0001
0010
0100
1000
0001
1000
,
0001
1000
0010
0100
0001
0010
0100
1000
,
0010
1000
0001
0100
0010
1000
0001
0100
,
0001
0010
0100
1000
0001
0100
0001
0100
,
0010
0000
0000
1000
0000
0000
0001
0000
,
1000
0100
0010
0001
1000
0100
0010
0001
,
1000
0000
0000
0001
0000
0000
0010
0000
,
1000
0010
0100
0001
1000
0010
0100
0001
,
0010
0001
0100
0010
1000
0100
1000
0010
,
0100
0001
0010
0001
0100
0010
1000
0100
,
1010
0000
0000
0110
0000
0000
0101
0000
,
0000
1010
0000
0000
0011
0000
1100
0000
,
1001
0000
0000
0101
0000
0000
1010
0000
,
0000
0101
0000
0000
0011
0000
1100
0000
,
0001
0100
0010
1000
0001
0100
0010
1000
,
0001
0010
0100
1000
0001
0010
0100
1000
,
0001
1000
0100
0010
0001
1000
0100
0010
,
0001
1000
0010
0100
0001
1000
0010
0100
,
0010
1000
0001
1000
0100
1000
0001
1000
,
0001
1000
0001
0100
0001
1000
0010
0100
,
0001
0100
0001
0100
0001
0100
0001
0100
,
0010
1000
0010
1000
0010
1000
0010
1000
,
0001
0100
0010
1000
0001
0100
1000
0100
,
0001
0100
0001
0100
1000
0010
0100
0001
,
2000
0000
0000
3000
0200
0000
0000
0300
0002
0000
0000
0003
0020
0000
0000
0030
,
2000
0000
0000
3000
0200
0000
0000
0300
0002
0000
0000
0003
0020
0000
0000
0030
,
1000
0100
0001
0100
0001
0100
1000
0001
,
0010
1000
0001
0100
1000
0010
0100
1000
,
0010
1000
0100
0010
0001
0100
1000
0010
,
1000
0010
0100
0001
1000
0100
0010
0001
,
1000
0001
1000
0010
0100
0001
0010
0100
,
1000
0010
1000
0100
0010
0100
0001
0100
,
0020
0001
1030
0101
,
0210
0000
1000
0000
0001
0000
0310
1000
,
0100
0210
0001
1000
,
0001
0000
0000
0000
0310
0000
0000
0000
0001
0000
0000
1000
0000
0000
0100
0000
,
0010
0120
0001
1000
,
0001
0100
0001
1030
,
0001
0010
0100
1000
0100
1000
0100
0010
,
0001
1000
0000
0100
0000
0010
0000
0000
,
1001
0000
0000
0000
0000
1000
0100
0010
,
0012
0000
0000
0103
0020
0000
0000
1030
,
0200
0000
0000
0000
0000
0000
1300
0001
1000
0000
0100
0000
1000
0000
0010
0000
,
1000
0100
0010
0001
1001
0000
0110
0000
,
2002
0000
0000
0000
3003
0000
1000
0100
,
0020
0000
0000
0000
0130
0000
0001
0100
,
0020
0000
0000
0000
0130
0000
1000
0100
,
0001
0000
0001
0100
1000
0000
1000
0100
,
0001
0100
0010
1000
0001
1000
0100
0010
,
2001
0000
0000
3010
0200
0000
0000
0301
,
2000
0000
0000
0000
0000
0000
3001
1000
0001
0000
1000
0000
0100
0000
0010
0000
,
0001
0100
0010
1000
1010
0000
0110
0000
,
0202
0000
0000
0000
0303
0000
1000
0010
,
0200
0000
0000
0000
0301
0000
0001
0010
,
0200
0000
0000
0000
1300
0000
0001
0100
,
1000
0000
0001
0010
1000
0000
0001
0100
,
1000
0000
0000
0000
0220
0000
0000
0330
0000
0000
0000
0000
2002
0000
0000
3003
,
0000
0010
0100
0001
1000
0010
0100
0001
,
1000
0000
0000
0000
0022
0000
0000
0033
0000
0000
0000
0000
2200
0000
0000
3300
,
0000
0001
0100
0010
1000
0001
0010
0100
,
1001
0000
0000
0000
0010
0001
0010
0001
0100
0000
0000
0000
0010
0000
0000
0000
,
0110
0100
0110
0010
,
1001
1000
1001
0001
1001
1000
1001
0001
,
1001
0100
0010
0001
0100
0001
0010
0100
,
0020
0000
0030
0000
,
0110
0000
0000
0000
;

//--------------- dance-single - DJSuperNOVA ----------------
#NOTES:
     dance-single:
     DJSuperNOVA:
     Challenge:
     17:
     0,0,0,0,0:
0000
0000
0000
0000
,
0001
0000
0000
0000
0000
0000
0000
0001
1000
0000
0000
0000
0000
0000
0000
1000
,
0001
0000
0000
0000
0000
0100
1000
0100
0001
0010
0100
1000
0100
0010
0001
0100
,
0010
0100
1000
0001
0010
0100
1000
0010
,
0001
0000
0100
0000
0010
0000
1000
0000
0001
0100
0010
0000
0001
0100
0010
1000
,
0100
0000
0000
0000
0001
0000
1000
0000
0010
1000
0100
0010
0100
0010
0001
0010
,
0001
0000
0000
0000
0000
0000
1000
0100
1000
0000
0100
0000
0010
0000
1000
0100
,
0011
0000
0000
0000
0100
0000
0001
0000
1010
0000
0000
0000
0000
0001
0000
0000
,
0010
1000
0100
0010
0001
0010
0100
0010
0001
1000
0100
0010
0100
1000
0001
0020
,
0200
0000
0000
0000
0000
0000
0000
0000
0000
0000
0000
0000
0000
0000
0000
0000
0000
0000
0000
0000
0000
0000
0330
0000
0000
0000
0100
0000
0010
0100
0010
0100
,
0001
0000
1000
0100
1000
0000
0010
0000
0001
0000
0100
0010
0100
0000
1000
0000
,
0100
0000
0010
0100
0010
0000
0100
0000
0001
0000
1000
0010
1000
0000
0001
0000
,
1000
0000
0001
0100
0001
0000
0100
0000
0010
0000
1000
0100
0001
0000
0010
0000
,
0001
0000
0100
0010
1000
0000
0100
0000
0011
0000
0000
0000
0001
0010
0100
1000
,
0100
0000
0010
0001
0100
0000
0010
0000
0001
0000
0000
0100
0020
0000
1000
0030
,
0100
0000
0010
0001
0100
0000
0010
0000
1000
0000
0000
0100
0002
0000
0100
0003
,
1000
0000
0100
0010
0001
0000
0100
0000
0110
0000
0000
1000
0000
0000
0100
0000
,
0011
0000
0000
0100
0000
0000
0010
0000
1100
0000
0100
0000
0010
0000
0001
0000
,
0021
0000
0000
0000
0000
0030
0001
0000
0200
0000
0000
0000
0000
0300
0010
0000
,
2000
0000
0000
0000
0000
3000
0010
1000
0010
0000
0100
0000
0001
0000
1000
0000
,
0010
0100
0010
1000
1001
0000
0110
0000
,
2002
0000
0000
0000
3003
0000
0100
0010
,
0002
0000
0000
0000
1003
0000
0100
0010
,
2000
0000
0000
0000
3001
0000
1000
0010
,
1010
0000
0001
0010
0011
0000
1000
0100
,
1100
0000
0011
0000
1010
1000
0100
0010
,
0021
0000
0000
0000
0000
0030
0001
0000
0200
0000
0000
0000
0000
0300
0010
0000
,
2000
0000
0000
0000
0000
3000
0010
0100
0010
0000
1000
0000
0010
0000
0100
0000
,
0001
1000
0100
0010
0101
0000
0110
0000
,
1000
0010
0100
0010
1000
0010
0100
0020
2000
0000
3030
0000
0100
0000
0010
0000
,
0002
0000
0100
0000
1003
0000
0100
0010
,
2000
0000
0100
0000
3001
0000
1000
0010
,
0110
0000
0001
0100
0110
0000
1000
0010
,
1000
0100
0010
0001
1000
0010
0100
0001
1000
0000
0100
0000
0010
0000
0001
0000
,
1000
0010
0100
0001
0010
0001
0100
0010
1000
0100
1000
0010
0100
0001
0100
0010
,
1000
0100
0010
0001
0100
0001
0010
0001
1000
0010
0100
0001
1000
0010
1000
0001
,
0100
0010
1000
0100
0010
0001
0100
0010
1000
0100
1000
0010
0100
0001
1000
0010
,
0100
0001
0010
0100
1000
0000
1001
0000
,
1000
0010
0100
0001
0010
1000
0001
0100
0010
1000
0100
0010
1000
0100
0001
0100
,
1000
0010
0100
0001
0010
0100
1000
0010
0100
0001
1000
0010
0001
0010
1000
0100
,
0010
0100
0010
0001
1000
0010
1000
0100
0001
0100
1000
0100
0001
0010
0001
1000
,
0100
0010
0001
0010
1000
0100
0010
0100
1000
0010
0001
1000
0010
1000
0001
0100
,
1000
0010
0001
0100
1000
0010
1000
0100
,
0001
1000
0100
0010
0100
0010
0001
1000
0010
0100
0001
0010
0100
1000
0100
0010
,
0001
0100
0010
0100
0001
1000
0010
0100
,
0001
0010
1000
0010
0001
0100
1000
0100
0010
0100
1000
0010
0001
0010
0100
1000
,
0001
0010
0100
1000
0010
0100
0001
1000
,
0001
0000
0100
0000
0010
0000
1000
0100
0001
0000
1000
0000
0010
0000
0001
0000
,
1010
0100
0010
0011
0001
0100
0110
0010
,
1000
1100
0100
0010
0011
0010
0110
0100
,
1010
0010
0100
0101
0001
0100
0110
0010
,
1000
1100
0100
0010
0011
0010
1010
0010
,
1000
0010
0100
0001
1000
0100
0010
0001
1000
0010
0100
0001
0010
0100
1000
0010
,
0100
0001
0010
0100
1000
0010
1000
0001
0100
0010
1000
0100
0010
0001
0100
0001
,
0010
0100
0010
0100
1000
0010
1000
0100
1000
0001
0100
0001
0010
0100
1000
0100
,
0010
0100
0001
0100
0010
1000
0100
1000
0010
0100
0010
0100
0001
0010
0100
0010
,
1000
0100
0010
0100
0010
0001
0100
0010
1000
0100
1000
0001
0010
0001
0100
0010
,
0100
0010
1000
0010
0100
0010
0001
0010
0100
0010
0100
1000
0100
0010
0001
0100
,
0010
0100
0001
0100
1000
0100
0010
0100
1000
0100
0001
0100
1000
0100
0010
0100
,
0010
0001
0010
1000
0010
0100
0010
0001
0010
0100
0010
1000
0010
0100
0010
1000
,
0010
0001
0100
0010
1000
0100
1000
0010
0100
0001
0010
0001
1000
0010
1000
0010
,
0100
0001
1000
0010
0100
1000
0001
1000
0010
0100
0010
0001
0010
0100
1000
0010
,
1000
0100
1000
0100
0010
0100
0010
0001
0010
0001
0010
0100
0010
0100
1000
0100
,
1000
0100
0010
0100
0010
0001
0010
0001
0010
0100
0010
0100
1000
0100
1000
0100
,
0001
0100
0010
1000
0100
0001
0010
0100
0001
1000
0010
0100
0001
1000
0010
0100
,
1000
0100
0010
1000
0001
0100
0010
0001
1000
0010
1000
0100
1000
0001
0100
0010
,
0001
0100
0001
0100
0010
0100
0010
0100
0010
1000
0010
1000
0001
0100
0001
0100
,
0010
0001
0010
0001
0100
1000
0100
1000
0100
0001
0100
1000
0010
0001
0010
1000
,
0010
0001
0100
0010
0001
0010
1000
0100
0010
0100
1000
0010
0100
0001
1000
0100
,
1000
0001
0100
0010
1000
0100
0010
0100
,
0002
1000
0013
0110
,
0210
0000
1000
0000
0001
0000
0310
0100
,
0120
0030
1020
0000
0001
0000
0100
0000
,
0001
0000
0000
0000
1030
0000
0000
0000
0011
0000
0000
1000
0100
0000
1000
0000
,
0100
1000
0010
0100
0001
0100
0010
1000
0010
1000
0100
0010
0001
0100
0001
1000
,
0100
0010
1000
0100
1000
0001
0100
0001
0010
0100
0001
0010
0001
0100
1000
0010
,
0100
0001
0100
1000
0001
0010
1000
0100
0001
1000
0010
0001
0100
1000
0010
0100
,
0010
0010
0100
0000
0110
0000
0001
0000
1001
0000
1000
0000
1010
0000
0110
0000
,
2002
0000
0000
3003
0000
1000
0100
0010
,
0022
0000
0000
0030
0000
0003
0200
0000
0020
0000
0000
0300
0000
0030
2000
0000
,
0200
0000
0000
3300
0000
0000
1000
0100
1000
0000
0100
0000
0010
0000
0001
0000
,
0101
0001
0010
0100
0110
0000
1001
0000
,
0220
0000
0000
0000
0330
0000
1000
0100
,
0022
0000
0000
0033
1100
0000
0001
0100
,
2020
0000
0000
3030
0101
0000
1000
0010
,
0101
0000
0001
0010
1100
0000
1000
0100
,
0011
0001
0010
0000
0100
0000
1000
0000
1100
0000
0100
0000
0010
0000
0001
0000
,
0202
0000
0000
0000
0300
0003
0020
0000
2000
0000
0000
0000
0030
3000
0200
0000
,
0002
0000
0000
0000
0303
0000
0100
0001
0100
0000
0010
0000
0001
0000
0100
0000
,
0010
1000
0100
0010
0101
0000
1010
0000
,
0202
0000
0000
0000
0303
0000
0001
0010
,
2200
0000
0000
3300
1100
0000
1000
0010
,
0202
0000
0000
0303
0101
0000
1000
0100
,
0011
0010
0001
0100
1010
1000
0100
0001
,
0110
0000
2002
3003
0110
0000
2002
3003
,
0100
0001
0010
0100
1000
0010
0100
0001
,
1000
0000
0220
0330
1001
0000
0220
0330
,
1000
0001
0010
0100
1000
0010
0100
0001
,
1001
0000
0000
0000
1000
0100
0010
0001
0011
0000
0000
0000
1010
0000
0000
0000
,
0101
1010
0101
1010
,
1001
0110
0101
0110
0011
0110
1001
0110
,
1001
0100
0010
0001
0100
0010
1000
0100
0010
0001
0100
0010
1000
0100
0010
0002
,
2000
0000
0000
3003
,
0110
0000
0000
0000
;
