#TITLE:Trance World;
#SUBTITLE:;
#ARTIST:Red Pulse;
#TITLETRANSLIT:;
#SUBTITLETRANSLIT:;
#ARTISTTRANSLIT:;
#GENRE:;
#CREDIT:DJSuperNOVA;
#MUSIC:Trance World.ogg;
#BANNER:Trance World.png;
#BACKGROUND:Trance World-bg.png;
#CDTITLE:;
#SAMPLESTART:73.996;
#SAMPLELENGTH:13.159;
#SELECTABLE:YES;
#OFFSET:-0.032;
#BPMS:0.000=146.000;
#STOPS:;
#BGCHANGES:;
#FGCHANGES:;

//--------------- dance-single - DJSuperNOVA ----------------
#NOTES:
     dance-single:
     DJSuperNOVA:
     Beginner:
     1:
     0,0,0,0,0:
0000
0000
0000
0000
,
1000
0000
0000
0000
,
0100
0000
0010
0000
,
0001
0000
0000
0000
,
0000
0000
0100
0000
,
1000
0000
0000
0000
,
0001
0000
0000
0000
,
1000
0000
0000
0000
,
1001
0000
0000
0000
,
1000
0000
0000
0000
,
0100
0000
0010
0000
,
0001
0000
0000
0000
,
0000
0000
0100
0000
,
1000
0000
0000
0000
,
1000
0000
0000
0000
,
0001
0000
0000
0000
,
1001
0000
0000
0000
,
1000
0000
0000
0000
,
0001
0000
0000
0000
,
1000
0000
0000
0000
,
0010
0000
0000
0000
,
0100
0000
0000
0000
,
0100
0000
0000
0000
,
0001
0000
0000
0000
,
0001
0000
0000
0000
,
1000
0000
0000
0000
,
0001
0000
0000
0000
,
1000
0000
0000
0000
,
0001
0000
0000
0000
,
0010
0000
0000
0000
,
0100
0000
0000
0000
,
0010
0000
0000
0000
,
0100
0000
0000
0000
,
0010
0000
0000
0000
,
0100
0000
0000
0000
,
1000
0000
0000
0000
,
0001
0000
0000
0000
,
1000
0000
0000
0000
,
0001
0000
0000
0000
,
1000
0000
0000
0000
,
0001
0000
0000
0000
,
0010
0000
0000
0010
0000
0000
0000
0000
,
0100
0000
0000
0100
0000
0000
0000
0000
,
0001
0000
0000
0000
,
1001
0000
0000
0000
,
0010
0000
0000
0000
,
0010
0000
0000
0000
,
0100
0000
0000
0000
,
0100
0000
0000
0000
,
1000
0000
0000
0000
,
1000
0000
0000
0000
,
0001
0000
0000
0000
,
0001
0000
0000
0000
,
2000
0000
0000
3000
,
0200
0000
0000
0300
,
0020
0000
0000
0030
,
0002
0000
0000
0003
,
0200
0000
0000
0300
,
0020
0000
0000
0030
,
2000
0000
0000
0000
,
0002
0000
0000
3003
,
1000
0000
1000
0000
,
0001
0000
0001
0000
,
0100
0000
0100
0000
,
0001
0000
0001
0000
,
1000
0000
1000
0000
,
0001
0000
0001
0000
,
1000
0000
1000
0000
,
0001
0000
0001
0000
,
2000
0000
0000
3000
,
0002
0000
0000
0003
,
0200
0000
0000
0300
,
0020
0000
0000
0030
,
2000
0000
0000
3000
,
0020
0000
0000
0030
,
0200
0000
0000
0300
,
0002
0000
0000
0003
,
1001
0000
0000
0000
;

//--------------- dance-single - DJSuperNOVA ----------------
#NOTES:
     dance-single:
     DJSuperNOVA:
     Easy:
     4:
     0,0,0,0,0:
0000
0000
0000
0000
,
1000
0000
0000
0000
,
0100
0000
0100
0010
,
0001
0000
0000
0000
,
0000
0001
0100
0000
,
1010
0000
0000
0100
,
0101
0000
0010
0100
,
1010
0000
0000
0000
,
0001
0000
0000
0000
,
1000
0000
0000
0000
,
0001
0000
0001
0100
,
0010
0000
0010
0000
,
0000
1000
0001
1000
,
1001
0000
0100
0001
,
0101
0000
0010
1000
,
1010
0000
1000
0001
,
1000
0000
0000
0000
,
0100
0000
0100
0000
,
0010
0000
0010
0000
,
1000
0000
1000
0000
,
0001
0000
0001
0000
,
1000
0000
0001
0000
,
1000
0000
0001
0000
,
0010
0000
0010
0000
,
0100
0000
0100
0000
,
1000
0000
0001
0000
,
1000
0000
0010
0000
,
1000
0000
0100
0000
,
0001
0000
0100
0000
,
1000
0000
0100
0000
,
0010
0000
0001
0000
,
0100
0000
0001
0000
,
0100
0000
0001
0000
,
0101
0000
0001
0000
,
1010
0000
1000
0000
,
0110
0000
0010
0000
,
0101
0000
0100
0000
,
1001
0000
0001
0000
,
1010
0000
1000
0000
,
0101
0000
0001
0000
,
1001
0000
1000
0100
,
0010
0000
0000
0100
0000
0000
0000
0000
,
0100
0000
0000
0010
0000
0000
0000
0000
,
0001
0000
0001
0000
,
1001
0000
0000
0000
,
1000
0100
1000
0000
,
0001
0100
0001
0000
,
1000
1000
1000
0000
,
0001
0001
0001
0000
,
1000
1000
1000
0000
,
0010
0010
0010
0000
,
0100
0001
0100
0000
,
1000
1000
1000
0000
,
0001
0100
0000
0100
,
1000
0010
0000
0010
,
0100
0001
0000
0001
,
0100
1000
0000
1000
,
0010
0010
0000
0010
,
0010
0100
0000
1000
,
0100
0001
0000
0010
,
1000
1000
0001
0001
,
1000
0000
0100
0000
,
0001
0000
1000
0000
,
0100
0000
1000
0000
,
0001
0100
0001
1000
,
0001
0000
1000
0000
,
0100
0000
0001
0000
,
0010
0000
0001
1000
,
0001
0001
1000
1000
,
0010
0100
0001
1000
,
0010
0100
0001
0000
,
0010
0100
1000
0001
,
0010
0100
1000
0000
,
1000
0010
0100
0001
,
1000
0010
0100
0000
,
1000
1000
0001
0001
,
0100
0100
0010
0010
,
1001
0000
0000
0000
;

//--------------- dance-single - DJSuperNOVA ----------------
#NOTES:
     dance-single:
     DJSuperNOVA:
     Medium:
     7:
     0,0,0,0,0:
0000
0000
0000
0000
,
1001
0000
0000
0000
,
1000
0000
0100
0010
,
0001
0000
0000
0000
,
0000
0010
0100
1000
,
1010
0000
1000
0100
,
0010
0000
0001
0100
,
0010
0010
0100
0100
,
1001
1000
1000
1000
,
1001
0000
0000
0000
,
0100
0000
1000
0100
,
0001
0000
0000
0000
0000
0000
1000
0000
0001
0000
0000
0001
0000
0000
0001
0000
,
0000
0100
0010
0000
1000
0000
0010
0000
,
0110
0100
0001
1000
,
0010
1000
0001
0100
,
0101
0000
0000
0000
0000
0000
0100
0000
0010
0000
0000
0010
0000
0000
0010
0000
,
0110
0000
0000
0200
0000
0000
0300
0000
,
1000
0010
1000
0010
,
0100
0001
0100
0001
,
1000
0000
1000
1000
0010
0000
0100
0000
,
0001
0100
0010
1000
,
0001
0000
0100
0100
0010
0000
0001
0000
,
1000
0010
0100
1000
,
0001
0001
1000
1000
,
0010
0000
0010
0000
0100
0000
0100
0100
,
0001
0100
1000
0010
,
0100
0001
1000
0010
,
0100
0000
0001
0001
0001
0000
0100
0000
,
0010
1000
0001
0100
,
0010
0000
1000
1000
1000
0000
0010
0000
,
0100
0001
1000
0001
,
0100
0001
1000
0010
,
0011
1100
0011
1100
,
1000
1000
1000
0100
,
0010
0010
0100
0100
,
0001
0001
0010
0100
,
0001
0000
0001
0000
0001
0000
1000
0100
,
0010
0010
0010
0100
,
1000
1000
0100
0010
,
1000
1000
1000
0001
,
0001
0100
0010
1000
,
1000
0001
0000
0100
0000
0000
0010
0000
,
0001
0100
0000
0010
0000
0000
1000
0100
,
0001
0100
0010
1000
,
0110
0000
0000
0020
0000
0000
0030
0000
,
1000
0000
0010
0000
0000
0010
0000
0000
0010
0000
0000
0100
0000
0000
0001
0000
,
0000
0000
0100
0000
0000
0100
0000
0000
0100
0000
0000
1000
0000
0000
0010
0000
,
0100
0000
0001
0000
0000
0001
0000
0000
0001
0000
0000
0100
0000
0000
0001
0000
,
1000
0000
0010
0000
0000
0010
0000
0000
0010
0000
0000
0100
0000
0000
0010
0000
,
1000
0000
0001
0000
0000
0001
0000
0000
0001
0000
0000
0010
0000
0000
0010
0000
,
1000
0000
0100
0000
0000
0100
0000
0000
0100
0000
0000
1000
0000
0000
0100
0000
,
0000
0000
0001
0000
0000
1000
0000
0000
0001
0000
0000
0100
0000
0000
0001
0000
,
0000
0000
1000
0000
0000
0010
0000
0000
1000
0000
0000
0001
0000
0000
1000
0000
,
0020
0100
0001
0130
,
1002
0103
2010
3100
,
1020
0100
0001
0100
,
1030
0001
0110
1000
,
2010
0100
3010
0100
,
0012
0103
2010
3100
,
0201
1000
0001
1300
,
0001
0100
0001
0100
0010
1000
0010
0000
,
1000
0000
0001
0000
1000
0100
1000
0000
,
0010
0000
1000
0000
0001
0100
0001
0000
,
1000
0000
0100
0000
1000
0001
0100
0000
,
0010
0000
0001
0000
0010
0100
0001
0000
,
1000
0000
0010
0000
0100
0001
0100
0000
,
0010
0000
1000
0000
0100
1000
0100
0000
,
0001
1000
0001
1000
,
0010
0100
0010
0100
,
1000
0010
1000
0000
0001
0100
0001
0000
,
1000
0100
1000
0000
0001
0010
0001
0000
,
1000
0000
0100
0000
0001
0100
1000
0000
,
0100
0000
0001
0000
1000
0100
0001
0000
,
1000
0000
0001
0000
1000
0010
0001
0000
,
1000
0000
0010
0000
0001
0010
1000
0000
,
0001
0100
0010
1000
,
0010
0100
0010
0000
0100
0010
0100
0000
,
1001
0000
0000
0000
;

//--------------- dance-single - DJSuperNOVA ----------------
#NOTES:
     dance-single:
     DJSuperNOVA:
     Hard:
     13:
     0,0,0,0,0:
0000
0000
0000
0000
,
1002
0000
0000
0000
,
2003
0000
3200
0320
,
0032
0000
0000
0000
,
0000
0203
0320
2030
,
3001
0100
0001
1000
0001
0100
0001
1000
,
0010
0100
0010
1000
0010
0100
0010
1000
,
0001
1000
0010
1000
0001
0100
0010
0100
,
2002
0000
0000
3003
,
1002
0000
0000
0000
,
2003
0000
3200
0310
,
1002
0000
0000
0000
0000
0000
1000
0000
1000
0000
0000
1000
0000
0000
1003
0000
,
0000
0100
0010
1000
0001
0000
1100
0000
,
1001
0000
1000
0001
0100
0000
0010
1000
,
0001
0000
0100
0001
1000
0000
0100
0010
,
0001
0000
0000
0000
1000
0000
0001
0000
0100
0000
0000
0100
0000
0000
0100
0000
,
0110
0000
0000
0020
0000
0000
0030
0000
,
1000
0010
1000
0100
1000
0100
0001
0000
,
0001
0100
0001
0100
0001
0010
1000
0000
,
0100
0010
0001
0100
0010
1000
0001
0000
,
1000
0001
1000
0010
0100
0001
1000
0000
,
0100
1000
0100
1000
0010
0001
0100
0000
,
0010
0001
0010
0001
0100
1000
0010
0000
,
1000
0001
0100
0001
1000
0001
0100
0001
,
1000
0001
1000
0010
1000
0001
1000
0010
,
1000
0100
0000
0000
0011
0000
0000
0100
0000
0000
1000
0000
0001
0000
0000
0000
,
0001
0010
0000
0000
1100
0000
0000
0010
0000
0000
0001
0000
0100
0000
0000
0000
,
0010
0100
0000
0000
0110
0000
0000
1000
0000
0000
0001
0000
1000
0000
0000
0000
,
0100
0001
0000
0000
0101
0000
0000
0010
0000
0000
1000
0000
0010
0000
0100
0000
,
0001
0100
0000
0000
1100
0000
0000
0001
0000
0000
0100
0000
0001
0000
0000
0000
,
0010
1000
0000
0000
1100
0000
0000
0010
0000
0000
1000
0000
0001
0000
0000
0000
,
1000
0010
1000
0001
0100
0001
0100
0010
,
1000
0001
1000
0001
0100
0010
0100
0010
,
1000
0100
1000
0100
1000
0100
0010
0100
,
0010
0001
0010
0001
1000
0010
1000
0010
,
0001
0010
0001
0010
0100
0010
0100
1000
,
0001
0100
0001
0100
0001
0100
0010
1000
,
0001
0100
0001
0100
0001
0100
0010
1000
,
0010
0100
0010
0100
1000
0100
0010
0100
,
0001
0100
0001
0100
0001
0100
0001
0100
,
1000
0100
1000
0100
0001
0100
0001
0100
,
0101
0100
0000
0011
0000
1000
0001
1000
,
1010
1000
0000
0101
0000
1000
0010
0100
,
0001
0000
0100
0000
1000
0000
0100
0010
,
1001
0000
0000
0200
0000
0000
0300
0000
,
1000
0000
0010
0000
1000
0010
0000
0000
0010
0000
0000
0010
0000
0000
0010
0000
,
0100
0000
0001
0000
0100
0001
0000
0000
0001
0000
0000
0001
0000
0000
0001
0000
,
0010
0000
0100
0000
0010
0100
0000
0000
0100
0000
0000
0100
0000
0000
0100
0000
,
0010
0000
1000
0000
0010
1000
0000
0000
1000
0000
0000
1000
0000
0000
1000
0000
,
0001
0000
0100
0000
0010
1000
0000
0000
0001
0000
0000
0001
0000
0000
0001
0000
,
1000
0000
0010
0000
0100
0001
0000
0000
1000
0000
0000
1000
0000
0000
1000
0000
,
0010
0000
0100
0000
0001
0100
0000
0000
1000
0000
0000
0010
0000
0000
0001
0000
,
1000
0100
0010
0001
0100
0010
1000
0100
,
0012
0100
0010
1003
,
2010
3100
0120
0031
,
2001
0000
0100
0000
3001
0000
0010
1000
,
0001
0100
0020
0000
0230
0000
0302
0000
,
2003
0000
0010
0000
3100
0000
0001
0100
,
2000
0000
3001
0200
0010
0000
0302
0000
,
2003
0100
0010
3001
,
1000
0100
0010
0001
1000
0010
0100
0001
,
1000
0010
1000
0010
0100
0010
1000
0100
,
1000
0010
0100
0010
1000
0100
0001
0100
,
0001
0010
0001
0100
0010
0100
0001
0010
,
0001
0100
0010
0100
0001
0100
0010
0100
,
0001
1000
0010
1000
0001
1000
0001
0100
,
0010
1000
0001
1000
0010
1000
0001
0100
,
0001
0010
0100
1000
0001
0100
0010
1000
,
0001
0100
0010
0001
1000
0010
0100
0001
,
1000
0001
1000
0010
1000
0001
1000
0010
,
0100
0001
0100
0010
0100
0001
0100
0010
,
0001
1000
0001
0100
0001
1000
0001
0100
,
0010
1000
0010
0100
0010
1000
0010
0100
,
0001
1000
0010
1000
0001
1000
0010
1000
,
0100
0001
0100
0001
1000
0010
1000
0001
,
0100
0001
1000
0100
1000
0001
0010
0001
,
1000
0010
1000
0100
0001
0100
1000
0100
,
0011
0000
0000
0000
;
