#TITLE:산속마왕;
#SUBTITLE:Pulse in Opus;
#ARTIST:Red Pulse;
#TITLETRANSLIT:The Mountain King;
#SUBTITLETRANSLIT:Pulse in Opus;
#ARTISTTRANSLIT:;
#GENRE:;
#CREDIT:DJSuperNOVA;
#MUSIC:The Mountain King.ogg;
#BANNER:The Mountain King.png;
#BACKGROUND:The Mountain King-bg.png;
#CDTITLE:;
#SAMPLESTART:53.954;
#SAMPLELENGTH:23.953;
#SELECTABLE:YES;
#OFFSET:-0.029;
#BPMS:0.000=138.000
,31.000=69.000
,31.250=138.000
,31.500=276.000
,32.000=141.000
,63.000=70.500
,63.250=141.000
,63.500=282.000
,64.000=144.000
,96.000=147.000
,128.000=150.000
,136.000=153.000
,144.000=156.000
,152.000=159.000
,160.000=162.000
,168.000=165.000
,176.000=168.000
,184.000=172.000
,192.000=175.000
,256.000=87.500
,256.250=175.000
,256.500=350.000
,257.000=175.000
,260.000=87.500
,260.250=175.000
,260.500=350.000
,261.000=175.000
,272.000=87.500
,272.250=175.000
,272.500=350.000
,273.000=175.000
,276.000=87.500
,276.250=175.000
,276.500=350.000
,277.000=175.000
,288.000=87.500
,288.250=175.000
,288.500=350.000
,289.000=175.000
,292.000=87.500
,292.250=175.000
,292.500=350.000
,293.000=175.000
,312.000=87.500
,313.000=175.000
,314.000=350.000
,316.000=175.000
;
#STOPS:;
#DISPLAYBPM:138.000:175.000;
#BGCHANGES:;
#FGCHANGES:;

//--------------- dance-single - DJSuperNOVA ----------------
#NOTES:
     dance-single:
     DJSuperNOVA:
     Beginner:
     3:
     0,0,0,0,0:
0000
0000
0000
0000
,
0100
0000
0100
0000
,
0010
0000
0010
0000
,
1001
0000
0000
0000
,
1000
0000
0000
0000
,
1000
0000
0000
0000
,
0001
0000
0000
0000
,
0001
0000
0000
0000
,
0100
0000
0000
0000
,
0100
0000
0000
0000
,
0010
0000
0000
0000
,
0010
0000
0000
0000
,
0100
0000
0000
0000
,
0100
0000
0000
0000
,
0010
0000
0000
0000
,
0010
0000
0000
0000
,
1000
0000
0000
0000
,
1000
0000
0000
0000
,
0001
0000
0000
0000
,
0001
0000
0000
0000
,
1000
0000
0000
0000
,
0100
0000
0000
0000
,
0010
0000
0000
0000
,
0001
0000
0000
0000
,
1000
0000
0000
0000
,
0010
0000
0000
0000
,
0100
0000
0000
0000
,
0001
0000
0000
0000
,
1000
0000
0000
0000
,
0001
0000
0000
0000
,
1000
0000
0000
0000
,
0001
0000
0000
0000
,
1001
0000
0000
0000
,
1000
0000
0000
0000
,
0100
0000
0000
0000
,
0001
0000
0000
0000
,
1001
0000
0000
0000
,
0010
0000
0000
0000
,
0100
0000
0000
0000
,
1000
0000
0000
0000
,
0001
0000
0001
0000
,
1000
0000
1000
0000
,
0001
0000
0001
0000
,
1000
0000
1000
0000
,
0010
0000
0010
0000
,
0100
0000
0100
0000
,
0010
0000
0010
0000
,
0100
0000
0100
0000
,
1001
0000
0000
0000
,
0100
0000
0000
0000
,
1001
0000
0000
0000
,
0010
0000
0000
0000
,
1001
0000
0000
0000
,
1000
0000
0000
0000
,
1001
0000
0000
0000
,
0001
0000
0000
0000
,
1001
0000
0000
0000
,
0100
0000
0000
0000
,
0001
0000
0000
0000
,
0100
0000
0000
0000
,
1000
0000
0000
0000
,
0010
0000
0000
0000
,
0001
0000
0000
0000
,
0100
0000
0000
0000
,
1000
0000
0000
0000
,
0001
0000
0000
0000
,
1001
0000
0000
0000
,
0000
0000
0000
0000
,
0001
0000
0000
0000
,
1000
0000
0000
0000
,
1001
0000
0000
0000
,
0000
0000
0000
0000
,
0010
0000
0000
0000
,
0100
0000
0000
0000
,
0010
0000
0100
0000
,
0010
0000
0100
0000
,
0010
0000
0000
0000
,
1000
0000
0000
0000
,
1001
0000
0000
0000
,
1000
0000
0000
0000
,
0100
0000
0000
0000
,
0010
0000
0000
0000
,
0001
0000
0000
0000
,
0001
0000
0000
0000
,
0100
0000
0000
0000
,
0010
0000
0000
0000
,
1000
0000
0001
0000
,
1000
0001
0000
0000
;

//--------------- dance-single - DJSuperNOVA ----------------
#NOTES:
     dance-single:
     DJSuperNOVA:
     Easy:
     8:
     0,0,0,0,0:
0000
0000
0000
0000
,
1000
0000
0001
0000
,
1000
0000
0001
0000
,
0220
0000
0000
0330
,
1000
0100
0010
0001
,
0001
0100
0100
0010
,
0010
1000
0100
0010
,
0001
1000
0001
1001
,
1000
0100
0010
0001
,
0100
0001
0100
0010
,
1000
0100
1000
0100
,
0010
0001
2002
3003
,
0001
0100
0010
0010
,
1000
0010
0100
0100
,
0001
0010
0100
1000
,
0001
0001
1000
1001
,
0001
0100
0010
0010
,
1000
1000
0001
0001
,
1000
0100
0010
0010
,
0001
0010
0100
1000
,
0001
0101
0100
0010
,
1000
0100
0001
0100
,
1000
1010
0100
0010
,
0001
0100
0010
0100
,
1001
0100
0010
0001
,
0001
0110
1000
0100
,
1000
0100
0001
1000
,
0010
1000
0001
0001
,
1001
0100
0001
0100
,
1000
0100
1000
0100
,
0010
0100
0001
0100
,
0010
1000
0001
0100
,
1000
1000
0100
0100
,
0001
0001
0100
0100
,
0001
0010
0100
1000
,
0001
0001
0100
0010
,
1000
1010
0100
0010
,
0001
0101
1000
0100
,
0010
0110
0010
0100
,
1000
1100
0100
0010
,
0001
0100
0001
0100
,
0100
0010
1000
1001
,
0100
0010
0001
0100
,
1000
0010
0100
0100
,
0001
0001
1000
1000
,
0010
0010
0100
0100
,
0010
0010
0010
0010
,
0100
0100
0100
0100
,
1001
1000
0100
0010
,
0001
0010
0100
0010
,
1001
0010
0100
0001
,
1000
0010
1000
0001
,
0101
1000
0010
0100
,
0001
0100
1000
0010
,
1100
0010
0100
0001
,
1000
0000
0100
0000
0010
0010
0010
0000
,
1000
0000
0001
0000
0100
0100
0100
0000
,
0001
1000
0010
0100
,
0001
0000
0001
0000
1000
1000
1000
0000
,
0010
0000
0100
0000
0001
0001
0001
0000
,
1000
1000
0100
0010
,
0100
0000
0001
0000
0010
0010
0010
0000
,
1000
0001
0100
1000
,
0010
0000
0001
0000
0100
0100
0100
0000
,
1000
0000
1001
0000
0100
0100
0100
0000
,
0001
0000
1001
0000
0100
0100
0100
0000
,
1000
0100
0010
0001
,
0010
0100
1000
1001
,
0010
0000
0110
0000
0100
0100
0100
0000
,
0010
0000
0110
0000
0010
0010
0010
0000
,
1000
0100
0001
0100
,
1000
0010
1001
0001
,
0100
0000
1010
0000
0100
0100
0100
0000
,
0010
0000
0101
0000
0010
0010
0010
0000
,
1000
0101
1100
0101
,
1100
0101
1100
0101
,
1000
0001
0010
0100
,
1000
0001
0010
0100
,
1000
0000
0000
0000
,
1000
0100
0010
0001
,
1000
0010
0100
0001
,
1000
1000
0001
0001
,
0100
0010
0100
1001
,
1000
0100
0010
0100
,
0001
0010
0100
1000
,
0001
0100
0010
1000
,
0100
0010
0001
0010
,
0100
1001
0000
0000
;

//--------------- dance-single - DJSuperNOVA ----------------
#NOTES:
     dance-single:
     DJSuperNOVA:
     Medium:
     13:
     0,0,0,0,0:
0000
0000
0000
0000
,
0001
0000
0000
1000
0000
1000
0000
0000
0001
0000
0000
0100
0000
0100
0000
0000
,
0001
0000
0000
1000
0000
1000
0000
0000
0010
0000
0000
0100
0000
0100
0000
0000
,
2002
0000
3003
0000
,
1000
0100
1000
0100
0010
0001
0010
0000
,
0010
0100
0010
0000
0100
1000
0100
0000
,
1000
0100
0010
0100
0010
0100
0010
0001
,
0010
0100
0001
0100
0010
0000
1001
0000
,
1000
0100
1000
0100
0010
0001
0010
0000
,
0010
0100
0010
0000
0100
1000
0100
0000
,
1000
0100
0010
0001
0100
0010
1000
0001
,
0010
0100
1000
0100
0010
0000
0110
0000
,
0001
0100
0010
0100
0001
0100
0010
0000
,
0001
0100
0001
0000
1000
0100
1000
0000
,
0010
0100
1000
0100
0010
0100
0010
0000
,
0001
0100
1000
0000
1001
0000
0110
0000
,
1000
0100
0010
0001
1000
0100
1000
0000
,
0001
0100
0001
0000
1000
0010
1000
0000
,
0100
0010
1000
0001
0010
0100
1000
0010
,
0100
0001
1000
0100
0010
0000
0100
0000
,
0001
0100
0010
1000
0100
1000
0010
0100
,
1000
0100
1000
0100
0010
0001
1000
0000
,
0001
0100
0001
0010
0100
1000
0100
1000
,
0100
0010
0100
0010
0001
0100
0001
0000
,
1000
0100
0010
0100
1000
0100
0010
0000
,
0001
0100
0010
0100
0001
0100
0010
0000
,
1000
0001
1000
0010
1000
0001
1000
0100
,
0010
0001
0100
0010
1000
0000
0011
0000
,
1000
0100
0010
0001
1000
0100
0010
0000
,
0001
0100
0010
1000
0001
0100
0010
0000
,
1000
0100
0010
0001
0100
0001
0010
0100
,
1000
0100
0010
0100
0010
0200
0300
0000
,
1000
0100
0010
0001
1000
0100
1000
0000
,
0100
0010
0100
0000
0100
0001
0100
0000
,
1000
0010
0100
0001
1000
0100
0010
0001
,
0100
0010
1000
0100
1000
0000
0011
0000
,
1000
0100
0001
0100
0010
0100
1000
0000
,
0001
0010
0011
0000
1000
0010
1010
0000
,
0100
0010
0100
0001
1000
0010
0100
0001
,
0010
0100
0010
1000
0001
0000
1001
0000
,
1000
0100
1000
0100
0010
0100
0010
0100
,
0001
0100
0001
0100
0010
0100
0010
1000
,
0100
1000
0100
0010
0001
0100
0001
0100
,
0010
0100
1000
0010
0100
0001
1000
0000
,
1000
0100
1000
0100
0010
0100
0020
0000
,
0031
0100
0002
0000
0103
0010
0200
0000
,
0310
1000
0010
1000
0010
0100
0010
0100
,
0001
0010
0100
1000
0001
0100
0110
0000
,
1001
0000
1000
0100
0010
0001
1000
0100
,
1000
0010
0100
1000
0010
0100
0010
0000
,
1001
0000
0100
0010
0001
0100
0010
0100
,
0001
0010
0100
0001
0010
0001
0100
0000
,
0110
0000
1000
0100
1000
0001
0100
0001
,
1000
0100
1000
0001
0100
0001
0100
0000
,
1001
0000
1000
0010
1000
0001
0010
0001
,
1000
0100
0001
0100
1000
0100
0001
0000
,
0001
0100
0010
1000
0001
0010
0100
1000
,
0010
0100
0001
0100
0010
0100
1000
0000
,
1000
0100
0010
0001
1000
0010
0100
0001
,
1000
0100
1000
0010
0100
0001
0010
0000
,
0001
0100
0010
1000
0001
0100
0010
1000
,
0010
0100
0001
1000
0100
0010
0001
0000
,
0010
0100
0001
0010
0100
1000
0100
1000
,
0100
0010
0001
0100
0010
1000
0001
0100
,
0010
0000
0110
0000
1000
0100
1000
0000
,
0010
0000
0110
0000
0001
0100
0001
0000
,
1000
0100
0010
0001
1000
0100
1000
0000
,
0001
0100
0010
1000
0001
0100
0001
0000
,
1000
0000
0101
0000
0010
0100
1000
0000
,
0001
0000
1010
0000
0001
0010
0100
0000
,
1000
0010
1000
0001
0100
0010
0001
0100
,
0001
0010
0100
0001
1000
0010
1000
0000
,
0100
0000
1001
0000
0010
0100
0010
0000
,
0100
0000
1001
0000
0100
0010
0100
0000
,
1000
0101
0011
1100
,
1010
0110
1001
0110
,
0001
0000
0001
0010
0001
0010
0100
0010
,
0100
1000
0100
1000
0100
0010
0001
1000
,
0001
2000
0000
0000
,
3001
0010
0001
0010
0001
0100
0010
0000
,
0010
0100
0010
0000
0100
1000
0100
0000
,
1000
0100
1000
0100
0010
0100
0010
0001
,
0010
0100
1000
0100
0010
0100
0001
0000
,
1001
0100
0010
0001
0010
0100
1000
0000
,
0001
0010
0100
0000
0010
0100
1000
0000
,
0001
0100
1000
0001
0010
1000
0001
0100
,
1000
0100
0010
0001
1000
0100
1000
0010
,
0100
1001
0000
0000
;

//--------------- dance-single - DJSuperNOVA ----------------
#NOTES:
     dance-single:
     DJSuperNOVA:
     Hard:
     18:
     0,0,0,0,0:
0000
0000
0000
0000
,
1000
0000
0000
0010
0000
0010
0000
0000
0100
0000
0000
0010
0000
0010
0000
0000
,
1000
0000
0000
0001
0000
0001
0000
0000
0100
0000
0000
0001
0000
0001
0000
0000
,
1000
0001
0000
0000
,
1000
0000
0100
0000
0010
0000
0001
0000
1000
0100
1000
0000
0001
0000
0000
0000
,
0001
0100
0001
0000
1000
0000
0000
0000
1000
0100
1000
0000
0001
0000
0000
0000
,
1000
0100
0010
0000
0001
0000
0100
0000
0010
1000
0010
0000
0100
0000
0001
0010
,
0001
0010
0001
0000
0100
0010
0100
0010
0100
0000
0000
0000
1001
0000
0000
0000
,
0100
0000
0010
0000
0001
0000
1000
0100
1000
0000
0010
0000
0001
0000
0000
0000
,
0100
0000
0010
0000
1000
0000
0010
0100
0010
0000
1000
0000
0001
0000
0000
0000
,
1000
0000
0100
0000
1000
0000
0010
1000
0100
0000
0001
0000
0010
0000
0001
0000
,
0010
0000
0100
0000
1000
0000
0100
0000
1010
0000
0000
0000
0001
0100
0001
0100
,
0010
0100
0010
0000
1000
0000
0100
0010
0001
0010
0100
0000
0001
0000
0000
0000
,
1000
0100
1000
0000
0001
0000
0000
0100
0001
0010
0001
0000
1000
0000
0000
0000
,
0010
0100
0010
0000
1000
0000
0100
1000
0100
1000
0010
0000
0001
0000
0000
0000
,
1000
0100
1000
0000
0010
0000
0000
0010
0001
0000
0000
0000
1001
0100
0000
0000
,
1001
0000
0100
0000
0010
0000
0001
0010
0001
0000
0100
0000
0010
0000
0000
0000
,
0100
0000
1000
0000
0010
0000
0100
0010
0100
0000
0010
0000
1000
0000
0000
0000
,
0100
0000
0010
0000
0001
0000
1000
0100
1000
0000
0010
0000
0100
0000
0001
0010
,
0001
0010
0001
0000
0010
0000
0010
0000
0100
1000
0100
0000
1000
0100
1000
0100
,
0010
0000
0001
0000
0001
0100
0010
0000
0100
0000
0010
0000
1000
0010
0100
0000
,
1000
0000
0010
0000
1000
0100
0010
0000
0001
0000
0010
0000
0100
0010
0100
0000
,
0001
0000
1000
0000
0010
1000
0100
0000
0100
0000
0010
0000
0001
1000
0100
0000
,
0010
0000
1000
0000
0100
0010
0001
0000
0010
0000
0100
0000
1000
0010
0100
0000
,
1100
0000
0100
0000
0110
0000
0001
0100
0010
0000
0100
0000
1000
0000
0000
0000
,
1000
0000
0100
0000
1100
0000
0100
0001
0010
0000
0001
0000
1000
0000
0000
0000
,
0010
0000
1000
0000
0010
0001
0100
0001
0100
0000
0010
0000
0001
1000
0100
1000
,
0100
0000
0010
0000
0001
0100
0001
0100
0010
0000
0000
0000
1001
0000
0000
0000
,
1000
0000
0100
0000
0010
0000
0001
0010
0001
0000
0100
0000
0010
0000
0000
0000
,
1000
0000
0100
0000
0011
0000
0001
0010
0001
0000
1000
0000
0100
0000
0000
0000
,
1000
0000
0010
0000
0100
0000
0001
0100
0010
0000
1000
0000
0001
0000
1000
0000
,
0100
0000
0010
0000
0001
0000
1000
0100
1000
0000
0010
0000
0110
0000
0000
0000
,
1000
0100
0010
0000
0001
0000
1000
0000
0010
0000
1000
0000
0001
0000
0000
0000
,
0100
0010
0100
0000
0001
0000
0000
0000
0010
0000
1000
0000
0010
0000
0000
0100
,
1000
0100
1000
0000
0010
0000
0001
0000
0100
0000
0001
0000
0010
0000
0001
0000
,
0100
1000
0010
0000
1000
0000
0100
0000
0010
0000
0001
0000
0100
0010
0100
0010
,
0001
0100
0110
0100
1000
0010
0110
0000
,
1000
0100
0011
0000
0001
0100
1010
0000
,
0001
0100
1100
0100
0001
0010
0110
1000
,
0010
0100
0011
0100
0010
0100
1100
1000
,
0100
0001
0100
0001
0010
0001
0010
0001
1000
0100
1000
0000
0010
0100
0010
0000
,
1000
0010
1000
0010
0100
0001
0100
0010
0100
0001
0100
0001
0100
0010
1000
0000
,
0001
0100
0001
0100
0010
0100
0010
0100
1000
0100
1000
0100
0010
0001
0010
0001
,
1000
0100
0010
0001
1000
0100
1000
0010
0100
0000
0001
0000
0100
0010
0100
0000
,
1000
0010
1000
0010
0100
0001
0100
0001
1000
0100
0010
0000
0100
0010
0001
0100
,
0001
0010
0100
1000
0100
1000
0100
0000
0010
0000
0100
0000
0001
0010
0001
0000
,
1000
0010
0100
0010
1000
0010
0100
0001
0100
0010
0100
0001
0100
0010
0100
0010
,
1000
0001
0010
0100
1000
0001
1000
0100
0010
0001
1000
0001
0010
0100
1000
0100
,
0010
0000
0000
0000
0110
0000
0001
0010
1000
0000
0100
0000
0110
0000
0100
0000
,
0001
0000
1000
0000
1010
0000
0100
0000
0001
0000
1000
0000
1010
0000
0010
0100
,
0001
0000
0001
0000
1010
0000
0100
0001
0010
0001
0100
0000
0110
0000
1000
0000
,
0001
0010
0001
0100
0010
1000
0100
1000
0010
0100
0001
0100
1000
0000
0001
0100
,
1000
0000
0100
0000
0110
0000
1000
0100
0001
0100
0010
0000
1010
0000
0100
0010
,
0001
0000
0100
0000
1010
0000
0001
0000
0100
0010
0100
1000
0100
0001
0100
0010
,
1000
0000
1000
0000
1010
0000
0100
0001
0010
0001
0100
0010
1000
0000
0100
0000
,
0011
0000
0010
0000
0110
0000
0100
0000
1000
0100
0010
0001
1000
0010
0100
0001
,
1000
0000
0100
0000
0010
0000
0100
0010
0001
0000
0100
0000
0010
0000
1000
0000
,
0100
0000
1000
0000
0010
0000
0100
0010
0100
1000
0100
0000
0101
0000
0000
0000
,
1001
0000
0000
0000
0101
0000
0010
0001
1000
0000
0100
0000
0110
0000
0010
0000
,
1000
0000
0001
0000
0100
0000
0010
0001
1000
0010
1000
0100
0010
0001
0100
0010
,
1000
0000
0000
0000
0101
0000
1000
0010
1000
0100
1000
0000
0110
0000
0010
0000
,
0001
0000
0100
0000
0110
0000
0001
0010
0100
1000
0001
0000
1001
0000
1000
0000
,
0110
0000
0000
0000
0101
0000
1000
0100
1000
0010
0100
0001
1000
0000
0010
0000
,
0110
0000
0100
0000
0110
0000
0010
0000
1000
0100
0010
0001
0010
0100
1000
0100
,
0010
0000
0101
0000
0010
0110
0100
0000
,
1000
0000
1001
0000
1100
0100
0101
0000
,
0001
0000
0100
0000
0010
0000
1000
0010
0100
0000
0100
0000
0001
0000
0000
0000
,
1000
0000
0001
0000
0100
0000
0010
0000
1000
0100
0001
0100
1000
0000
0010
0000
,
0001
0000
1010
0000
0001
0101
0100
0000
,
1000
0000
0101
0000
1010
1000
1010
0000
,
0100
0010
0100
0010
0001
0010
0001
0010
0100
0000
0010
0000
1000
0000
0001
0000
,
0010
0100
0010
0100
1000
0100
0010
0001
1000
0010
0001
0010
1000
0000
0100
0001
,
0010
0000
1001
0000
0100
0110
0010
0000
,
0100
0000
1001
0000
0110
0100
0110
0000
,
1010
0000
0000
0000
0101
0000
1000
0100
0010
0000
1000
0000
0101
0000
0010
0000
,
1100
0000
0000
0000
0101
0000
0010
0100
1000
0100
0010
0100
0001
0000
1000
0000
,
1010
0000
0000
0000
0001
0010
0001
0000
0010
0100
0010
0000
0100
1000
0100
0000
,
0010
0000
0010
0000
0100
0000
0100
0000
1000
0100
0010
0001
1000
0001
0010
0100
,
1000
0000
0000
0000
0001
1000
0001
0000
0000
0000
0000
0000
0000
0000
0000
0000
,
1000
0100
1000
0100
0010
0100
0010
0100
0010
0001
0010
0000
0001
0100
0001
0100
,
1000
0100
1000
0100
0010
0100
0010
0100
0010
0001
0010
0000
0001
0100
0001
0000
,
1000
0010
1000
0010
0100
0010
0100
0010
0001
0100
0001
0100
0010
0100
0010
0100
,
1000
0100
1000
0100
0010
0001
0010
0001
1000
0100
0010
0001
1000
0000
0000
0000
,
0001
0100
0001
0100
0010
0100
0010
0100
0001
0100
0010
1000
0010
0100
0001
1000
,
0010
0100
0010
0100
0010
1000
0010
1000
0010
0100
0010
0100
0010
0001
0010
0001
,
1000
0100
1000
0100
0010
0001
0010
0001
1000
0010
1000
0010
0100
0001
0100
0001
,
1000
0100
0001
0100
1000
0010
0001
0010
1000
0100
0001
0100
1000
0010
0001
0010
,
1000
1001
0000
0000
;

//--------------- dance-single - DJSuperNOVA ----------------
#NOTES:
     dance-single:
     DJSuperNOVA:
     Challenge:
     14:
     0,0,0,0,0:
0000
0000
0000
0000
,
0001
MMMM
1000
MMMM
,
0001
MMMM
1000
MMMM
,
1001
MMMM
MMMM
MMMM
,
1000
0100
1000
0100
0010
0001
0010
MMMM
,
0010
0100
0010
MMMM
0100
1000
0100
MMMM
,
1000
0100
0010
0100
0010
0100
0010
0001
,
0010
0100
0001
0100
0010
MMMM
1001
MMMM
,
1000
0100
1000
0100
0010
0001
0010
MMMM
,
0010
0100
0010
MMMM
0100
1000
0100
MMMM
,
1000
0100
0010
0001
0100
0010
1000
0001
,
0010
0100
1000
0100
0020
0030
MMMM
0000
,
0001
0100
0010
0100
0001
0100
0010
MMMM
,
0001
0100
0001
MMMM
1000
0100
1000
MMMM
,
0010
0100
1000
0100
0010
0100
0010
MMMM
,
0001
0100
1000
MMMM
1001
MMMM
0110
MMMM
,
1000
0100
0010
0001
1000
0100
1000
MMMM
,
0001
0100
0001
MMMM
1000
0010
1000
MMMM
,
0100
0010
1000
0001
0010
0100
1000
0010
,
0100
0001
1000
0100
0010
MMMM
0110
MMMM
,
0001
0100
0110
0010
0100
1000
0010
0100
,
1000
0010
1000
0100
0010
0001
1000
MMMM
,
0001
0100
0101
0010
0100
1000
0100
1000
,
0100
0010
0100
0010
0001
0100
0001
MMMM
,
1000
0100
0110
0100
1000
0100
0010
MMMM
,
0001
0100
0010
0100
0001
0100
0010
MMMM
,
1000
0010
1010
0010
1000
0001
1000
0100
,
0010
0001
0100
0010
1000
MMMM
0011
MMMM
,
1000
0100
0010
0001
1000
0100
0010
MMMM
,
0001
0100
0010
1000
0001
0100
0010
MMMM
,
1000
0100
0010
0001
0100
0001
0010
0100
,
1000
0100
0010
0100
0010
0200
0300
MMMM
,
1000
0100
0010
0001
1000
0100
1000
MMMM
,
0100
0010
0100
MMMM
0100
0001
0100
MMMM
,
1000
0010
0100
0001
1000
0100
0010
0001
,
0100
0010
1000
0100
1000
MMMM
0011
MMMM
,
1000
0100
0001
0100
0010
0100
1000
MMMM
,
0001
0010
0011
MMMM
1000
0010
1010
MMMM
,
0100
0010
0100
0001
1000
0010
0100
0001
,
0010
0100
0010
1000
0001
MMMM
1001
MMMM
,
1000
0100
1100
0100
0010
0100
0110
0100
,
0001
0100
0101
0100
0010
0100
0110
1000
,
0100
1000
1100
0010
0001
0100
0101
0100
,
0010
0100
1100
0010
0100
0001
1000
MMMM
,
1000
0100
1000
0100
0010
0100
0020
0000
,
0031
0100
0002
0000
0103
0010
0200
0000
,
0310
1000
0010
1000
0010
0100
0010
0100
,
0001
0010
0100
1000
0001
0100
0110
MMMM
,
1001
MMMM
1000
0100
0010
0001
1000
0100
,
1000
0010
0100
1000
0010
0100
0010
0100
,
1001
MMMM
0100
0010
0001
0100
0010
0100
,
0001
0010
0100
0001
0010
0001
0100
0010
,
0110
MMMM
1000
0100
1000
0001
0100
0001
,
1000
0100
1000
0001
0100
0001
0100
0010
,
1001
MMMM
1000
0010
1000
0001
0010
0001
,
1000
0100
0001
0100
1000
0100
0001
MMMM
,
0001
0100
0010
1000
0001
0010
0100
1000
,
0010
0100
0001
0100
0010
0100
1000
MMMM
,
1000
0100
0010
0001
1000
0010
0100
0001
,
1000
0100
1000
0010
0100
0001
0010
MMMM
,
0001
0100
0010
1000
0001
0100
0010
1000
,
0010
0100
0001
1000
0100
0010
0001
MMMM
,
0010
0100
0001
0010
0100
1000
0100
1000
,
0100
0010
0001
0100
0010
1000
0001
0100
,
0010
MMMM
0110
MMMM
1000
0100
1000
MMMM
,
0010
MMMM
0110
MMMM
0001
0100
0001
0100
,
1000
0100
0010
0001
1000
0100
1000
MMMM
,
0001
0100
0010
1000
0001
0100
0001
0100
,
1000
MMMM
0101
MMMM
0010
0100
1000
MMMM
,
0001
MMMM
1010
MMMM
0001
0010
0100
MMMM
,
1000
0010
1000
0001
0100
0010
0001
0100
,
0001
0010
0100
0001
1000
0010
1000
0000
,
0100
MMMM
1001
MMMM
0010
0100
0010
MMMM
,
0100
MMMM
1001
MMMM
0100
0010
0100
MMMM
,
1010
MMMM
0101
MMMM
0011
MMMM
1100
MMMM
,
1010
MMMM
0110
MMMM
1001
MMMM
0110
MMMM
,
1001
MMMM
0001
0010
0001
0010
0100
0010
,
0100
1000
0100
1000
0100
0010
0001
1000
,
0001
MMMM
2000
0000
0000
0000
0000
0000
,
3001
0010
0001
0010
0001
0100
0010
MMMM
,
0010
0100
0010
MMMM
0100
1000
0100
MMMM
,
1000
0100
1000
0100
0010
0100
0010
0001
,
0010
0100
1000
0100
0010
0100
0001
MMMM
,
1001
0100
0010
0001
0010
0100
1000
MMMM
,
0001
0010
0100
MMMM
0010
0100
1000
MMMM
,
0001
0100
1000
0001
0010
1000
0001
0100
,
1000
0001
0010
1000
0001
0100
1000
0010
,
0100
MMMM
1001
0000
0000
0000
0000
0000
;
