#TITLE:Stunt Flying;
#SUBTITLE:;
#ARTIST:Dr. Flowershirts;
#TITLETRANSLIT:;
#SUBTITLETRANSLIT:;
#ARTISTTRANSLIT:;
#GENRE:;
#CREDIT:DJSuperNOVA;
#MUSIC:Stunt Flying.ogg;
#BANNER:Stunt Flying.png;
#BACKGROUND:Stunt Flying-bg.png;
#CDTITLE:;
#SAMPLESTART:89.864;
#SAMPLELENGTH:29.192;
#SELECTABLE:YES;
#OFFSET:0.955;
#BPMS:0.000=147.987;
#STOPS:;
#BGCHANGES:;
#FGCHANGES:;

//--------------- dance-single - DJSuperNOVA ----------------
#NOTES:
     dance-single:
     DJSuperNOVA:
     Beginner:
     2:
     0,0,0,0,0:
0000
0000
0000
0000
,
0000
0000
0000
0000
,
0000
0000
0000
0000
,
0000
0000
0000
0000
,
0000
0000
0000
0000
,
0100
0000
0000
0000
,
0100
0000
0000
0000
,
0010
0000
0000
0000
,
0010
0000
0000
0000
,
1001
0000
0000
0000
,
1000
0000
0000
0000
,
1000
0000
0000
0000
,
0001
0000
0000
0000
,
0001
0000
0000
0000
,
0100
0000
1000
0000
,
0001
0000
0000
0000
,
1000
0000
1000
0000
,
0001
0000
0000
0000
,
0001
0000
0001
0000
,
1000
0000
0000
0000
,
1000
0000
0100
0000
,
0001
0000
0000
0000
,
1001
0000
1000
0000
,
1000
0000
0001
0000
,
0001
0000
0000
0000
,
1000
0000
0100
0000
,
1001
0000
0001
0000
,
1000
0000
1000
0000
,
0001
0000
0001
0000
,
1000
0000
0010
0000
,
1001
0000
0100
0000
,
0100
0000
0001
0000
,
1000
0000
0000
0000
,
0000
0000
0000
0000
,
0000
0000
0000
0000
,
0000
0000
0000
0000
,
0001
0000
0000
0000
,
0000
0000
0010
0000
,
0100
0000
0000
0000
,
0000
0000
0100
0000
,
1000
0000
0000
0000
,
0000
0000
1000
0000
,
0010
0000
0000
0000
,
0000
0000
0010
0000
,
0100
0000
0000
0000
,
0000
0000
0100
0000
,
0001
0000
0000
0000
,
0000
0000
0001
0000
,
1000
0000
0000
0000
,
1000
0000
0000
0000
,
0001
0000
0000
0000
,
0001
0000
0000
0000
,
0100
0000
0000
0000
,
0100
0000
0000
0000
,
0010
0000
0000
0000
,
0010
0000
0000
0000
,
1000
0000
1000
0000
,
1000
0000
0000
0000
,
0001
0000
0001
0000
,
0001
0000
0000
0000
,
0010
0000
0010
0000
,
0010
0000
0000
0000
,
0100
0000
0100
0000
,
0100
0000
0000
0000
,
1001
0000
0000
0000
,
1000
0000
0001
0000
,
1001
0000
0000
0000
,
0000
0000
0100
0000
,
0010
0000
0000
0000
,
0000
0000
1000
0000
,
0001
0000
0000
0000
,
0000
0000
1000
0000
,
0001
0000
0000
0000
,
0100
0000
0010
0000
,
0110
0000
0000
0000
,
0000
0000
1000
0000
,
0001
0000
0000
0000
,
0000
0000
0001
0000
,
1000
0000
0000
0000
,
0000
0000
0100
0000
,
0010
0000
0000
0000
,
0010
0000
0100
0000
,
1001
0000
0000
0000
;

//--------------- dance-single - DJSuperNOVA ----------------
#NOTES:
     dance-single:
     DJSuperNOVA:
     Easy:
     6:
     0,0,0,0,0:
0000
0000
0000
0000
,
0000
0000
0000
0000
,
0000
0000
0000
0000
,
0000
0000
0000
0000
,
0000
0000
0000
0000
,
1000
0000
0100
0000
,
1000
0000
0100
0000
,
0001
0000
0100
0000
,
0001
0000
0100
0000
,
1001
0100
0100
0100
,
0010
0010
0010
0010
,
1000
1000
1000
1000
,
0001
0001
0001
0001
,
1000
0100
1000
0100
,
0001
0100
0010
0100
,
1000
0010
0100
0010
,
0100
0001
0100
0001
,
1000
1000
0001
0001
,
1000
0001
0100
0010
,
1000
0100
1000
0001
,
0100
0001
0100
0001
,
1001
0100
0100
0100
,
1001
0100
0010
1000
,
1000
0001
0001
1000
,
1000
0001
0001
0100
,
0010
0010
0100
0010
,
1001
1000
1000
0100
,
0100
0001
0001
0100
,
0100
0010
0010
0010
,
1000
1000
0001
0001
,
1001
1000
0100
0010
,
0001
0001
0010
0100
,
1001
0000
0000
0000
,
0000
0000
0000
0000
,
0000
0000
0000
0010
,
0000
0000
0000
0000
,
2000
0000
0000
0000
,
0000
3000
0200
0300
,
0020
0000
0000
0000
,
0000
0030
0002
0003
,
0200
0000
0000
0000
,
0000
0300
0002
0003
,
2000
0000
0000
0000
,
0000
3000
0200
0300
,
0020
0000
0000
0000
,
0000
0030
0200
0300
,
0002
0000
0000
0000
,
0000
0003
0020
0030
,
1000
1000
0000
1000
0000
1000
0000
1000
,
0000
1000
0000
0100
0000
0100
0010
0000
,
0010
0010
0000
0010
0000
0010
0000
0010
,
0000
0010
0000
0100
0000
0100
0001
0000
,
0001
0001
0000
0001
0000
0001
0000
0001
,
0000
0001
0000
1000
0000
1000
0010
0000
,
0100
0100
0000
0100
0000
0100
0000
0100
,
0000
0100
0100
0100
0000
0010
0010
0010
,
1000
0100
0100
0100
,
0001
0100
0100
0100
,
0010
1000
1000
1000
,
0100
0001
0001
0001
,
1000
0010
0010
0010
,
0100
0001
0001
1000
,
0010
0100
0010
1000
,
0001
0100
0010
0010
,
1001
0100
0010
0001
,
1001
0010
0100
1000
,
1001
0000
0000
0000
0100
0000
0000
0100
0000
0000
0000
0000
0100
0000
0000
0000
,
0000
0100
0000
0010
,
0001
0000
0000
0000
1000
0000
0000
1000
0000
0000
0000
0000
1000
0000
0000
0000
,
0000
1000
0000
0100
,
0010
0000
0000
0000
0001
0000
0000
0001
0000
0000
0000
0000
0001
0000
0000
0000
,
0000
0001
0000
0100
,
0010
0000
0000
0000
0010
0000
0000
0010
0000
0000
0000
0000
0010
0000
0000
0000
,
0110
0100
0010
0010
,
1001
0100
0001
0100
,
0010
0010
1000
1000
,
0001
0100
0010
1000
,
0100
0100
0001
0001
,
1000
0001
1000
1000
,
0010
0010
0100
0001
,
1000
1000
0001
0001
,
0010
1001
0100
0010
,
2002
0000
0000
0000
,
3003
0000
0000
0000
;

//--------------- dance-single - DJSuperNOVA ----------------
#NOTES:
     dance-single:
     DJSuperNOVA:
     Medium:
     8:
     0,0,0,0,0:
0000
0000
0000
0000
,
0000
0000
0000
0000
,
0000
0000
0000
0000
,
0000
0000
0000
0000
,
0000
0000
0000
0000
,
1000
0100
0001
0100
,
1000
0100
0001
0100
,
0001
0100
1000
0100
,
0001
0100
1000
0100
,
1001
0000
0000
0000
0100
0000
0000
0010
0100
0000
0000
0000
0001
0000
0000
0000
,
0010
0000
0000
0000
1000
0000
0000
0010
1000
0000
0000
0000
0010
0000
0000
0000
,
0100
0000
0000
0000
0001
0000
0000
1000
0010
0000
0000
0000
1000
0000
0000
0000
,
0001
0000
0100
0000
0001
0000
0010
0010
,
0010
0100
1000
0100
,
0001
0100
0010
0100
,
1000
0010
0100
0010
,
0100
0001
0100
0001
,
1000
0100
1000
0000
0001
0100
0001
0000
,
1000
0010
1000
0000
0001
0010
0001
0000
,
1000
0100
1000
0100
1000
0100
0001
0100
,
0010
1001
0110
1001
,
0110
0100
0100
0100
,
1001
0000
0100
0000
0010
0000
1000
1000
,
1000
0000
0001
0001
0001
0000
1000
1000
,
1000
0001
0100
1000
,
0020
0030
0200
0300
0020
0030
0200
0300
,
1001
0000
0010
0000
0010
0000
0100
0100
,
0100
0000
0010
0010
0010
0000
0100
0100
,
0100
0000
0010
0100
0010
0100
0010
0100
,
0001
0000
1000
1000
0001
0000
0001
0001
,
1000
0000
0100
0100
0010
0000
0010
0010
,
0200
0000
0020
0330
,
2002
0000
0000
0000
,
0000
0000
0000
0000
,
3003
0000
0000
0010
,
0000
0000
0000
0000
,
2001
0000
0000
0000
,
0000
3000
0200
0300
,
0020
0000
0000
0000
,
0000
0030
0002
0003
,
0200
0000
0000
0000
,
0000
0300
0002
0003
,
2001
0000
0000
0000
,
0000
3000
0200
0300
,
0020
0000
0000
0000
,
0000
0030
0200
0300
,
0002
0000
0000
0000
,
0000
0003
0020
0030
,
1000
1000
0000
0100
0000
1000
0000
0100
,
0000
1000
0000
0010
0000
0100
0010
0100
,
0010
0010
0000
1000
0000
0010
0000
1000
,
0000
0010
0000
0100
0000
0100
0001
0100
,
0001
0001
0000
0010
0000
0001
0000
0010
,
0000
0001
0000
1000
0000
1000
0010
1000
,
0100
0100
0000
0010
0000
0100
0000
0010
,
0000
0100
0010
0100
0000
0010
0100
0010
,
1000
0100
0001
0100
,
0001
0000
0100
0000
1000
0000
0100
1000
,
0010
0100
1000
0010
,
0100
0000
0001
0000
0100
0000
0001
0100
,
1000
0010
0010
0010
,
0100
0000
0001
0000
0001
0000
1000
0100
,
0010
0000
0100
0000
0010
0000
1000
0100
,
0001
0000
0100
0000
0010
0000
0010
0100
,
1001
0100
0010
0001
,
1001
0110
1001
0110
,
1001
0000
0000
0000
0100
0000
0000
0100
0000
0000
0000
0000
0100
0000
0000
0000
,
0010
0100
0001
1010
,
0001
0000
0000
0000
1000
0000
0000
1000
0000
0000
0000
0000
0010
0000
0000
0000
,
0100
1000
0010
0110
,
0010
0000
0000
0000
0001
0000
0000
0001
0000
0000
0000
0000
0001
0000
0000
0000
,
0100
0001
0010
0110
,
0010
0000
0000
0000
0010
0000
0000
0010
0000
0000
0000
0000
0010
0000
0000
0000
,
0110
0100
0110
0010
,
1001
0100
0001
0100
,
0010
0000
0010
0000
1000
0000
1000
0100
,
0001
0100
0010
1000
,
0100
0000
0100
0000
0001
0000
0001
0100
,
1000
0001
1000
1000
,
0010
0000
0010
0000
0100
0000
0001
0100
,
1000
1000
0001
0001
,
0010
0000
1001
0000
0100
0000
0010
0100
,
2002
0000
0000
0000
,
3003
0000
0000
0000
;

//--------------- dance-single - DJSuperNOVA ----------------
#NOTES:
     dance-single:
     DJSuperNOVA:
     Hard:
     11:
     0,0,0,0,0:
0000
0000
0000
0000
,
0000
0000
0000
0000
,
0000
0000
1000
0000
,
0000
0000
0000
0000
,
0000
0000
0000
0000
,
1000
0100
1000
0100
,
0001
0100
0010
0100
,
0001
0001
1000
1000
,
0010
0100
0001
1001
,
1000
0100
1000
0010
0100
0010
1000
0000
,
0001
0100
0010
0100
0001
0010
0001
0000
,
1000
0100
0010
0100
0001
0100
0010
0000
,
0001
0100
0010
1000
0010
0100
0001
0000
,
1000
0100
1000
0100
0010
0100
0010
0000
,
0001
0100
0001
0100
0010
1000
0010
0000
,
0100
0010
0100
0010
1000
0010
0100
0000
,
0001
0100
0001
0100
0010
1000
0010
0000
,
0100
1000
0001
0100
0010
1000
0010
0000
,
0001
0100
0010
1000
0100
1000
0010
0000
,
0100
0001
0010
0001
1000
0010
1000
0000
,
1001
0000
0110
0000
1000
0010
1000
0100
,
0001
0010
0001
0010
0100
1000
0100
1000
,
1001
0000
0100
0010
0001
0000
1000
1000
,
1000
0000
0010
0010
0010
0000
0100
0100
,
0100
0000
1000
0000
0100
0000
0001
1000
,
0100
0010
0001
1000
,
1001
0000
0100
0001
0100
0001
0010
0010
,
0010
0000
0100
0100
0100
0000
0001
0001
,
0001
0000
1000
0001
1000
0001
0100
0010
,
1000
0000
0100
0001
0100
0000
0100
1000
,
0100
0000
0010
0001
0010
0000
0010
1000
,
0010
0000
0100
0000
0100
0000
0010
0100
,
0220
0000
0000
0000
,
0330
0000
0000
0000
,
0000
0000
0000
0010
,
0000
0000
0000
0000
0000
0000
0000
1000
,
0020
0000
0100
0000
0001
0000
0000
0001
,
0030
0100
0020
1030
,
0002
0000
0100
0000
1000
0000
0000
1000
,
0000
0013
0200
0001
,
0320
0000
1000
0000
0100
0000
0000
0100
,
0000
0001
2030
0100
,
3020
0000
0100
0000
0001
0000
0000
0001
,
0030
0100
0020
1030
,
0002
0000
0100
0000
1000
0000
0000
1000
,
0000
0013
0200
0001
,
0320
0000
1000
0000
0100
0000
0000
0100
,
0000
0001
2030
0100
,
3001
0100
0000
0010
0000
0100
0000
0010
,
0000
0100
0000
0001
0000
0001
1000
0010
,
1000
0100
0000
0100
0000
0010
0000
0010
,
0000
1000
0000
1000
0000
0100
0001
0100
,
0001
0010
0000
1000
0000
0010
0000
0100
,
0000
0001
0000
0001
0000
0010
1000
0100
,
1000
0001
0000
0100
0000
0100
0000
0010
,
0000
0100
0010
0100
0000
0010
0100
0010
,
0100
1000
0010
1000
0100
1000
0010
1000
,
0100
1000
0010
0100
0001
0100
0010
0100
,
0001
1000
0001
0100
0001
1000
0001
0100
,
0001
1000
0010
0100
0001
1000
0010
1000
,
0010
0100
0001
0100
0010
0100
0001
0100
,
0010
1000
0010
0100
0010
1000
0001
0100
,
0010
1000
0010
0100
0001
1000
0001
0100
,
0010
0100
1000
0100
0010
0100
0010
1000
,
0100
0100
0010
0010
,
1100
0000
0011
0000
1000
1000
0001
0001
,
0100
0000
0000
0000
0010
0000
0000
0010
0100
0000
0000
0000
0110
0000
0000
0000
,
1000
0000
0000
0000
0010
0000
0000
0010
1000
0000
0000
0000
1010
0000
0000
0000
,
0100
0000
0000
0000
0001
0000
0000
0001
0100
0000
0000
0000
0101
0000
0000
0000
,
0010
0000
0000
0000
0001
0000
0000
0010
0001
0000
0000
0000
0011
0000
0000
0000
,
1000
0000
0000
0000
0100
0000
0000
0100
1000
0000
0000
0000
1100
0000
0000
0000
,
0001
0000
0000
0000
0100
0000
0000
1000
0100
0000
0000
0000
1010
0000
0000
0000
,
0100
0000
0000
0000
0001
0000
0000
0001
0100
0000
0000
0000
0110
0000
0000
0000
,
1001
0000
0011
0000
1010
0000
0001
0100
,
1000
0100
0010
1000
0100
1000
0100
0010
,
0001
0100
0010
0100
0010
0100
1000
0100
,
0001
0100
0010
1000
0100
1000
0010
0100
,
0001
0010
0100
0010
0100
0001
1000
0100
,
1000
0010
0100
0001
1000
0010
0100
0001
,
1000
0100
1000
0010
0100
0010
1000
0001
,
1000
0010
0100
0010
1000
0100
1000
0001
,
0100
0010
1000
0001
0010
0100
1000
0001
,
1001
0000
0000
0000
;
