#TITLE:Sonata (O2 Version);
#SUBTITLE:;
#ARTIST:Penny;
#TITLETRANSLIT:;
#SUBTITLETRANSLIT:;
#ARTISTTRANSLIT:;
#GENRE:;
#CREDIT:DJSuperNOVA;
#MUSIC:Sonata (O2 Version).ogg;
#BANNER:Sonata.png;
#BACKGROUND:Sonata-bg.png;
#CDTITLE:;
#SAMPLESTART:14.794;
#SAMPLELENGTH:29.533;
#SELECTABLE:YES;
#OFFSET:1.818;
#BPMS:0.000=130.025;
#STOPS:;
#BGCHANGES:;
#FGCHANGES:;

//--------------- dance-single - DJSuperNOVA ----------------
#NOTES:
     dance-single:
     DJSuperNOVA:
     Beginner:
     3:
     0,0,0,0,0:
0000
0000
0000
0000
,
0100
0000
0100
0000
,
0010
0000
0010
0000
,
1000
0000
1000
0000
,
0001
0000
0001
0000
,
1000
1000
1000
0000
,
0001
0001
0001
0000
,
0010
0010
0010
0000
,
0100
0100
0100
0000
,
1000
0001
1000
0001
,
1000
0001
1000
0000
,
0010
0100
0010
0100
,
0010
0100
0010
0000
,
1000
0100
1000
0100
,
1000
0100
1000
0000
,
0001
0010
0001
0010
,
0001
0010
0001
0000
,
1000
0000
0001
0000
,
1000
1000
1000
0000
,
0001
0000
1000
0000
,
0001
0001
0001
0000
,
0100
0000
0010
0000
,
0100
0100
0100
0000
,
0010
0000
0100
0000
,
0010
0010
0010
0000
,
1000
1000
0001
0000
,
0001
0001
1000
0000
,
1000
1000
0010
0000
,
0010
0010
0100
0000
,
0100
0100
0001
0000
,
0001
0001
0100
0000
,
1000
1000
0001
1000
,
0001
1000
0001
0000
,
1000
0010
1000
0010
,
1000
0010
1000
0000
,
0001
0100
0001
0100
,
0001
0100
0001
0000
,
0010
0100
0010
0100
,
0010
0100
0010
0000
,
0100
0010
0100
0010
,
0100
0010
0100
0000
,
1001
0000
0000
0000
,
1001
0000
0000
0000
,
0110
0000
0000
0000
,
0110
0000
0000
0000
,
1010
0000
1010
0000
,
0101
0000
0101
0000
,
0011
0000
0011
0000
,
1100
0000
2002
0000
,
3003
0000
0000
0000
;

//--------------- dance-single - DJSuperNOVA ----------------
#NOTES:
     dance-single:
     DJSuperNOVA:
     Easy:
     5:
     0,0,0,0,0:
0000
0000
0000
0000
,
1000
0001
1000
0010
,
1000
0001
1000
0010
,
0001
0100
0001
1000
,
0001
0100
0001
1000
,
0010
0100
0010
1000
,
0010
0100
0010
1000
,
0100
0001
0100
0010
,
0100
0001
0100
1001
,
1000
0001
1000
0010
,
0100
0000
0001
0000
1000
0100
1000
0000
,
0001
0100
0010
1000
,
0001
0000
1000
0000
0001
0010
0001
0000
,
1000
0010
1000
0001
,
1000
0000
0010
0000
0100
0010
0100
0000
,
0001
1000
0010
1000
,
0001
0000
0100
0000
0010
0100
0010
0000
,
1000
0100
0001
0100
,
1000
0100
0110
0000
,
0001
0100
1000
0100
,
0001
0100
0110
0000
,
1000
0001
1000
0001
,
0100
0001
1001
0000
,
0001
1000
0001
1000
,
0010
0100
1001
0110
,
1001
0001
0100
1000
,
0100
0001
0100
1000
,
0010
0001
0010
1000
,
0010
0001
0010
1000
,
0010
1000
0100
1000
,
0010
1000
0100
1000
,
0001
0010
0001
0100
,
0001
0010
0001
1001
,
1000
0100
0001
0010
,
1000
0000
0100
0000
0001
0010
0001
0000
,
1000
0100
0010
0100
,
0001
0000
0100
0000
0010
1000
0010
0000
,
0100
0001
0100
1000
,
0100
0000
0001
0000
0010
0001
0010
0000
,
0100
1000
0100
0001
,
0100
0000
0010
0000
0100
1000
0100
0000
,
0001
0001
1000
1000
,
0010
0100
0001
0001
,
1000
0100
0001
0100
,
1000
0010
0001
0100
,
1000
0100
0010
0100
,
0001
1000
0001
1000
,
0010
0100
0001
1000
,
0010
0100
0010
0000
2002
0000
3003
0000
;

//--------------- dance-single - DJSuperNOVA ----------------
#NOTES:
     dance-single:
     DJSuperNOVA:
     Medium:
     7:
     0,0,0,0,0:
0000
0000
0000
0000
,
1000
0100
1000
0000
0010
0100
0000
0001
,
0000
0001
0000
0100
0010
1000
0000
1000
,
0010
0100
0001
0000
0100
0001
0000
1000
,
0000
0010
0000
1000
0001
0100
0001
0100
,
0010
1000
0010
0000
1000
0100
0000
0010
,
0000
0100
0000
0010
0100
0001
0000
0001
,
0100
0010
0100
0000
1000
0010
0000
0100
,
0000
0001
0000
0100
0010
0000
1001
0000
,
1000
0000
0100
0010
0100
0000
0001
0000
,
0100
0000
0010
0000
1000
0100
1000
0000
,
0010
0000
0100
0000
0001
0010
0001
0000
,
1000
0000
0010
0000
1000
0100
1000
0100
,
0010
0000
0100
0000
0001
0100
0010
0000
,
1000
0000
0001
0000
0100
0010
1000
0000
,
0100
0000
0001
0000
0001
0100
1000
0000
,
0010
0000
0100
0000
0001
0100
0001
0100
,
0010
0010
1000
1000
,
0010
0000
0100
0000
0110
0000
1000
0100
,
0001
0000
0100
0000
0010
0100
1000
0100
,
0010
0000
0100
0000
1001
0000
0100
0010
,
0001
0010
0100
0010
0001
0010
0100
0010
,
0001
0100
1000
0100
0001
0100
1000
0100
,
0010
0001
0010
1000
0010
0001
0010
1000
,
0001
0000
1000
0000
0010
0001
0100
0000
,
1001
0100
0001
0100
0001
1000
0000
0100
,
0000
0010
0000
0001
0100
0010
0000
0010
,
1000
0100
1000
0000
0010
0001
0000
1000
,
0000
0010
0000
0100
0001
1000
0001
1000
,
0010
0100
0001
0000
0010
0100
0000
0100
,
0000
1000
0000
0010
0100
0001
0000
1000
,
0010
0100
1000
0000
0001
0100
0000
1000
,
0000
0010
0000
0001
0100
0010
0100
0010
,
1000
0000
0100
0010
0100
0000
0001
0000
,
0100
0000
0010
0000
1000
0100
1000
0000
,
0010
0000
0100
0000
0001
0010
0001
0000
,
1000
0000
0010
0000
1000
0100
1000
0100
,
0010
0000
0100
0000
0001
0100
0010
0000
,
1000
0000
0001
0000
0100
0010
1000
0000
,
0100
0000
0001
0000
0001
0100
1000
0000
,
0010
0000
0100
0000
0001
0100
0001
0100
,
0010
0100
0010
0000
1000
0000
1000
0000
,
0010
0100
0010
0100
0010
0000
1000
0000
,
0001
0000
0100
0000
0010
0100
1000
0000
,
0010
0000
0100
0000
1000
0010
0100
0000
,
0001
0000
0100
0000
1000
0010
0100
0000
,
0001
0000
1000
0000
0001
0100
1000
0000
,
0001
0010
0100
1000
0001
0010
0001
0000
,
1000
0110
2002
3003
;

//--------------- dance-single - DJSuperNOVA ----------------
#NOTES:
     dance-single:
     DJSuperNOVA:
     Hard:
     14:
     0,0,0,0,0:
0000
0000
0000
0000
,
1000
0000
0000
0000
0002
0003
0000
0000
1000
0000
0000
0000
0200
0300
0000
0000
1000
0000
0000
0000
0002
0003
0000
0000
1000
0000
0000
0000
0200
0300
0000
0000
,
1000
0000
0000
0000
0002
0003
0000
0000
1000
0000
0000
0000
0200
0300
0000
0000
1000
0000
0000
0000
0002
0003
0000
0000
1000
0000
0000
0000
0200
0300
0000
0000
,
0001
0000
0000
0000
2000
3000
0000
0000
0001
0000
0000
0000
0020
0030
0000
0000
0001
0000
0000
0000
2000
3000
0000
0000
0001
0000
0000
0000
0020
0030
0000
0000
,
0001
0000
0000
0000
2000
3000
0000
0000
0001
0000
0000
0000
0020
0030
0000
0000
0001
0000
0000
0000
2000
3000
0000
0000
0001
0000
0000
0000
0020
0030
0000
0000
,
1000
0000
0000
0000
0200
0300
0000
0000
0001
0000
0000
0000
0200
0300
0000
0000
1000
0000
0000
0000
0020
0030
0000
0000
0001
0000
0000
0000
0020
0030
0000
0000
,
1000
0000
0000
0000
0200
0300
0000
0000
0001
0000
0000
0000
0200
0300
0000
0000
1000
0000
0000
0000
0020
0030
0000
0000
0001
0000
0000
0000
0020
0030
0000
0000
,
1000
0000
0000
0000
0200
0300
0000
0000
0010
0000
0000
0000
0200
0300
0000
0000
1000
0000
0000
0000
0002
0003
0000
0000
0010
0000
0000
0000
0200
0300
0000
0000
,
0010
0000
0000
0000
0002
0003
0000
0000
0010
0000
0000
0000
0200
0300
0000
0000
0010
0000
0000
0000
0100
0010
0100
0010
0100
0000
0010
0000
0001
0000
0100
0000
,
0020
0000
0000
0030
1000
0100
1000
0100
0010
0000
0100
0000
0001
0000
0100
0000
,
0010
0000
1000
0000
0100
0000
0010
0000
0001
0010
0001
0010
0001
0000
0100
0000
,
0020
0000
0000
0030
0100
0001
0100
0010
1000
0000
0001
0000
0100
0000
0010
0000
,
1000
0000
0010
0000
0100
0000
0001
0000
0010
0100
0010
0100
1000
0000
0001
0000
,
0200
0000
0000
0300
0001
0010
0100
1000
0001
0000
0100
0000
0010
0000
0100
0000
,
0001
0000
0010
0000
0100
0000
1000
0000
0010
1000
0010
1000
0001
0000
0100
0000
,
0020
0000
0000
0030
1000
0100
1000
0100
0001
0000
0100
0000
1000
0000
0010
0000
,
0001
0000
0010
0000
1000
0000
0100
0000
1000
0100
0010
0100
0010
0000
0100
0000
,
0002
0013
0200
1300
0020
0130
2000
3100
,
0020
0031
0200
0310
2000
0000
3001
0100
,
0020
0000
1030
0000
0200
0000
0310
0000
0002
0000
0103
0000
0010
0100
1000
0000
,
0020
0000
0130
0000
0002
0003
0100
0000
0020
0000
0000
0000
0130
0000
0001
0000
,
1000
0010
1000
0000
0010
1000
0010
0000
0100
0010
0100
0000
0010
0100
0010
0000
,
0001
0100
0001
0000
0100
0001
0100
0001
0100
0001
1000
0000
0010
0000
1000
0000
,
0100
0000
0010
0000
0100
0000
0000
0000
0010
0000
0100
0000
0010
0000
0000
0000
0001
0000
0100
0000
0001
0000
0000
0000
1000
0000
0100
0000
1000
0000
0100
1000
,
0100
0001
1000
0010
0100
0001
1001
0000
,
0001
0000
0000
0000
2000
3000
0000
0000
0001
0000
0000
0000
0200
0300
0000
0000
0001
0000
0000
0000
2000
3000
0000
0000
0001
0000
0000
0000
0200
0300
0000
0000
,
0001
0000
0000
0000
2000
3000
0000
0000
0001
0000
0000
0000
0200
0300
0000
0000
0001
0000
0000
0000
2000
3000
0000
0000
0001
0000
0000
0000
0200
0300
0000
0000
,
1000
0000
0000
0000
0002
0003
0000
0000
1000
0000
0000
0000
0020
0030
0000
0000
1000
0000
0000
0000
0002
0003
0000
0000
1000
0000
0000
0000
0020
0030
0000
0000
,
1000
0000
0000
0000
0002
0003
0000
0000
1000
0000
0000
0000
0020
0030
0000
0000
1000
0000
0000
0000
0002
0003
0000
0000
1000
0000
0000
0000
0020
0030
0000
0000
,
0001
0000
0000
0000
0200
0300
0000
0000
1000
0000
0000
0000
0200
0300
0000
0000
0001
0000
0000
0000
0020
0030
0000
0000
1000
0000
0000
0000
0020
0030
0000
0000
,
0001
0000
0000
0000
0200
0300
0000
0000
1000
0000
0000
0000
0200
0300
0000
0000
0001
0000
0000
0000
0020
0030
0000
0000
1000
0000
0000
0000
0020
0030
0000
0000
,
0001
0000
0000
0000
0200
0300
0000
0000
0010
0000
0000
0000
0200
0300
0000
0000
0001
0000
0000
0000
2000
3000
0000
0000
0010
0000
0000
0000
0200
0300
0000
0000
,
0010
0000
0000
0000
2000
3000
0000
0000
0010
0000
0000
0000
0200
0300
0000
0000
0010
0000
0000
0000
0200
0300
0000
0000
0001
0000
0000
0000
0200
0300
0000
0000
,
0020
0000
0000
0030
1000
0100
1000
0100
0010
0000
0100
0000
0001
0000
0100
0000
,
0010
0000
1000
0000
0100
0000
0010
0000
0001
0010
0001
0010
0001
0000
0100
0000
,
0020
0000
0000
0030
0100
0001
0100
0010
1000
0000
0001
0000
0100
0000
0010
0000
,
1000
0000
0010
0000
0100
0000
0001
0000
0010
0100
0010
0100
1000
0000
0001
0000
,
0200
0000
0000
0300
0001
0010
0100
1000
0001
0000
0100
0000
0010
0000
0100
0000
,
0001
0000
0010
0000
0100
0000
1000
0000
0010
1000
0010
1000
0001
0000
0100
0000
,
0020
0000
0000
0030
1000
0010
1000
0010
0100
0000
0010
0000
1000
0000
0010
0000
,
0001
0000
0010
0000
1000
0000
0100
0000
1000
0100
0010
0100
0010
0000
0100
0000
,
0001
0100
0001
0000
0010
0000
0100
0000
1000
0100
1000
0000
0010
1000
0100
0010
,
0001
0000
0100
0000
0110
0000
0010
0000
0110
0000
0100
0010
0001
1000
0100
1000
,
0001
0100
0010
0000
0100
1000
0010
0000
0100
0010
1000
0010
0100
0000
0001
0000
,
0010
0001
0100
0001
1000
0000
0100
0000
0010
1000
0001
1000
0100
0000
0010
0000
,
1000
0001
0100
0001
0010
0000
0100
0000
1000
0010
0100
0010
1000
0000
0100
0000
,
0001
0100
0010
0100
0001
0000
1000
0000
0010
1000
0001
1000
0010
0000
0100
0000
,
0001
0010
0100
1000
0001
0100
0010
1000
0001
0000
1000
0100
1000
0000
0001
0100
,
0001
0110
2002
3003
;

//--------------- dance-single - DJSuperNOVA ----------------
#NOTES:
     dance-single:
     DJSuperNOVA:
     Challenge:
     15:
     0,0,0,0,0:
0000
0000
0000
0000
,
1000
0000
0001
000M
1000
0000
0100
0M00
1000
0000
0001
000M
1000
0000
0100
0M00
,
1000
0000
0001
000M
1000
0000
0100
0M00
1000
0000
0001
000M
1000
0000
0100
0M00
,
0001
0000
1000
M000
0001
0000
0010
00M0
0001
0000
1000
M000
0001
0000
0010
00M0
,
0001
0000
1000
M000
0001
0000
0010
00M0
0001
0000
1000
M000
0001
0000
0010
00M0
,
1000
0000
0100
0M00
0001
0000
0100
0M00
1000
0000
0010
00M0
0001
0000
0010
00M0
,
1000
0000
0100
0M00
0001
0000
0100
0M00
1000
0000
0010
00M0
0001
0000
0010
00M0
,
1000
0000
0100
0M00
0010
0000
0100
0M00
1000
0000
0001
000M
0010
0000
0100
0M00
,
0010
0000
0000
0000
0001
0000
000M
0000
0010
0000
0000
0000
0100
0000
0M00
0000
0010
0000
0000
0000
0100
0010
0100
0010
0100
0000
0010
0000
0001
0000
0000
0000
,
1001
0000
MMMM
0000
1000
0100
1000
0100
0010
0000
0100
0000
0001
0000
0100
0000
,
0010
0000
1000
0000
0100
0000
0010
0000
0001
0010
0001
0010
0001
0000
0100
0000
,
0110
0000
MMMM
0000
0100
0001
0100
0010
1000
0000
0001
0000
0100
0000
0010
0000
,
1000
0000
0010
0000
0100
0000
0001
0000
0010
0100
0010
0100
1000
0000
0001
0000
,
1001
0000
MMMM
0000
0001
0010
0100
1000
0001
0000
0100
0000
0010
0000
0100
0000
,
0001
0000
0010
0000
0100
0000
1000
0000
0010
1000
0010
1000
0001
0000
0100
0000
,
0110
0000
MMMM
0000
1000
0100
1000
0100
0001
0000
0100
0000
1000
0000
0010
0000
,
0001
0000
0010
0000
1000
0000
0100
0000
1000
0100
0010
0100
0010
0000
0100
0000
,
0101
MMMM
0110
MMMM
1010
MMMM
1001
MMMM
,
0110
0001
0100
0010
1000
MMMM
1001
0000
,
1010
MMMM
0110
MMMM
0101
MMMM
0011
MMMM
,
1100
0100
0001
0100
0010
MMMM
0110
0000
,
1000
0010
1000
0000
0010
1000
0010
0000
0100
0010
0100
0000
0010
0100
0010
0000
,
0001
0100
0001
0000
0100
0001
1000
0001
0100
0001
1000
0100
0010
0000
1000
0000
,
0100
0000
0010
0000
0100
0000
0000
0000
0010
0000
0100
0000
0010
0000
0000
0000
0001
0000
0100
0000
0001
0000
0000
0000
1000
0000
0100
0000
1000
0000
0100
1000
,
0100
0001
1000
0010
0100
0001
1001
MMMM
,
0001
0000
1000
M000
0001
0000
0100
0M00
0001
0000
1000
M000
0001
0000
0100
0M00
,
0001
0000
1000
M000
0001
0000
0100
0M00
0001
0000
1000
M000
0001
0000
0100
0M00
,
1000
0000
0001
000M
1000
0000
0010
00M0
1000
0000
0001
000M
1000
0000
0010
00M0
,
1000
0000
0001
000M
1000
0000
0010
00M0
1000
0000
0001
000M
1000
0000
0010
00M0
,
0001
0000
0100
0M00
1000
0000
0100
0M00
0001
0000
0010
00M0
1000
0000
0010
00M0
,
0001
0000
0100
0M00
1000
0000
0100
0M00
0001
0000
0010
00M0
1000
0000
0010
00M0
,
0001
0000
0100
0M00
0010
0000
0100
0M00
0001
0000
1000
M000
0010
0000
0100
0M00
,
0010
0000
1000
M000
0010
0000
0100
0M00
0010
0000
0100
0M00
0001
0000
0100
0000
,
1010
0000
MMMM
0000
1000
0100
1000
0100
0010
0000
0100
0000
0001
0000
0100
0000
,
0010
0000
1000
0000
0100
0000
0010
0000
0001
0010
0001
0010
0001
0000
0100
0000
,
0101
0000
MMMM
0000
0100
0001
0100
0010
1000
0000
0001
0000
0100
0000
0010
0000
,
1000
0000
0010
0000
0100
0000
0001
0000
0010
0100
0010
0100
1000
0000
0001
0000
,
0101
0000
MMMM
0000
0001
0010
0100
1000
0001
0000
0100
0000
0010
0000
0100
0000
,
0001
0000
0010
0000
0100
0000
1000
0000
0010
1000
0010
1000
0001
0000
0100
0000
,
1010
0000
MMMM
0000
1000
0010
1000
0010
0100
0000
0010
0000
1000
0000
0010
0000
,
0001
0000
0010
0000
1000
0000
0100
0000
1000
0100
0010
0100
0010
0000
0100
0000
,
0001
0100
0001
0000
0010
0000
0100
0000
1000
0100
1000
0000
0010
1000
0100
0010
,
0001
0000
0100
0000
0110
0000
0010
0000
0110
0000
0100
0010
0001
1000
0100
1000
,
0001
0100
0010
0000
0100
1000
0010
0000
0100
0010
1000
0010
0100
0000
0001
0000
,
0010
0001
0100
0001
1000
0000
0100
0000
0010
1000
0001
1000
0100
0000
0010
0000
,
1000
0001
0100
0001
0010
0000
0100
0000
1000
0010
0100
0010
1000
0000
0100
0000
,
0001
0100
0010
0100
0001
0000
1000
0000
0010
1000
0001
1000
0010
0000
0100
0000
,
0001
0010
0100
1000
0001
0100
0010
1000
0001
0000
1000
0100
1000
0000
0001
0100
,
0001
0000
MMMM
0000
0110
0000
MMMM
0000
2002
0000
0000
0000
3003
MMMM
0000
0000
;
