#TITLE:Princess;
#SUBTITLE:;
#ARTIST:S.I.D-Sound;
#TITLETRANSLIT:;
#SUBTITLETRANSLIT:;
#ARTISTTRANSLIT:;
#GENRE:;
#CREDIT:DJSuperNOVA;
#MUSIC:Princess.ogg;
#BANNER:Princess.png;
#BACKGROUND:Princess-bg.png;
#CDTITLE:;
#SAMPLESTART:49.429;
#SAMPLELENGTH:18.824;
#SELECTABLE:YES;
#OFFSET:2.336;
#BPMS:0.000=102.000;
#STOPS:;
#BGCHANGES:;
#FGCHANGES:;

//--------------- dance-single - DJSuperNOVA ----------------
#NOTES:
     dance-single:
     DJSuperNOVA:
     Beginner:
     1:
     0,0,0,0,0:
0000
0000
0000
0000
,
0000
0000
0000
0000
,
1000
0000
0000
0000
,
0001
0000
0000
0000
,
1000
0000
0000
0000
,
0001
0000
0000
0000
,
1001
0000
0000
0000
,
1000
0000
0000
0000
,
0001
0000
0000
0000
,
1000
0000
1000
0000
,
0001
0000
0000
0000
,
1000
0000
0000
0000
,
0001
0000
1000
0000
,
0001
0000
1000
0000
,
1001
0000
0000
0000
,
0001
0000
1000
0000
,
1001
0000
0000
0000
,
1000
0000
0001
0000
,
1001
0000
1000
0000
,
0001
0000
1000
0000
,
1000
0000
0001
0000
,
0001
0000
0000
0000
,
1001
0000
0000
0000
,
1000
0000
0001
0000
,
1000
0000
0000
0000
,
0001
0000
1000
0000
,
0001
0000
0000
0000
,
1000
0000
0001
0000
,
1000
0000
1000
0000
,
0001
0000
1000
0000
,
1001
0000
0001
0000
,
0001
0000
0000
0000
,
1000
0000
0001
0000
,
1000
0000
0001
0000
,
1000
0000
0001
0000
,
1000
0000
1000
0000
,
0001
0000
0001
0000
,
1001
0000
0000
0000
,
1000
0000
1000
0000
,
1000
0000
0000
0000
,
0001
0000
0001
0000
,
0001
0000
0000
0000
,
1000
0000
0001
0000
,
1000
0000
0000
0000
,
0001
0000
1000
0000
,
0001
0000
0000
0000
,
1001
0000
1000
0000
,
1000
0000
1000
0000
,
1001
0000
0001
0000
,
0001
0000
0001
0000
,
1000
0000
0001
0000
,
1000
0000
0001
0000
,
2000
0000
0000
0000
,
0002
0000
0000
0000
,
3003
0000
0000
0000
;

//--------------- dance-single - DJSuperNOVA ----------------
#NOTES:
     dance-single:
     DJSuperNOVA:
     Easy:
     4:
     0,0,0,0,0:
0000
0000
0000
0000
,
0000
0000
0000
0000
,
0100
0000
0001
0000
,
0001
0000
1000
0000
,
1000
0000
0000
0000
,
0001
0001
1000
1000
,
0110
0000
0000
0000
,
0010
0000
0100
0000
,
1001
0000
0000
0000
,
1000
0000
0001
0000
,
1001
1000
0000
1000
,
0000
0001
0000
0001
,
0100
0100
0000
0100
,
0000
0010
0000
0010
,
0101
0100
1000
0100
,
0010
0010
0001
0000
,
1000
0100
0010
0100
,
0001
0001
1000
0000
,
1001
0000
0100
0001
,
1000
0000
0100
1000
,
0001
0000
0010
0001
,
0100
0000
1000
0001
,
1001
0000
1000
0100
,
1000
0000
0001
0100
,
0001
0000
1000
0100
,
0001
0001
0100
1000
,
1001
0000
0100
0010
,
0001
0010
0100
1000
,
0001
0000
1000
0000
,
0001
0010
0100
1000
,
1001
0000
1000
0100
,
1000
0000
0001
0100
,
0010
0010
1000
1000
,
0001
0100
1000
0100
,
0110
1000
0100
0100
,
0001
0000
1000
0100
,
0001
0000
0100
0000
,
1000
1000
0100
0010
,
1001
0000
0001
0000
,
0100
0000
0100
0010
,
1000
0000
1000
0000
,
0100
0010
0001
1000
,
1001
0000
0100
1000
,
0001
0010
0001
0100
,
1000
0000
1000
0000
,
0001
0100
1000
0100
,
1100
0000
0100
0010
,
0001
0000
0001
0100
,
0001
0010
0001
0100
,
1000
1000
0001
0001
,
1001
0000
1000
0000
,
0100
0000
0010
0000
,
0001
0010
0100
1000
,
0010
1000
0100
0010
;

//--------------- dance-single - DJSuperNOVA ----------------
#NOTES:
     dance-single:
     DJSuperNOVA:
     Medium:
     7:
     0,0,0,0,0:
0000
0000
0000
0000
,
0000
0000
0000
0000
,
1001
0000
0100
0010
,
1000
1000
0100
0010
,
0101
0000
0010
0000
0010
1000
0100
0000
,
0001
0000
1000
0000
0010
0010
0100
0000
,
1001
0000
0000
0000
,
0100
0010
1000
0000
,
1001
0000
0000
1000
,
0100
0000
0010
0000
0100
1000
0010
0000
,
0001
0000
0001
0000
0100
0000
1000
0100
,
0010
0000
0010
0000
1000
0000
0100
0100
,
1000
0100
0010
0001
,
0100
0000
0100
0000
0010
1000
0100
0000
,
1001
0000
0100
0000
0010
0000
1000
0010
,
0000
0100
0010
0000
0001
0100
0001
0000
,
0100
0000
1000
0000
0001
0000
0100
0010
,
0000
1000
0100
0000
0001
0100
1000
0000
,
0110
0000
1000
0000
0100
0000
0001
0010
,
0100
0000
1000
0000
0010
0000
1000
0100
,
1000
0000
0100
0000
0010
0000
0001
0100
,
0001
0000
0010
0000
0100
0010
1000
0000
,
1001
0000
0100
0010
0001
0000
0100
0000
,
1000
0000
0100
0000
0001
0010
0100
0000
,
1001
0000
0100
0000
0010
0100
1000
0000
,
0001
0010
0100
1000
,
1010
0000
0000
0100
0010
0000
1000
0000
,
0001
0100
0010
1000
,
0010
0000
0100
0010
0100
0000
0010
0000
,
0001
0010
0100
1000
,
1001
0000
0100
0000
0010
0001
0100
0000
,
0010
0000
0010
0000
1000
0100
1000
0000
,
0001
0000
0100
0000
0010
0000
0100
0010
,
1000
0100
0010
0001
,
1000
0000
0100
1000
0000
0100
0000
0000
,
0010
0000
0001
0000
0100
0010
0100
0000
,
0001
0001
0010
0100
,
1010
0100
0011
1100
,
1001
0000
0100
0010
0001
0000
0010
0100
,
0010
0000
1000
0000
0100
0000
0100
1000
,
0010
0000
0100
0000
0001
0000
0010
0100
,
0010
1000
0100
1000
,
0010
0000
0100
0000
0001
0010
0001
0000
,
0010
0000
0100
0000
0001
0100
0010
0000
,
0100
0000
0010
0000
1000
0100
1000
0000
,
0001
0100
0001
0000
1010
0000
0101
0000
,
1001
0000
0100
0000
0010
0100
0010
0000
,
1000
0000
0100
0000
0001
0100
0001
0000
,
1000
0000
0001
0000
1000
0010
1000
0000
,
0001
0100
0010
0100
,
1000
0100
1000
0000
0001
0100
0001
0000
,
1000
0010
1000
0000
0001
0010
0001
0000
,
1000
1000
0001
0001
0100
0100
0010
0000
,
1000
1000
0100
0100
0010
0001
0100
0010
;

//--------------- dance-single - DJSuperNOVA ----------------
#NOTES:
     dance-single:
     DJSuperNOVA:
     Hard:
     10:
     0,0,0,0,0:
0000
0000
0000
0000
,
0100
0000
0010
0010
,
1001
0000
0000
0000
0000
0000
0100
0000
0000
0010
0000
1000
0100
0000
0000
0010
0000
0000
0001
0000
0000
0100
0000
0010
,
0000
0000
1000
0000
0010
1000
0001
0000
,
0100
0000
0000
0010
0000
0000
1000
0000
0000
0001
0000
0000
1000
0000
0000
0010
0000
0000
0100
0000
0000
0100
0000
0010
,
0001
0000
0000
1000
0000
0000
0010
0000
0000
0100
0000
0010
0001
0000
0000
0010
0000
0000
0100
0000
0010
0100
0000
0000
,
1001
1000
0000
1000
,
0000
0001
0000
0001
,
1001
0100
0000
0100
,
0010
0001
0100
0010
,
1001
0000
0000
0010
0000
0000
0100
0000
0000
0010
0000
0100
0010
0000
0000
0100
0000
0000
0010
0000
0000
0010
0000
1000
,
0000
0000
0000
0100
0000
0000
0001
0000
0000
0010
0000
1000
0100
0000
0000
0010
0000
0001
0000
0000
0001
0100
0000
0000
,
0010
0000
0000
0100
0000
0000
0010
0000
0000
1000
0000
0100
0010
0000
0010
0100
0000
0000
0010
0000
0000
1000
0000
0000
,
0001
0000
0010
0100
0000
0100
1000
0000
0000
0100
0000
0010
0001
0000
0001
1000
0000
0000
0010
0000
0010
0100
0000
0000
,
0110
0000
1100
0000
0101
0000
0100
0010
,
0000
0000
0000
0100
0000
0000
1000
0000
0100
0000
0000
0010
0000
0000
0000
0001
0000
0000
1000
0000
0000
0100
0000
0000
,
0001
0000
1100
0000
0101
0000
0100
0010
,
0000
0000
0000
1000
0000
0000
0100
0000
1000
0000
0000
0100
0000
0000
0000
0010
0000
0000
0100
0000
0000
0010
0000
0000
,
0101
0000
0000
0000
0000
0000
0100
0000
0000
1000
0000
0000
0010
0000
0000
0000
0000
1000
0100
0000
0000
0010
0000
0000
,
0001
0000
0000
0010
0000
0000
0100
0000
0000
1000
0000
0000
0010
0000
0000
0100
0000
1000
0000
0000
0100
0000
0000
0000
,
0101
0000
0000
0000
0000
0000
0100
0000
0000
0010
0000
0000
0100
0000
0000
0010
0000
1000
0100
0000
0000
1000
0000
0000
,
0001
0000
0001
0000
0100
0010
0100
0000
,
1001
0000
0000
0000
0000
0000
0100
0000
0000
0010
0000
0001
0010
0000
0000
0100
0000
0000
0010
0000
0000
1000
0000
0100
,
0000
0000
0000
0010
0000
0000
1000
0000
0000
0100
0000
1000
0010
0000
0000
0100
0000
0000
0010
0000
0000
0001
0000
0000
,
0101
0000
0000
0000
0000
0000
1000
0000
0000
0100
0000
0010
0100
0000
0000
0010
0000
0000
0100
0000
0000
0001
0000
0000
,
0010
0110
1000
0101
,
1001
0000
0000
0000
0000
0000
0010
0000
0000
0001
0000
0010
0100
0000
0000
0010
0000
0001
0000
0000
1000
0000
0000
0000
,
0101
1010
0011
1100
,
0101
0000
0000
0000
0000
0000
1000
0000
0000
0010
0000
0100
0010
0000
0000
1000
0000
0000
0001
0000
0000
0000
0000
0000
,
0001
0010
0100
1000
,
0101
0000
0000
0000
0000
0000
1000
0000
0000
0100
0000
0010
0001
0000
0000
0100
0000
0000
0010
0000
0000
0100
0000
1000
,
0000
0000
0000
0000
0000
0000
1010
0000
0000
0100
0000
0010
0001
0000
0000
0100
0000
0000
0001
0000
0000
0100
0000
0000
,
0110
0000
0000
0000
0000
0000
1000
0000
0000
0000
0000
0000
0001
0000
0000
0000
0000
0100
0010
0000
0000
1000
0000
0000
,
1100
0000
0101
0000
1000
0100
0001
0000
,
1001
0000
0100
0010
0000
0100
0000
0000
,
0010
0000
0000
1000
0000
0000
0100
0000
0000
0000
0000
0000
0010
0000
0000
0001
0000
0100
0000
0000
0010
0000
0000
0000
,
2002
0000
0000
3003
,
1000
0000
1000
0010
0000
0010
0100
0000
0100
0010
0000
0010
1000
0000
1000
0001
0000
0001
1000
0000
1000
0010
0000
0000
,
0100
0010
0100
0010
0001
0010
0001
0100
,
1000
0100
1000
0100
1000
0100
0010
0001
,
1000
0001
1000
0001
0100
0010
0100
0001
,
0010
0100
0010
0100
1000
0100
1000
0100
,
1000
1000
0100
0100
0010
0010
0001
0001
,
1000
0010
1000
0010
0100
0001
0100
0001
,
1000
0100
1000
0010
0100
0001
0010
0001
,
0100
0001
1000
0010
1000
0100
1000
0010
,
0100
0001
0100
0010
1000
0100
1000
0100
,
0010
0100
0001
0100
0010
0001
0010
0100
,
0001
0010
0100
1000
0100
1000
0100
0010
,
0100
0001
0100
0010
1000
0100
1000
0100
,
0001
0010
0001
0010
0100
0010
0100
0010
,
0100
1000
0100
1000
0010
1000
0010
0100
,
0010
1000
0001
0100
0010
0001
1000
0010
,
0100
0010
1000
0100
0010
0100
0010
0001
;
