#TITLE:증오;
#SUBTITLE:;
#ARTIST:Red Pulse;
#TITLETRANSLIT:Poison;
#SUBTITLETRANSLIT:;
#ARTISTTRANSLIT:Red Pulse;
#GENRE:;
#CREDIT:DJSuperNOVA;
#MUSIC:Poison.ogg;
#BANNER:Poison.png;
#BACKGROUND:Poison-bg.png;
#CDTITLE:;
#SAMPLESTART:99.543;
#SAMPLELENGTH:15.610;
#SELECTABLE:YES;
#OFFSET:-0.031;
#BPMS:0.000=123.000
,104.000=61.500
,120.000=123.000
,219.000=61.500
,219.250=123.000
,219.500=246.000
,220.000=123.000
,254.000=61.500
,254.500=123.000
,255.000=246.000
,256.000=123.000
;
#STOPS:;
#DISPLAYBPM:123.000;
#BGCHANGES:;
#FGCHANGES:;

//--------------- dance-single - DJSuperNOVA ----------------
#NOTES:
     dance-single:
     DJSuperNOVA:
     Beginner:
     2:
     0,0,0,0,0:
0000
0000
0000
0000
,
0000
0000
0000
0000
,
0010
0000
0000
0000
,
0100
0000
0000
0000
,
0010
0000
0000
0000
,
0100
0000
1000
0000
,
0001
0000
0000
0000
,
1000
0000
0000
0000
,
0001
0000
1000
0000
,
0001
0000
1001
0000
,
1000
0000
0000
0000
,
1000
0000
0000
0000
,
0001
0000
0000
0000
,
0001
0000
0000
0010
,
0100
0000
0000
0000
,
0100
0000
0000
0000
,
0010
0000
0000
0000
,
0010
0000
0000
0010
,
1000
0000
0000
0000
,
0001
0000
0000
0000
,
1000
0000
0000
0000
,
0001
0000
0000
0000
,
0100
0000
0000
0000
,
0001
0000
0000
0000
,
1000
0000
0000
0000
,
0100
0000
0000
0000
,
1001
0000
1000
0000
,
0001
0000
0100
0000
,
0010
0000
0010
0000
,
1000
0000
0001
0000
,
1000
0000
0000
0000
,
1000
0000
0000
0000
,
0001
0000
0000
0000
,
0001
0000
0000
0000
,
0100
0000
0000
0000
,
0100
0000
0000
0000
,
0010
0000
0000
0000
,
0010
0000
0000
0000
,
0010
0000
0000
0000
,
0010
0000
0000
0000
,
1000
0000
0000
0000
,
1000
0000
0000
0000
,
0001
0000
0000
0000
,
0001
0000
0000
0000
,
1000
0000
1000
0000
,
0001
0000
0001
0000
,
0010
0000
0000
0000
,
0100
0000
0000
0000
,
1000
0000
0000
0000
,
0100
0000
0000
0000
,
0001
0000
0000
0000
,
0100
0000
0000
0000
,
1000
0000
0000
0000
,
0001
0000
0000
0000
,
1000
0000
0000
0010
,
0100
0000
0000
0000
,
0100
0000
0000
0000
,
0001
0000
0000
0000
,
0100
0000
0000
0000
,
1000
0000
0000
0000
,
0010
0000
0000
0000
,
0001
0000
0000
0000
,
1000
0000
0000
0000
,
0001
0000
0000
0000
,
1001
0000
0000
0000
,
1000
0000
0000
0000
,
0001
0000
0000
0000
,
1000
0000
0001
0000
,
1000
0000
0000
0000
,
0001
0000
0000
0000
,
1000
0000
0000
0000
,
0010
0000
0100
0000
,
0010
0000
0000
0000
;

//--------------- dance-single - DJSuperNOVA ----------------
#NOTES:
     dance-single:
     DJSuperNOVA:
     Easy:
     3:
     0,0,0,0,0:
0000
0000
0000
0000
,
0000
0000
1000
0001
,
1000
0000
0001
0000
,
1000
0000
0000
0000
,
0001
0000
0100
0000
,
0001
0000
0000
0000
,
1000
0000
0100
0000
,
1000
0000
0000
0000
,
1001
0000
0001
0000
,
1000
1000
1000
1000
,
0001
0000
0000
0000
,
0010
0000
0000
0000
,
0100
0000
0000
0000
,
1000
0000
0010
0000
,
0001
0000
0000
0000
,
0100
0000
0000
0000
,
0010
0000
0000
0000
,
1000
0000
0001
0000
,
1001
0000
0100
0000
,
0010
0000
0100
0000
,
1000
0000
0100
0000
,
0001
0000
0100
1000
,
0010
0000
0100
0000
,
0001
0000
0100
0000
,
0010
0000
0100
0000
,
1000
0000
0100
0000
,
0001
0000
1000
0000
,
0010
0000
0000
0000
0001
0000
0100
0010
,
0100
0000
1000
0000
,
0001
0000
1000
0001
,
1001
0000
1000
0000
,
0001
0000
0001
0000
,
0100
0000
0100
0000
,
0010
0000
0010
0000
,
1000
0000
0100
0000
,
0010
0000
0001
0000
,
0100
0000
0010
0000
,
1000
0000
0001
0000
,
1001
0000
0001
0000
,
1001
0000
1000
0000
,
0010
0100
0010
0000
,
0100
0010
0100
0000
,
1001
0000
0100
0000
,
1001
0000
0100
0000
,
0010
0100
0010
0100
,
1000
0100
0010
0001
,
1000
0000
0000
0000
,
0001
0000
0000
0000
,
0100
0000
0000
0000
,
0010
0000
0000
0000
,
1000
0000
0100
0000
,
0001
0000
0000
0000
,
1000
0000
0000
0000
,
0010
0000
0000
0000
,
0100
0010
0010
0020
,
0130
0000
0100
0000
,
0001
0000
0001
0000
,
1001
0000
1000
0000
,
0010
0000
0010
0000
,
0110
0000
0100
0000
,
0001
0000
0001
0000
,
1001
0000
1000
0000
,
0001
0000
1000
0000
,
0001
1000
0001
0000
,
1000
0000
0000
0000
,
0010
0000
0000
0000
,
0100
0000
0000
0000
,
0001
1000
0001
0000
,
0100
0000
0000
0000
,
0010
0000
0000
0000
,
1000
0000
0000
0000
,
0001
0000
1000
0000
,
1001
0000
0000
0000
;

//--------------- dance-single - DJSuperNOVA ----------------
#NOTES:
     dance-single:
     DJSuperNOVA:
     Medium:
     7:
     0,0,0,0,0:
0000
0000
0000
0000
,
0000
0000
0000
0000
0010
0010
0100
0100
,
0001
0100
1000
0100
,
0001
0001
1000
1000
,
0100
0010
1000
0100
,
0001
0001
1000
1000
,
0010
0100
0001
0001
,
1000
0100
1000
1000
,
0101
0001
1100
0100
,
0110
1001
0011
1100
,
1000
0000
0001
0000
0000
1000
0000
0001
0000
0000
0000
0000
0100
0000
0000
0000
,
0010
0000
0100
0000
0000
0010
0000
0100
0000
0000
0000
0000
1000
0000
0000
0000
,
0001
0000
0100
0000
0000
0001
0000
0100
0000
0000
0000
0000
0010
0000
0000
0000
,
1000
0000
0100
0000
0000
1000
0000
0100
0010
0000
0000
0000
0001
0000
0000
0000
,
0010
0000
0100
0000
0000
0010
0000
1000
0000
0000
0000
0000
0100
0000
0000
0000
,
0010
0000
0001
0000
0000
0010
0000
1000
0000
0000
0000
0000
0100
0000
0000
0000
,
0001
0000
1000
0000
0000
0010
0000
0100
0000
0000
0000
0000
0001
0000
1000
0000
,
0011
1100
1010
0101
,
0010
0100
1000
0000
0011
0000
1000
0000
,
0010
0100
0001
0000
1010
0000
0001
0000
,
1000
0010
0100
0000
0101
0000
1000
0000
,
0010
0001
0100
0000
0011
0000
1100
0000
,
0010
0100
1000
0000
0101
0000
0010
0000
,
1000
0100
0010
0000
0110
0000
1000
0000
,
0001
0010
0100
0000
0110
0000
1000
0000
,
0001
0000
0100
0000
1000
0000
0000
0100
0000
0001
0000
0000
0100
0000
0100
0000
,
0100
0000
0000
0000
0000
0000
0000
0000
0010
0000
0000
0000
0000
0000
0000
0000
0100
0000
0000
0100
0000
0000
0100
0000
0010
0000
0000
0000
0000
0000
0000
0000
,
1000
0000
0000
0000
0000
0000
1000
0000
0001
0000
0000
0000
0000
0000
0000
0000
1000
0000
0000
1000
0000
0000
1000
0000
0001
0000
0000
0000
0100
0000
0000
0000
,
0010
0000
0000
0000
0000
0000
0000
0000
0100
0000
0000
0000
0000
0000
0000
0000
0001
0000
0000
1000
0000
0000
0001
0000
1000
0000
0000
0000
0000
0000
0000
0000
,
0100
0000
0000
0010
0001
0000
0000
0000
1000
0000
0100
0000
0010
0000
0001
0000
,
1000
0000
0000
1000
0000
0000
1000
0000
0100
0000
0000
0100
0000
0000
0010
0000
,
0001
0000
0000
0001
0000
0000
0001
0000
0000
0100
0000
0000
0010
0000
0100
0000
,
0010
0000
0000
0010
0000
0000
0010
0000
0100
0000
0000
0100
0000
0000
1000
0000
,
0001
0000
0000
0001
0000
0000
0001
0000
0000
0010
0000
0000
0100
0000
1000
0000
,
0001
0000
0001
0000
0000
0100
0000
0010
0000
0000
0100
0000
0010
0000
0100
0000
,
1000
0000
1000
0000
0000
0010
0000
0100
0000
0000
0001
0000
0100
0000
0001
0000
,
1000
1000
0001
0001
,
0100
0100
0100
0000
1001
0000
0110
0000
,
1000
0000
0000
0000
0100
0000
0000
0000
0001
0000
0000
0001
0000
0000
0001
0000
,
0100
0000
0000
0000
0010
0000
0000
0000
1000
0000
0000
1000
0000
0000
1000
0000
,
0010
0010
0100
0100
,
0110
1000
0001
1000
,
1001
0000
0000
0000
0010
0000
0000
0000
0100
0000
0000
0010
0000
0000
0100
0000
,
0001
0000
0000
0000
1000
0000
0000
0000
0010
0000
0000
0100
0000
0000
0010
0000
,
0100
0110
0010
0110
,
1001
0100
1001
0010
,
1000
0100
0010
0001
,
1000
0000
0001
0000
0000
1000
0000
0001
0000
0000
0000
0000
0100
0000
0000
0000
,
0010
0000
0100
0000
0000
0010
0000
0100
0000
0000
0000
0000
1000
0000
0000
0000
,
0001
0000
0100
0000
0000
0001
0000
0100
0000
0000
0000
0000
0010
0000
0000
0000
,
1000
0000
0100
0000
0000
1000
0000
0100
0010
0000
0000
0000
0001
0000
0000
0000
,
0010
0000
0100
0000
0000
0010
0000
1000
0000
0000
0000
0000
0100
0000
0000
0000
,
0010
0000
0001
0000
0000
0010
0000
1000
0000
0000
0000
0000
0100
0000
0000
0000
,
0001
0000
1000
0000
0000
0010
0000
0100
0000
0000
0000
0000
0001
0000
1000
0000
,
0001
0000
0000
0000
0001
0000
0000
0000
0000
1000
0000
1000
0020
0000
0000
0000
,
0130
0000
1000
0000
0100
0000
0000
0010
0000
0001
0000
0000
0000
0010
0000
0100
,
0010
0000
0010
0000
1000
0000
0000
0100
0000
0010
0000
0010
0000
0000
0010
0000
,
1000
0000
0100
0000
0010
0000
0000
0001
0000
0100
0000
0000
0000
0001
0000
0100
,
0001
0000
0010
0000
0000
0100
0000
1000
0000
0000
0100
0010
0000
0100
0000
0000
,
1000
0000
0100
0000
0010
0000
0000
0001
0000
0010
0000
0000
0000
0100
0000
0100
,
0010
0000
1000
0000
0100
0000
0000
0010
0000
0000
0100
0000
0010
0000
1000
0000
,
0100
0000
0010
0000
0001
0000
0000
0100
0000
0001
0000
0000
0000
0100
0000
0010
,
0001
0000
0000
0100
0000
0000
1000
0000
0000
0100
0000
0000
0001
0000
1000
0000
,
0100
0000
0000
0000
0000
0000
0010
0000
0000
0000
0000
0000
0001
0000
0000
0000
0000
1000
0000
0000
0100
0000
0000
0000
0000
0000
0000
0010
0000
0000
0000
0000
,
0001
0000
0001
0000
0000
1000
0000
1000
0000
0010
0000
0000
0100
0000
0010
0000
,
1000
0000
1000
0000
0000
0001
0000
0001
0000
0000
0000
0100
0000
0010
0000
0000
,
0100
0000
0100
0000
0000
0010
0000
0010
0000
1000
0000
0100
0000
0010
0000
0010
,
0001
1000
1001
0110
,
1000
0000
1000
0000
0000
0001
0000
0001
0000
0010
0000
0010
0000
0000
0000
0000
,
1001
0000
0001
0000
0000
1000
0000
1000
0000
0100
0000
0010
0000
0000
0000
0000
,
0110
0000
0100
0000
0000
0010
0000
0010
0000
0001
0000
0100
0000
0010
0000
0010
,
1000
0101
1010
0110
,
2002
0000
3003
0000
;

//--------------- dance-single - DJSuperNOVA ----------------
#NOTES:
     dance-single:
     DJSuperNOVA:
     Hard:
     13:
     0,0,0,0,0:
0000
0000
0000
0000
,
2000
0000
0000
0000
0010
0010
0100
0100
,
3001
0000
0100
0000
0010
0100
0000
0100
0000
0010
1000
0000
0100
0000
0010
0000
,
0001
0000
0100
0000
0001
0100
0000
0010
0000
0100
0010
0000
1000
0000
0001
0000
,
0100
0000
0010
0000
0100
0010
0000
0010
0000
1000
0001
0000
0100
0000
0001
0000
,
1000
0000
1000
0000
0001
1000
0000
0010
0000
1000
0001
0000
0100
0000
0010
0000
,
1000
0000
0100
0000
0010
0001
0000
0001
0000
0100
0000
0010
0001
0000
0001
0000
,
1000
0000
0100
0000
0100
0001
0000
1000
0000
0010
1000
0000
0001
0000
1000
0000
,
0101
0000
0000
0100
0001
0000
0100
0000
1100
0000
0000
0010
0100
0000
0010
0000
,
0110
0000
0000
1001
0000
0000
0001
0010
0100
1000
0000
0000
,
1000
0000
0001
0000
1000
0001
0000
1001
0000
0010
0000
0000
0100
0000
0001
0000
,
1000
0000
0100
0000
0010
0001
0000
0011
0000
0100
1000
0000
0001
0000
0100
0000
,
0001
0000
0100
0000
0010
1000
0000
1010
0000
0100
0010
0000
0100
0000
0001
0000
,
1000
0000
0100
0000
0010
0001
0000
0100
0000
0010
0100
0000
0001
0000
0100
0000
,
1000
0000
0100
0000
0100
0010
0000
0110
0000
0100
0000
0010
0100
0000
0001
0000
,
1000
0000
0001
0000
1000
0001
0000
1100
0000
0100
0010
0000
0001
0000
0100
0000
,
0101
0000
1000
0000
1000
0010
0000
0110
0000
0010
0100
0000
0001
0000
1000
0000
,
0011
0000
0000
0000
1100
0000
0000
0010
1000
0000
0100
0000
0101
0000
0000
0000
,
0010
0000
0100
0000
1000
0000
0000
0000
0011
0000
0000
0000
1000
0100
1000
0000
,
0010
0000
0100
0000
0001
0000
0000
0000
1010
0000
0000
0000
0001
0100
0001
0000
,
1000
0000
0010
0000
0100
0000
0000
0000
0101
0000
0000
0000
1000
0100
1000
0000
,
0010
0001
0100
0000
0011
0000
1100
0000
,
0010
0000
0100
0000
1000
0000
0000
0000
0101
0000
0000
0000
0010
0100
0010
0000
,
1000
0000
0100
0000
0010
0000
0000
0000
0110
0000
0000
0000
1000
0010
1000
0000
,
0001
0000
0010
0000
0100
0000
0000
0000
0110
0000
0000
0000
1000
0100
1000
0000
,
1001
0000
0100
0000
0010
0000
0000
0100
0000
0001
0000
0000
0100
0000
0100
0000
,
0110
0000
0000
0000
0010
0000
0100
0000
0001
0000
0000
0000
1000
0000
0010
0000
0100
0000
0000
0100
0000
0000
0100
0000
0010
0000
0000
0000
0100
0000
0000
0000
,
1001
0000
0000
0000
0100
0000
1000
0000
0001
0000
0000
0000
0010
0000
0001
0000
1000
0000
0000
1000
0000
0000
1000
0000
0001
0000
0000
0000
0110
0000
0000
0000
,
0101
0000
0000
0000
1000
0000
0010
0000
0100
0000
0000
0000
0100
0000
1000
0000
0001
0000
0000
1000
0000
0000
0001
0000
1000
0000
0000
0000
0100
0000
0010
0000
,
0100
0000
0000
0010
0001
0000
0100
0000
1000
0000
0100
0000
0010
0010
0001
0001
,
1000
0000
0000
1000
0000
0000
1000
0000
0100
0000
0000
0100
0000
0010
0100
0000
,
0001
0000
0000
0001
0000
0000
0001
0000
0100
0010
0000
0000
0010
0000
0100
0000
,
0010
0000
0000
0010
0000
0000
0010
0000
0100
0000
0000
0100
0000
0010
1000
0000
,
0001
0000
0000
0001
0000
0000
0001
0000
1000
0010
0000
0000
0100
0000
1000
0000
,
1001
0000
1001
0000
0010
0100
0000
0010
0000
0100
0010
0000
0100
0000
0010
0000
,
1010
0000
1010
0000
0100
0010
0000
0100
0000
0000
0001
0100
0000
0100
0001
0000
,
1000
0000
0000
0010
1000
0000
0001
0000
0101
0000
0000
1000
0000
0001
1000
0000
,
0100
0000
0100
0000
0100
0000
0000
0010
0001
0000
0001
0000
1000
0000
1000
0000
,
1001
0000
0100
0000
0001
0000
0100
0000
0010
0000
1000
0010
0000
0010
0000
0010
,
0100
0000
0001
0000
0100
0000
0010
0000
1000
0000
0001
1000
0000
0100
1000
0000
,
0010
0100
0000
0100
0000
0001
0000
0001
0000
1000
0000
1000
0000
0100
0000
0010
,
0100
0001
0000
0001
0000
1000
0000
1000
0000
0010
0000
0010
0100
0010
0000
0100
,
0001
0000
1000
0000
0010
0000
1000
0000
0100
0000
1000
0010
0000
0010
0000
0100
,
0001
0000
1000
0000
0010
0000
1000
0000
0010
0000
0100
0010
0000
0010
0000
0100
,
0010
1000
0010
1000
0001
0100
0001
0100
,
1001
0110
1001
0110
,
0001
0000
1000
0000
0100
1000
0000
0010
0100
0010
0100
0000
1001
0000
0000
0000
,
1000
0000
0001
0000
1000
0001
0000
1001
0000
0100
0010
0000
0100
0000
0010
0000
,
1000
0000
0010
0000
0100
0010
0000
0110
0000
1000
0100
0000
0010
0000
0001
0000
,
1000
0000
0100
0000
0001
0100
0000
0101
0000
0001
1000
0000
0010
0000
1000
0000
,
0001
0000
0100
0000
0010
1000
0000
0100
0010
0000
0100
0000
0010
0000
0100
0000
,
1001
0000
0100
0000
0010
0001
0000
0011
0000
1000
0000
0100
1000
0000
0100
0000
,
0010
0000
0001
0000
1000
0010
0000
1010
0000
0100
0010
0000
0100
0000
0010
0000
,
1000
0000
0001
0000
0100
0010
0000
0110
0000
1000
0010
0000
0001
0000
1000
0000
,
0001
1000
0001
1000
0002
0000
0000
1003
0000
1000
0000
1000
0020
0000
0000
0000
,
0130
0000
1000
0000
0100
0000
0000
0010
0000
0001
0000
0000
0000
0010
0000
0100
,
0010
0000
0010
0000
1000
0100
0000
0010
0000
0001
0000
0010
0000
0100
0010
0000
,
1010
0000
0100
0000
0010
0000
0000
0001
0000
0100
0000
0000
0000
0001
0000
0100
,
0001
0000
0010
0000
1000
0100
0000
1000
0000
0000
0100
0010
0000
0100
0010
0000
,
1010
0000
0100
0000
0010
0000
0000
0001
0000
0010
0000
0000
0000
0100
0000
0100
,
0010
0000
1000
0000
0100
1000
0000
0010
0000
0100
0000
0001
0000
0010
0001
0000
,
0101
0000
0010
0000
0001
0000
0000
0100
0000
0001
0000
0000
0000
0100
0000
0010
,
0001
0000
0000
0100
0000
0000
1000
0000
0010
0100
0000
0000
0001
0000
1000
0000
,
0100
0000
0000
0000
0000
0000
0010
0000
0000
0000
0000
0000
0001
0000
0000
0000
0000
1000
0000
0000
0100
0000
0000
0000
0000
0000
0000
0010
0000
0000
0000
0000
,
0011
0000
0001
0000
1000
0010
0000
1010
0000
0010
0100
0000
0100
0000
0010
0000
,
1000
0000
1000
0000
0001
1000
0000
1001
0000
0100
0010
0100
0000
0010
0000
0010
,
0100
0000
0100
0000
0001
0010
0000
0110
0000
1000
0000
0100
0000
0010
0000
0010
,
0001
0010
0000
0100
1000
0000
0000
1000
0001
0100
0001
0100
0020
0000
0000
0000
,
1030
0000
1000
0000
1000
0001
0000
0001
0000
0010
0000
0010
0000
0100
0000
0100
,
0001
0000
0001
0000
0100
1000
0000
1000
0000
0100
0000
0010
0000
0010
0000
0010
,
0100
0000
0100
0000
1000
0010
0000
0010
0000
0001
0000
0100
0000
0010
0000
0010
,
1000
0100
1001
0100
0010
0100
0110
0100
,
2002
0000
3003
0000
;
