#TITLE:PARANOIA;
#SUBTITLE:;
#ARTIST:Mode-K;
#TITLETRANSLIT:;
#SUBTITLETRANSLIT:;
#ARTISTTRANSLIT:;
#GENRE:;
#CREDIT:DJSuperNOVA;
#MUSIC:PARANOIA.ogg;
#BANNER:PARANOIA.png;
#BACKGROUND:PARANOIA-bg.png;
#CDTITLE:;
#SAMPLESTART:45.030;
#SAMPLELENGTH:15.000;
#SELECTABLE:YES;
#OFFSET:1.845;
#BPMS:0.000=128.000;
#STOPS:;
#BGCHANGES:;
#FGCHANGES:;

//--------------- dance-single - DJSuperNOVA ----------------
#NOTES:
     dance-single:
     DJSuperNOVA:
     Beginner:
     1:
     0,0,0,0,0:
0000
0000
0000
0000
,
0001
0000
0000
0000
,
1000
0000
0000
0000
,
0001
0000
0000
0000
,
1000
0000
0000
0000
,
0001
0000
0000
0000
,
0001
0000
0000
0000
,
1000
0000
0000
0000
,
1000
0000
0000
0000
,
0010
0000
0000
0000
,
0010
0000
0000
0000
,
0100
0000
0000
0000
,
0100
0000
0000
0000
,
1000
0000
1000
0000
,
0000
0000
0000
0000
,
0001
0000
0001
0000
,
0000
0000
0000
0000
,
0010
0000
0010
0000
,
0000
0000
0000
0000
,
0100
0000
0100
0000
,
0000
0000
0000
0000
,
1001
0000
0000
0000
,
0000
0000
0000
0000
,
0110
0000
0000
0000
,
0000
0000
0000
0000
,
1000
0000
0100
0000
,
0001
0000
0000
0000
,
0001
0000
0100
0000
,
1000
0000
0000
0000
,
0010
0000
0100
0000
,
0010
0000
0000
0000
,
0100
0000
0010
0000
,
0100
0000
0000
0000
,
0001
0000
0001
0000
,
0001
0000
0000
0000
,
1000
0000
1000
0000
,
1000
0000
0000
0000
,
0010
0000
0010
0000
,
0010
0000
0000
0000
,
0100
0000
0100
0000
,
0100
0000
0000
0000
,
1001
0000
0000
0000
,
0000
0000
0000
0000
,
0110
0000
0000
0000
,
0000
0000
0000
0000
,
1000
0000
0100
0000
,
0001
0000
0100
0000
,
1000
0000
0100
0000
,
0001
0000
0100
0000
,
1000
0000
1000
0000
,
0000
0000
0000
0000
,
0001
0000
0001
0000
,
0000
0000
0000
0000
,
1000
0000
0000
0000
,
0100
0000
0000
0000
,
0010
0000
0000
0000
,
0001
0000
0000
0000
,
1001
0000
0000
0000
,
1000
0000
0000
0000
,
0001
0000
0000
0000
,
0001
0000
0000
0000
,
0100
0000
0000
0000
,
0100
0000
0000
0000
,
0010
0000
0000
0000
,
0010
0000
0000
0000
,
1000
0000
0000
0000
,
1000
0000
0000
0000
,
0001
0000
0000
0000
,
0001
0000
0000
0000
,
0010
0000
0000
0000
,
0010
0000
0000
0000
,
0100
0000
0000
0000
,
0100
0000
0000
0000
,
1000
0000
1000
0000
,
0000
0000
0000
0000
,
0001
0000
0001
0000
,
0000
0000
0000
0000
,
0100
0000
0000
0000
;

//--------------- dance-single - DJSuperNOVA ----------------
#NOTES:
     dance-single:
     DJSuperNOVA:
     Easy:
     6:
     0,0,0,0,0:
0000
0000
0000
0000
,
0010
0100
0000
0100
,
0000
0001
0000
0001
,
0000
1000
0000
1000
,
0000
0001
0000
0001
,
1000
0001
1000
0100
,
0010
0100
0010
0000
,
0100
0010
0100
0001
,
1000
0100
0010
0000
,
1000
0100
1000
0100
,
0010
0100
0001
0000
,
0100
0001
0100
1000
,
0010
0100
0010
0010
,
1000
0000
0001
0000
,
1000
0000
0001
0000
,
0001
0000
0100
0000
,
0010
0000
1000
0000
,
1000
0000
0100
0000
,
0010
0000
0001
0000
,
1000
0000
0001
0000
,
1000
0000
0001
0000
,
1001
0100
0000
0100
,
0000
0010
0000
0010
,
0100
0010
0100
0010
,
0100
0100
0010
0010
,
1000
0100
0001
0001
,
0100
0010
1000
1000
,
0001
0100
0010
0010
,
1000
0100
0011
1100
,
1001
0010
0001
0001
,
1000
1000
0010
0100
,
0001
0001
1000
1000
,
0010
0110
1010
0101
,
0010
1000
0100
0001
,
0100
1000
0001
0001
,
1000
0100
0001
0100
,
1000
1000
0110
1001
,
1010
0100
0001
0001
,
1000
0010
0100
0100
,
0010
1000
0010
0010
,
0101
1010
0110
1001
,
1000
0000
0001
0000
,
1000
0000
0001
0000
,
0100
0000
0010
0000
,
0100
0000
0010
0000
,
1000
0100
0001
0100
,
1000
0100
0001
0100
,
0010
1000
0010
0001
,
0010
1000
0010
0001
,
1000
0001
1000
0001
,
0100
0010
0100
0010
,
1000
0100
0010
0001
,
0001
0010
0100
1000
,
1000
0010
0100
0001
,
0001
0100
0010
1000
,
0001
0100
0010
1000
,
1001
0110
1010
0101
,
1001
0100
0010
0010
,
0100
0001
1000
1000
,
0010
0100
0001
0001
,
1000
0010
0110
1001
,
0101
0010
1000
1000
,
0100
0010
0001
0001
,
0100
0010
1000
1000
,
0101
1010
0110
1001
,
0101
1000
0010
0100
,
1000
0100
0010
0010
,
1000
0010
0100
0001
,
1000
0001
1001
0110
,
1010
0100
0001
0001
,
0100
0010
1000
0100
,
1000
0001
0100
0001
,
1010
0011
1010
0011
,
1001
0100
0000
0100
,
0000
0010
0000
0010
,
1000
0100
0000
0100
,
0000
0001
0000
0001
,
1000
0000
0000
0000
;

//--------------- dance-single - DJSuperNOVA ----------------
#NOTES:
     dance-single:
     DJSuperNOVA:
     Medium:
     9:
     0,0,0,0,0:
0000
0000
0000
0000
,
0001
0010
0100
1001
,
0100
0010
1000
0100
,
1000
0100
0010
1001
,
0100
0001
0100
1001
,
1000
0100
1000
0000
0001
0100
0001
0000
,
1000
0010
1000
0000
0001
0010
0001
0000
,
1000
0010
0100
0000
0001
0010
0100
0000
,
1000
0100
0010
0000
0001
0100
0010
0000
,
1000
0100
0001
0000
1000
0010
0001
0000
,
0001
0100
1000
0000
0001
0010
1000
0000
,
1000
0010
1000
0000
0001
0100
0001
0000
,
1000
0100
1000
0100
0001
0010
0001
0000
,
1000
0100
0010
0100
1000
0100
0010
0000
,
0001
0100
0010
0100
0001
1000
1010
0000
,
0001
1000
0010
1000
0001
1000
0100
0000
,
1000
0001
0010
0001
0100
0001
1000
0000
,
0100
0010
1000
0010
0100
0010
1000
0000
,
0100
0010
0001
0100
0001
0010
0011
0000
,
1100
0100
0010
1000
0001
0100
0010
0000
,
1000
0100
0010
0001
1000
0100
0011
0000
,
1000
0000
0001
0000
0000
0001
0000
0000
0100
0000
0010
0000
0000
0010
0000
0000
,
1000
0000
0100
0000
0000
0100
0000
0000
0010
0000
1000
0000
0000
1000
0000
0000
,
0001
0100
0010
1000
0001
0100
0010
1000
,
0001
0010
0100
1000
0001
0010
0100
1000
,
0010
0000
1000
0000
0100
0000
0010
0000
1000
0000
0000
1000
0000
0000
1000
0000
,
0001
0000
0100
0000
0010
0000
1000
0000
0010
0000
0000
0010
0000
0000
0010
0000
,
0100
0000
0010
0000
0001
0000
1000
0000
0100
0000
0000
0100
0000
0000
0100
0000
,
0011
0000
1000
0100
0011
0000
1100
0000
,
1001
0000
0000
0000
0100
0000
0010
0000
0001
0000
0000
0001
0000
0000
0001
0000
,
1000
0000
0010
0000
0100
0000
0010
0000
0100
0000
0000
0100
0000
0000
0100
0000
,
0010
0000
1000
0000
0001
0000
0100
0000
0010
0000
0000
0010
0000
0000
0010
0000
,
1010
0101
0011
1100
,
0001
0000
0100
0000
1000
0000
0100
0000
1000
0000
0000
1000
0000
0000
1000
0000
,
0010
0000
1000
0000
0100
0000
0001
0000
0100
0000
0000
0100
0000
0000
0100
0000
,
0010
0000
1000
0000
0100
0000
0001
0000
0010
0000
0000
0010
0000
0000
0010
0000
,
0001
0100
1000
0010
0101
0000
1010
0000
,
1001
0000
0100
0000
0010
0000
0001
0000
0100
0000
0000
0100
0000
0000
0001
0000
,
1000
0000
0010
0000
0100
0000
1000
0000
0001
0000
0000
0001
0000
0000
1000
0000
,
0100
0000
1000
0000
0010
0000
0100
0000
1000
0000
0000
1000
0000
0000
0010
0000
,
0110
1001
0110
1001
,
1000
0100
0001
0000
0100
0000
0001
0000
,
1000
0010
1000
0000
0001
0000
0100
0000
,
0001
0100
1000
0000
0010
0000
0001
0000
,
1000
0001
1000
0000
0100
0000
0010
0000
,
1000
0100
1000
0000
0001
0100
0001
0000
,
1000
0100
0010
0000
1000
0100
0001
0000
,
0001
0010
0100
0000
0001
0100
1000
0000
,
0001
0100
0010
0000
1000
0100
0010
0000
,
0001
1000
0010
0000
1000
0001
0100
0000
,
0001
1000
0100
0000
1000
0001
0010
0000
,
1000
0100
0001
0000
1000
0010
0001
0000
,
0100
1000
0100
0000
0001
0010
0001
0000
,
1000
0100
1000
0000
0010
0001
0010
0000
,
1000
0010
1000
0000
0001
0100
0001
0000
,
1000
0100
1000
0010
0100
0001
0010
0001
,
0100
0010
1000
0100
1000
0010
0110
0000
,
0010
0000
1000
0000
0100
0000
0010
0000
1000
0000
0000
1000
0000
0000
1000
0000
,
0001
0000
0100
0000
0010
0000
1000
0000
0010
0000
0000
0010
0000
0000
0010
0000
,
0100
0000
0010
0000
0001
0000
1000
0000
0100
0000
0000
0100
0000
0000
0100
0000
,
0011
0000
1000
0100
0011
0000
1100
0000
,
1001
0000
0000
0000
0100
0000
0010
0000
0001
0000
0000
0001
0000
0000
0001
0000
,
1000
0000
0010
0000
0100
0000
0010
0000
0100
0000
0000
0100
0000
0000
0100
0000
,
0010
0000
1000
0000
0001
0000
0100
0000
0010
0000
0000
0010
0000
0000
0010
0000
,
1010
0101
0011
1100
,
0001
0000
0100
0000
1000
0000
0100
0000
1000
0000
0000
1000
0000
0000
1000
0000
,
0010
0000
1000
0000
0100
0000
0001
0000
0100
0000
0000
0100
0000
0000
0100
0000
,
0010
0000
1000
0000
0100
0000
0001
0000
0010
0000
0000
0010
0000
0000
0010
0000
,
0001
0100
1000
0010
0101
0000
1010
0000
,
1001
0000
0100
0000
0010
0000
0001
0000
0100
0000
0000
0100
0000
0000
0001
0000
,
1000
0000
0010
0000
0100
0000
1000
0000
0001
0000
0000
0001
0000
0000
1000
0000
,
0100
0000
1000
0000
0010
0000
0100
0000
1000
0000
0000
1000
0000
0000
0010
0000
,
0110
1001
0110
1001
,
1000
0100
0010
1001
,
0010
0100
0001
0010
,
1000
0010
0100
1001
,
0010
0100
0010
0110
;

//--------------- dance-single - DJSuperNOVA ----------------
#NOTES:
     dance-single:
     DJSuperNOVA:
     Hard:
     12:
     0,0,0,0,0:
0000
0000
0000
0000
,
0001
0000
1000
0000
0001
1000
0000
0000
0101
0000
0000
0000
1100
0000
0000
0000
,
1000
0000
0001
0000
0100
0000
0001
0001
,
1000
0000
0010
0000
1000
0010
0000
0000
1100
0000
0000
0000
0101
0000
0000
0000
,
1000
0000
0010
0000
0100
0010
0000
0000
0101
0000
0000
0000
1010
0000
0000
0000
,
1000
0000
0100
0000
1000
0010
0000
0000
0110
0000
0000
0000
0010
0000
0100
0000
,
0001
1000
0010
1000
0001
0100
0001
0001
,
1000
0000
0010
0000
1000
0010
0000
0000
1100
0000
0000
0000
0100
0000
1000
0000
,
0001
0100
0001
1000
0010
0100
0001
1000
,
0110
0000
0010
0000
1000
0010
0000
0000
0110
0000
0000
0000
0100
0000
0010
0000
,
0100
0001
0010
0001
0100
0010
1000
1000
,
0010
0000
0100
0000
0001
0100
0000
0000
0101
0000
0000
0000
1000
0000
0100
0000
,
0010
0000
0100
1000
0010
0010
0000
0010
0001
0100
0001
0100
0000
0100
0010
0000
,
1001
0000
0100
0000
0010
1000
0000
0000
0110
0000
0000
0000
1001
0000
0100
0000
,
0010
1000
0001
0100
0010
1000
0100
0100
,
0001
0000
0100
0000
0010
0100
0000
0000
0101
0000
0000
0000
1100
0000
0010
0000
,
1000
0100
0010
0001
0100
0001
0010
0010
,
1000
0000
0001
0000
0100
0001
0000
0000
0101
0000
0000
0000
1100
0000
0100
0000
,
0010
1000
0010
0001
0010
0100
0001
0001
,
1000
0000
0010
0000
0100
0010
0000
0000
0110
0000
0000
0000
1001
0000
1000
0000
,
0010
0100
1000
0100
0001
0100
1000
0010
,
2000
0000
0001
0000
0000
0001
0000
0000
0000
0000
0010
0000
0000
3010
0000
0000
,
0002
0000
0100
0000
0000
0100
0000
0000
0000
0000
1000
0000
0000
1003
0000
0000
,
0000
0000
0010
0001
0000
0000
0100
0010
0000
0000
1000
0100
0000
0000
0010
1000
,
0000
0000
0001
0100
0001
0000
1000
0100
1000
0000
0001
0010
0001
0000
1000
0010
,
1000
0000
1000
0000
0100
0000
0001
0000
0100
0000
0000
0010
0100
0000
0000
0010
,
0100
0000
0001
0000
1000
0000
0010
0000
1000
0100
0000
0010
0100
0000
0001
0000
,
1000
0000
0001
0000
1000
0000
0010
0000
0001
0000
0000
0100
1000
0000
0000
0001
,
1000
0000
0000
1000
0001
1000
0001
0000
0101
0000
0000
0000
1010
0000
0000
0000
,
1001
0000
0100
0000
0010
0000
0001
0000
0100
0000
0000
0010
1000
0000
0000
0001
,
1000
0000
0100
0000
0010
0000
1000
0000
0001
0100
0000
0100
0010
0000
1000
0000
,
0100
0000
0010
0000
0001
0000
1000
0000
0100
0000
0000
0100
1000
0000
0000
0010
,
0001
0101
1100
0101
,
1001
0000
0100
0000
1000
0000
0010
0000
0100
0000
0000
0010
0100
0000
0000
0001
,
0100
0000
0010
0000
1000
0000
0100
0000
0010
1000
0000
1000
0100
0000
0010
0000
,
0100
0000
0001
0000
1000
0000
0010
0000
1000
0000
0000
0001
0100
0000
0010
0000
,
1000
0000
0000
0001
0100
0001
1000
0000
1001
0000
0000
0000
0110
0000
0000
0000
,
1010
0000
0100
0000
0010
0000
0100
0000
0001
0000
0000
0001
0100
0000
0000
0010
,
1000
0000
0100
0000
1000
0000
0010
0000
0100
0010
0000
0010
0100
0000
0001
0000
,
1000
0000
0100
0000
1000
0000
0100
0000
0010
0000
0000
0100
0010
0000
0000
0010
,
0001
0011
1010
1100
,
0001
0000
0100
0000
0010
0100
0000
0000
0101
0000
0000
0000
1010
0000
0000
0000
,
0100
0001
1000
0100
1000
0010
1000
1000
,
0100
0000
1000
0000
0001
0100
0000
0000
0101
0000
0000
0000
0110
0000
0000
0000
,
1000
0100
1000
0010
1000
0100
0010
0010
,
0001
0000
0100
0000
0010
1000
0000
0000
1010
0000
0000
0000
0101
0000
0000
0000
,
0010
0100
1000
0100
0010
0100
0010
0010
,
0001
0000
0100
0000
0010
0100
0000
0000
0110
0000
0000
0000
1010
0000
0000
0000
,
0100
0001
1000
0001
0100
1000
0100
0100
,
1000
0000
0010
0000
0001
0010
0000
0000
1100
0000
0000
0000
1001
0000
0000
0000
,
0100
0001
0010
0001
0100
0010
1000
1000
,
0010
0000
0100
0000
0010
1000
0000
0000
1100
0000
0000
0000
0011
0000
0000
0000
,
1000
0010
0100
0010
1000
0001
0100
0100
,
0010
1000
0100
0001
1000
0010
0001
0100
,
1000
0001
0010
1000
0100
1000
0010
0001
,
0100
0010
1000
0001
0100
0010
1000
0100
,
1000
0100
0010
0001
0100
0010
0110
0000
,
1000
0000
1000
0000
0100
0000
0001
0000
0100
0000
0000
0010
0100
0000
0000
0010
,
0100
0000
0001
0000
1000
0000
0010
0000
1000
0100
0000
0010
0100
0000
0001
0000
,
1000
0000
0001
0000
1000
0000
0010
0000
0001
0000
0000
0100
1000
0000
0000
0001
,
1000
0000
0000
1000
0001
1000
0001
0000
0101
0000
0000
0000
1010
0000
0000
0000
,
1001
0000
0100
0000
0010
0000
0001
0000
0100
0000
0000
0010
1000
0000
0000
0001
,
1000
0000
0100
0000
0010
0000
1000
0000
0001
0100
0000
0100
0010
0000
1000
0000
,
0100
0000
0010
0000
0001
0000
1000
0000
0100
0000
0000
0100
1000
0000
0000
0010
,
0001
0101
1100
0101
,
1001
0000
0100
0000
1000
0000
0010
0000
0100
0000
0000
0010
0100
0000
0000
0001
,
0100
0000
0010
0000
1000
0000
0100
0000
0010
1000
0000
1000
0100
0000
0010
0000
,
0100
0000
0001
0000
1000
0000
0010
0000
1000
0000
0000
0001
0100
0000
0010
0000
,
1000
0000
0000
0001
0100
0001
1000
0000
1001
0000
0000
0000
0110
0000
0000
0000
,
1010
0000
0100
0000
0010
0000
0100
0000
0001
0000
0000
0001
0100
0000
0000
0010
,
1000
0000
0100
0000
1000
0000
0010
0000
0100
0010
0000
0010
0100
0000
0001
0000
,
1000
0000
0100
0000
1000
0000
0100
0000
0010
0000
0000
0100
0010
0000
0000
0010
,
0001
0011
1010
1100
,
0001
0000
0100
0000
0010
0100
0000
0000
0101
0000
0000
0000
1010
0000
0000
0000
,
0100
0000
1001
0000
0100
0000
0001
1000
,
0100
0000
1000
0000
0001
0100
0000
0000
0101
0000
0000
0000
0110
0000
0000
0000
,
1000
0000
0000
0001
1000
0000
0010
0000
1000
0100
0000
0010
0001
0000
1000
0000
;
