#TITLE:밀크 초컬릿;
#SUBTITLE:;
#ARTIST:BeautifulDay;
#TITLETRANSLIT:Milk Chocolate;
#SUBTITLETRANSLIT:;
#ARTISTTRANSLIT:BeautifulDay;
#GENRE:;
#CREDIT:DJSuperNOVA;
#MUSIC:Milk Chocolate.ogg;
#BANNER:Milk Chocolate.png;
#BACKGROUND:Milk Chocolate-bg.png;
#CDTITLE:;
#SAMPLESTART:9.733;
#SAMPLELENGTH:15.484;
#SELECTABLE:YES;
#OFFSET:-0.056;
#BPMS:0.000=124.000;
#STOPS:;
#BGCHANGES:;
#FGCHANGES:;

//--------------- dance-single - DJSuperNOVA ----------------
#NOTES:
     dance-single:
     DJSuperNOVA:
     Beginner:
     1:
     0,0,0,0,0:
0000
0000
0000
0000
,
0010
0000
0000
0000
,
0100
0000
0000
0000
,
1000
0000
0000
0000
,
0001
0000
0000
0000
,
0100
0000
0010
0000
,
0110
0000
0000
0000
,
1000
0000
0000
0000
,
0010
0000
0000
0000
,
1000
0000
0000
0000
,
0001
0000
0000
0000
,
0001
0000
0000
0000
,
1000
0000
0000
0000
,
1001
0000
0000
0000
,
0010
0000
0000
0000
,
0100
0000
0000
0000
,
0100
0000
0000
0000
,
0001
0000
0000
0000
,
0001
0000
0000
0000
,
1000
0000
0000
0000
,
1000
0000
0000
0000
,
0010
0000
0010
0000
,
0110
0000
0000
0000
,
0100
0000
0000
0000
,
0001
0000
0000
0000
,
0010
0000
0000
0000
,
1001
0000
0000
0000
,
1000
0000
0000
0000
,
1001
0000
0000
0000
,
1000
0000
1000
0000
,
0001
0000
0000
0000
,
0001
0000
0010
0000
,
0100
0000
0000
0000
,
0100
0000
1000
0000
,
0001
0000
0000
0000
,
0001
0000
0000
0000
,
1000
0000
0000
0000
,
1000
0000
1000
0000
,
1001
0000
0000
0000
,
0001
0000
0000
0000
,
2000
0000
0000
3000
,
0002
0000
0000
0003
,
0100
0000
0000
0000
,
0100
0000
0000
0000
,
0010
0000
0000
0000
,
0010
0000
0000
0000
,
1000
0000
0001
0000
,
1001
0000
0000
0000
,
1000
0000
0000
0000
,
0010
0000
0000
0000
,
0010
0000
0000
0000
,
0100
0000
0100
0000
,
0001
0000
0001
0000
,
1000
0000
0001
0000
,
1000
1000
0001
0001
,
1000
0000
0000
0000
,
1000
0000
0000
0000
,
0001
0000
0000
0000
,
0001
0000
0000
0000
,
0010
0000
0000
0000
,
0100
0000
0000
0000
,
0100
0000
0000
0000
,
0010
0000
0100
0000
,
0110
0000
0000
0000
,
1000
0000
0000
0000
,
0001
0000
0000
0000
,
1000
0000
0000
0000
,
1000
0000
0000
0000
,
0010
0000
0000
0000
,
0100
0000
0000
0000
,
0100
0000
0000
0000
,
1000
0000
0000
0000
,
0001
0000
0000
0000
,
0100
0000
0000
0000
,
0010
0000
0000
0000
,
0100
0000
0100
0000
,
0010
0000
0010
0000
,
1000
0000
1000
0000
,
0001
0000
0001
0000
,
1000
0000
0001
0000
,
1000
0000
0001
0000
,
0010
0000
0010
0000
,
0100
0000
0100
0000
,
0010
0000
0100
0000
,
0010
0000
0100
0000
,
2002
0000
0000
0000
,
3003
0000
0000
0000
;

//--------------- dance-single - DJSuperNOVA ----------------
#NOTES:
     dance-single:
     DJSuperNOVA:
     Easy:
     5:
     0,0,0,0,0:
0000
0000
0000
0000
,
0010
0000
0000
0010
0000
0000
0000
0000
,
0100
0000
0000
0100
0000
0000
0000
0000
,
1000
0000
0000
0000
,
0001
0000
0000
0000
,
1000
0100
0010
0001
,
1000
0001
0000
0001
,
0000
1000
0000
1000
,
0000
0010
0000
0010
,
0000
0100
0000
0100
,
0000
0001
0000
0001
,
0000
1000
0000
1000
,
0000
0010
0000
0010
,
0000
0000
0100
0000
0000
0100
0000
0000
0100
0000
0000
0000
0110
0000
0000
0000
,
1000
0001
0000
0001
,
0000
1000
0000
1000
,
1001
1000
0000
1000
,
0000
0000
0000
0000
0010
0000
0000
0000
0000
0010
0000
0000
0010
0000
0000
0000
,
0100
0001
0000
0001
,
0000
0100
0000
0100
,
0110
0010
0000
0010
,
2000
0000
0000
0002
0000
0000
3003
0000
,
0000
0001
0100
0001
,
0000
1000
0010
1000
,
0000
0010
1000
0010
,
0000
0100
0001
0100
,
0000
1000
0100
1000
,
0000
0001
0100
0001
,
0000
0010
0100
0010
,
0010
0000
0000
0010
0000
0000
0100
0000
,
0110
0100
0000
0010
,
0000
0010
1000
0010
,
1000
0001
0000
0001
,
0000
0001
1000
0010
,
0100
1000
0000
1000
,
0000
1000
0100
0001
,
1000
1000
0001
0001
,
0020
0000
0000
0030
0200
0000
0000
0300
,
0000
1000
0000
1000
,
0000
0001
0000
0001
,
2000
0000
0000
0002
0000
0000
3003
0000
,
1000
0010
0100
0001
,
0000
0010
0000
0010
,
0100
0010
0000
0010
,
1000
0100
0000
0100
,
0000
0001
0000
0001
,
1000
1000
0001
0001
,
1001
1000
0000
1000
,
0000
0001
0000
0001
,
0000
0100
0000
0100
,
0000
0010
1000
0010
,
0000
0100
0000
0100
,
0000
0001
0000
0001
,
1000
1000
0001
0001
,
0100
0010
0110
1001
,
0000
1000
0000
1000
,
0000
0001
0000
0001
,
0000
0100
0000
0100
,
0010
0001
1000
1000
,
0000
0010
0000
0010
,
0000
0100
0000
0100
,
0000
1000
0000
0001
,
0010
0001
0100
1000
,
0000
1000
0000
1000
,
0000
0001
0000
0001
,
2000
0000
0000
0002
0000
0000
3003
0000
,
1000
0010
0100
0001
,
0000
0010
0000
0010
,
0100
0010
0000
0010
,
1000
0100
0000
0100
,
0000
0001
0000
0001
,
1000
0000
0000
1000
0000
1000
0000
0000
,
0001
0000
0000
0001
0000
0001
0000
0000
,
0010
0000
0000
0010
0000
0010
0000
0000
,
0100
0000
0000
0100
0000
0100
0000
0000
,
0010
0010
0010
0010
,
0100
0100
0100
0100
,
1000
0001
1000
0001
,
1000
0010
1000
0010
,
1000
0010
0010
0010
,
0100
0100
0100
0100
,
0001
0001
0100
0001
,
0010
1000
0100
1000
,
0010
0010
0100
0010
,
0001
0100
0010
1000
,
0020
0000
0000
0200
0000
0000
0000
0000
,
0330
0000
0000
0000
;

//--------------- dance-single - DJSuperNOVA ----------------
#NOTES:
     dance-single:
     DJSuperNOVA:
     Medium:
     10:
     0,0,0,0,0:
0000
0000
0000
0000
,
0001
0000
0100
0010
0000
1000
0000
0000
,
0001
0000
1000
0100
0000
0000
0000
0000
,
0010
0000
0000
0000
,
0001
0000
0000
0000
,
1000
0100
0010
0001
,
1000
0000
0010
0000
0100
0010
0000
0100
0010
0000
0000
0001
0000
0000
0001
0000
,
1000
0000
0010
0000
1000
0010
0000
1000
0010
0000
0000
0010
0000
0000
0010
0000
,
1000
0000
0000
1000
0000
0000
1000
0000
0001
0000
0000
0001
0000
0000
0001
0000
,
0100
0000
0000
0100
0000
0000
0100
0000
0010
0000
0000
0010
0000
0000
0010
0000
,
1000
0000
0010
0000
0100
0010
0000
1000
0010
0000
0000
0010
0000
0000
0010
0000
,
0100
0000
0010
0000
0001
0100
0000
0010
0100
0000
0000
0100
0000
0000
0100
0000
,
0001
0000
1000
0000
0010
0000
0100
0001
1000
0000
0000
0100
0000
0000
0001
0000
,
0000
0000
0101
0000
0000
0100
0000
0000
1100
0000
0000
0000
1000
0000
0000
0000
,
0001
1000
0010
1000
,
0010
0000
0100
0000
0010
0000
1000
0010
,
0001
1000
0001
0100
,
1000
0000
0010
0000
0100
0010
0001
0100
,
0010
1000
0010
0001
,
0010
0000
1000
0000
0010
0000
0001
0100
,
1000
0000
0001
0000
1000
0000
0010
0001
,
1000
0010
1000
0010
1000
0000
0000
0100
0000
0100
0000
0000
0010
0000
0010
0000
,
0100
0000
0000
0000
0001
0000
0000
1000
0001
0000
1000
0000
0010
0000
1000
0000
,
0001
0000
0000
0000
0100
0000
0000
0100
0001
0000
1000
0000
0001
0000
1000
0000
,
0010
0000
0000
0000
0001
0000
0000
0100
0001
0000
0010
0000
0001
0000
1000
0000
,
0001
0000
0000
0000
0001
0000
0000
1000
0001
1000
0000
0000
0100
0000
0010
0000
,
0001
0000
0000
0000
0100
0000
0000
0100
0010
0000
0100
0000
0001
0000
1000
0000
,
0010
0000
0000
0000
0010
0000
0000
1000
0010
0000
1000
0000
0010
0000
1000
0000
,
0001
0000
0000
0000
0010
0000
0000
0100
0010
0000
0100
0000
0010
0000
1000
0000
,
0202
0000
0000
0303
0000
0000
0202
0000
0000
0000
0000
0000
0303
0000
0000
0000
,
1001
0000
0000
0000
1010
0000
0000
0001
0000
0000
0001
0000
0000
0000
0010
0000
,
1010
0000
0000
0000
1100
0000
0000
0010
0000
0000
1000
0000
0000
0000
1000
0000
,
1100
0000
0000
0000
0011
0000
0000
0010
0000
0000
0100
0000
0000
0000
1000
0000
,
1001
0010
0100
1000
0010
0100
0001
1000
,
0010
0000
0000
0000
1010
0000
0000
0010
0000
0000
0100
0000
0000
0000
0010
0000
,
0110
0000
0000
0000
0101
0000
0000
0100
0000
0000
1000
0000
0000
0000
1000
0000
,
0001
0010
0001
0010
0100
1000
0100
1000
,
0002
0023
0230
2300
,
3010
0000
0001
0000
0100
0001
0000
0100
0002
0000
0000
1003
0000
0000
0000
0000
,
0010
0000
1000
0000
0010
1000
0000
0000
0001
0100
0000
0100
0000
0000
0010
0000
,
2000
0000
0000
0200
0000
0000
3300
0000
,
1100
0011
1010
0101
,
1000
0000
0010
0000
1000
0010
0000
0000
0100
0010
0100
0001
0000
0000
0000
0000
,
0001
0000
1000
0000
0010
1000
0000
0000
1000
0100
1000
0010
0000
0000
0000
0000
,
0001
0000
1000
0000
0010
1000
0000
0100
1000
0000
0010
1000
0000
0100
1000
0000
,
0000
0000
0001
0000
1000
0000
0001
0100
0001
0000
1000
0010
0000
1000
0100
0000
,
0100
0000
0100
0000
0010
0100
0010
0001
,
0000
0010
0100
0000
0010
0000
0100
0000
0001
0000
0000
0001
0000
0000
0001
0000
,
1000
0000
0000
1000
0000
0000
1000
0000
0010
0000
0000
0010
0000
0000
0010
0000
,
0100
0000
0000
0100
0000
0000
0100
0000
0010
0000
0000
0010
0000
0000
0010
0000
,
0100
0000
0000
0100
0000
0000
0100
0000
0001
0000
0000
0001
0000
0000
0001
0000
,
0100
0000
0001
0000
0100
0000
0010
0000
1000
0000
0000
1000
0000
0000
1000
0000
,
0001
0000
1000
0000
0010
0000
0100
0000
0001
0000
0000
0001
0000
0000
0001
0000
,
1000
0100
0010
0100
0010
0001
1000
0010
,
1000
0000
0010
0000
0000
0100
0000
0000
1001
0000
0000
0000
0110
0000
0000
0000
,
1000
0000
0001
0000
1000
0010
0000
0010
0200
0000
0000
0301
0000
0000
0010
0000
,
0000
0000
1000
0000
0001
1000
0000
0001
2000
0000
3001
0000
0000
0000
1000
0000
,
0100
0000
0010
0000
0100
0010
0000
0000
0100
0010
0100
0000
0001
0000
1000
0000
,
0001
0010
0100
1000
0010
0100
0001
1000
,
0010
0000
1000
0000
0010
1000
0000
0010
2000
0000
0000
3010
0000
0000
0010
0000
,
0100
0000
0010
0000
0100
0001
0000
0100
0002
0000
0000
0103
0000
0000
1000
0000
,
0100
0000
0001
0000
0100
0001
0000
0100
0002
0000
0000
1003
0000
0000
0100
0000
,
0020
0032
0203
2300
,
3100
0000
0001
0000
0100
0001
0000
0100
0002
0000
0000
1003
0000
0000
0000
0000
,
0010
0000
1000
0000
0010
1000
0000
0000
0001
0100
0000
0100
0000
0000
0010
0000
,
2000
0000
0000
0200
0000
0000
3300
0000
,
1100
0011
1010
0101
,
1000
0000
0010
0000
1000
0010
0000
0000
0100
0010
0100
0001
0000
0000
0000
0000
,
0001
0000
1000
0000
0010
1000
0000
0000
1000
0100
1000
0010
0000
0000
0000
0000
,
0001
0000
1000
0000
0010
1000
0000
0100
1000
0000
0010
1000
0000
0100
1000
0000
,
0000
0000
0001
0000
1000
0000
0001
0100
0001
0000
1000
0010
0000
1000
0100
0000
,
0001
1000
0100
1000
0000
1000
0000
0000
,
0100
0001
0100
0010
0000
0010
0000
0000
,
0001
0100
0010
1000
0000
1000
0000
0010
,
1000
0010
1000
0001
0000
0001
0000
0000
,
2010
0010
0010
3010
,
0102
0100
0100
0103
,
1000
0000
0010
0000
0100
0010
0000
0100
0010
0000
0100
0001
0000
0100
0010
0100
,
0000
0000
0010
0000
1000
0010
0000
1000
0010
0000
0100
0010
0000
0100
0010
0001
,
1000
0010
0000
0010
0000
0000
0010
0000
0100
0000
0000
0100
0000
0000
0100
0000
,
0001
0000
0000
0001
0000
0000
0001
0000
1000
0000
0000
1000
0000
0000
1000
0000
,
0100
0000
0010
0000
0100
0010
0000
1000
0010
0000
0100
0010
0000
1000
0010
1000
,
0100
0000
0010
0000
0001
0100
0000
0010
0100
0000
0001
0100
0000
0010
0100
0010
,
0100
0000
1000
0000
0010
0000
0100
0001
1000
0000
0010
0100
0000
0001
1000
0000
,
0010
0001
0100
1000
,
0002
0000
0000
2000
0000
0000
0000
0000
,
3003
0000
0000
0000
;

//--------------- dance-single - DJSuperNOVA ----------------
#NOTES:
     dance-single:
     DJSuperNOVA:
     Hard:
     12:
     0,0,0,0,0:
0000
0000
0000
0000
,
0001
0000
0100
0010
0000
1000
0000
0000
,
0001
0000
1000
0100
0000
0000
0000
0000
,
0010
0000
0000
0000
,
0001
0000
0000
0000
,
2000
0000
0000
3000
0200
0000
0000
0300
0020
0000
0000
0030
0002
0000
0000
0003
,
1000
0000
0010
0000
0100
0010
0000
0100
0010
0000
0100
0001
0000
0100
0001
0000
,
1000
0000
0010
0000
1000
0010
0000
1000
0010
0000
0100
0010
0000
0100
0010
0000
,
1000
1000
0000
1000
0000
0000
1000
0000
0001
0001
0000
0001
0000
0000
0001
0000
,
0100
0000
0000
0100
0000
0000
0100
0000
0010
0000
0000
0010
0000
0000
0010
0000
,
1000
0000
0010
0000
0100
0010
0000
1000
0010
0000
0100
0010
0000
1000
0010
0000
,
0100
0000
0010
0000
0001
0100
0000
0010
0100
0000
0001
0100
0000
0010
0100
0000
,
0001
0000
1000
0000
0010
0000
0100
0001
1000
0000
0010
0100
0000
0001
1000
0000
,
0000
0000
0101
0000
0000
0101
0000
0000
0110
0000
0000
0000
1000
0000
0000
0000
,
0001
0000
1000
0000
0010
0000
1000
0100
,
0010
0000
0100
0000
0010
1000
0100
0010
,
0001
0000
1000
0000
0001
0000
0100
0010
,
1000
0000
0010
0000
0100
0010
0001
0100
,
0010
0000
1000
0000
0010
0000
0001
0100
,
0010
0000
1000
0000
0010
0000
0001
0100
,
1000
0000
0001
0000
1000
0100
0010
0001
,
1000
0010
1000
0010
1000
0000
0010
0100
0000
0100
0000
0000
0010
0000
0010
0000
,
0110
0000
0000
0000
1001
0000
0000
1000
0001
0000
1000
0000
0010
0000
1000
0000
,
0001
0000
0000
0000
0101
0000
0000
0100
0001
0000
1000
0000
0001
0000
1000
0000
,
1010
0000
0000
0000
0101
0000
0000
0100
0001
0000
0010
0000
0001
0000
1000
0000
,
0001
0000
0000
0000
1001
0000
0000
1000
0001
1000
0000
0000
0100
0000
0010
0000
,
0001
0000
0000
0000
0101
0000
0000
0100
0010
0000
0100
0000
0001
0000
1000
0000
,
0010
0000
0000
0000
1010
0000
0000
1000
0010
0000
1000
0000
0010
0000
1000
0000
,
1001
0000
0000
0000
0110
0000
0000
0100
0010
0000
0100
0000
0010
0000
1000
0000
,
0202
0000
0000
0303
0000
0000
0102
0000
0000
0000
0000
0000
2000
0000
3003
0000
,
1001
0000
0000
0000
1010
0000
0000
0001
0100
0000
0001
0000
0100
0000
0010
0000
,
1010
0000
0000
0000
1100
0000
0000
0010
0001
0000
1000
0000
0010
0000
1000
0000
,
1100
0000
0000
0000
0011
0000
0000
0010
0001
0000
0100
0000
0001
0000
1000
0000
,
0001
0010
0100
1000
0010
0100
0001
1000
,
0010
0000
0000
0000
1010
0000
0000
0010
1000
0000
0100
0000
1000
0000
0010
0000
,
0110
0000
0000
0000
0101
0000
0000
0100
0001
0000
1000
0000
0010
0000
1000
0000
,
0001
0010
0001
0010
0100
1000
0100
1000
,
0100
0010
0100
0010
0100
0000
0001
0100
0000
0100
0000
0000
1000
0000
0100
0000
,
0110
0000
0001
0000
0100
0001
0000
0100
0002
0000
0000
1003
0000
0000
0100
0000
,
0010
0000
1000
0000
0010
1000
0000
0000
0001
0100
0000
0100
0010
0000
0010
0000
,
2000
0000
3001
0200
0001
0000
0310
0000
,
1100
0011
1010
0101
,
1000
0000
0010
0000
1000
0010
0000
0010
0100
0010
0100
0001
0000
0000
1000
0000
,
0001
0000
1000
0000
0010
1000
0000
0010
1000
0100
1000
0010
0000
0000
0100
0000
,
0001
0000
1000
0000
0010
1000
0000
0100
1000
0000
0010
1000
0000
0100
1000
0100
,
0000
0000
0001
0000
1000
0000
0001
0100
0001
0000
1000
0010
0000
1000
0100
0000
,
0100
0000
0100
0000
0010
0100
0010
0001
,
1000
0010
0100
0000
0100
0000
0100
0000
0001
0000
0000
0001
0000
0000
0001
0000
,
0100
1000
0000
1000
0000
0000
1000
0000
0100
0010
0000
0010
0000
0000
0010
0000
,
0100
0001
0000
0001
0000
0000
0001
0000
1000
0010
0000
0010
0000
0000
0010
0000
,
0001
0100
0000
0100
0000
0000
0100
0000
0010
1000
0000
1000
0000
0000
1000
0000
,
0100
0000
0001
0000
0100
0000
0010
0000
1000
0000
0000
1000
0000
0000
1000
0000
,
0001
0000
1000
0000
0010
0000
0100
0000
0001
0000
0000
0001
0000
0000
0001
0000
,
1000
0100
0010
1000
0010
0100
1000
0010
,
1000
0000
0010
0000
0100
0001
0000
0001
1000
0000
0010
0000
0100
0001
0100
0000
,
1000
0000
0001
0000
1000
0010
0000
0001
0100
0000
0001
0000
0100
0000
0010
0000
,
1010
0000
1000
0000
0100
1000
0000
0010
0001
0000
1000
0000
0010
0000
1000
0000
,
1100
0000
0010
0000
0100
0010
0000
0001
0010
0001
1000
0000
0001
1000
0100
0000
,
0001
0010
0100
1000
0010
0100
0001
1000
,
0010
0000
1000
0000
0010
1000
0000
0010
1000
0000
0100
0000
1000
0000
0010
0000
,
0100
0000
0010
0000
0100
0001
0000
0100
0001
0000
1000
0000
0010
0000
1000
0000
,
0001
0010
0001
0010
0100
1000
0100
1000
,
0100
0010
0100
0010
0100
0000
0001
0100
0000
0100
0000
0000
1000
0000
0100
0000
,
0110
0000
0001
0000
0100
0001
0000
0100
0002
0000
0000
1003
0000
0000
0100
0000
,
0010
0000
1000
0000
0010
1000
0000
0000
0001
0100
0000
0100
0010
0000
0010
0000
,
2000
0000
3001
0200
0001
0000
0310
0000
,
1100
0000
0000
0000
0011
0000
0000
0000
1000
0010
0000
0000
0101
0000
0001
0000
,
1000
0000
0010
0000
1000
0010
0000
0010
0100
0010
0100
0001
0000
0000
1000
0000
,
0001
0000
1000
0000
0010
1000
0000
0010
1000
0100
1000
0010
0000
0000
0100
0000
,
0001
0000
1000
0000
0010
1000
0000
0100
1000
0000
0010
1000
0000
0100
1000
0100
,
0000
0000
0001
0000
1000
0000
0001
0100
0001
0000
1000
0010
0000
1000
0100
0000
,
0001
1000
0100
0010
0000
1000
0000
0001
,
0100
0001
0100
0010
0000
1000
0000
0000
,
0001
0100
0010
0001
0000
1000
0000
0010
,
1000
0010
1000
0001
0000
0100
0000
0000
,
0210
0010
0010
0310
,
0120
0100
0100
0130
,
1000
0000
0010
0000
0100
0010
0000
0100
0010
0000
0100
0001
0000
0100
0010
0100
,
0001
0000
0010
0000
1000
0010
0000
1000
0010
0000
0100
0010
0000
0100
0010
0001
,
1000
0010
0000
1000
0000
0000
0100
1000
0001
0100
0001
0100
0000
0000
0001
0000
,
0100
0010
0000
0100
0000
0000
0100
0010
0100
0010
0000
0100
0010
0000
0010
0000
,
1000
0000
0010
0000
0100
0010
0000
1000
0010
0000
0100
0010
0000
1000
0010
1000
,
0100
0000
0010
0000
0001
0100
0000
0010
0100
0000
0001
0100
0000
0010
0100
0010
,
0100
0000
1000
0000
0010
0000
0100
0001
1000
0000
0010
0100
0000
0001
1000
0000
,
0002
0000
0000
0003
0020
0000
0000
0030
0200
0000
0000
0300
2000
0000
0000
3000
,
0002
0000
0000
2000
0000
0000
0000
0000
,
3003
0000
0000
0000
;
