#TITLE:Luv Luv Melody;
#SUBTITLE:;
#ARTIST:Forte Escape;
#TITLETRANSLIT:;
#SUBTITLETRANSLIT:;
#ARTISTTRANSLIT:;
#GENRE:;
#CREDIT:DJSuperNOVA;
#MUSIC:Luv Luv Melody.ogg;
#BANNER:Luv Luv Melody.png;
#BACKGROUND:Luv Luv Melody-bg.png;
#CDTITLE:;
#SAMPLESTART:42.839;
#SAMPLELENGTH:21.573;
#SELECTABLE:YES;
#OFFSET:-0.030;
#BPMS:0.000=178.000;
#STOPS:;
#BGCHANGES:;
#FGCHANGES:;

//--------------- dance-single - DJSuperNOVA ----------------
#NOTES:
     dance-single:
     DJSuperNOVA:
     Beginner:
     4:
     0,0,0,0,0:
0000
0000
0000
0000
,
0200
0000
0300
0000
,
2002
0000
3003
0000
,
1000
0000
0001
0000
,
1000
0000
1000
0000
,
0010
0000
0010
0000
,
0100
0000
1001
0000
,
1000
0000
0000
0000
,
0001
0000
0000
0000
,
0000
1000
1000
0001
,
1000
2002
0000
3003
,
1000
0000
0001
0000
,
1000
0000
1000
0000
,
0010
0000
0020
0030
,
0000
0100
0000
0100
,
0010
0000
1000
0001
,
1000
0000
1000
0000
,
0010
0000
0010
0000
,
0100
0000
0100
0000
,
0010
0010
0010
0000
,
1000
0000
1000
0000
,
0010
0000
0010
0000
,
0001
0000
0001
0000
,
0100
0000
0100
0000
,
0010
0000
0010
0000
,
1000
0000
0001
0000
,
1000
0000
0010
0000
,
0100
0010
0100
0000
,
0001
0000
1000
0000
,
1000
0000
0001
0000
,
0001
0000
1000
0000
,
0001
0000
1001
0000
,
1000
0000
1000
0000
,
0001
0001
0001
0000
,
0100
0000
0100
0000
,
1000
1000
1000
0000
,
0010
0000
0010
0000
,
0100
0100
0100
0000
,
0001
0000
0100
0000
,
0010
0010
0010
0000
,
1000
0000
0100
0000
,
0001
0001
0001
0000
,
0100
0000
0010
0000
,
1000
1000
1000
0000
,
0001
0000
1000
0000
,
0010
0000
1000
0000
,
0001
0000
0100
0000
,
0010
0010
0010
0010
,
1000
0000
1000
0000
,
0001
0000
0001
0000
,
1000
0000
0001
0000
,
1001
0000
0110
0000
,
1000
0000
1000
0000
,
0001
0000
0001
0000
,
0100
0000
0100
0000
,
0010
0000
1000
0000
,
0001
0000
0001
0000
,
1000
0000
0001
0000
,
1000
0000
0010
0000
,
1000
0001
1000
0000
,
1000
0000
0100
0000
,
0010
0000
0010
0000
,
0001
0000
0001
0000
,
0100
0000
0100
0000
,
1000
0000
1000
0000
,
0010
0000
0001
0000
,
0010
0000
0001
0000
,
0100
0000
1000
0000
,
0100
0100
0100
0000
,
0010
0000
1000
0000
,
0001
0000
0001
0000
,
1000
0000
1000
0000
,
1001
0000
0100
0000
,
0010
0000
0001
0000
,
1000
0000
0000
0000
,
1000
0000
0001
0000
,
0000
1000
0000
0000
,
0020
0000
0000
0030
,
0100
0000
0000
0000
,
0010
0000
0000
0000
,
0100
0000
0000
0000
,
1001
0000
0002
0000
,
1003
0000
1000
0000
,
0001
0001
0001
0000
,
0100
0000
0100
0000
,
1000
1000
1000
0000
,
0010
0000
0010
0000
,
0100
0100
0100
0000
,
0001
0000
0100
0000
,
0010
0010
0010
0000
,
1000
0000
0100
0000
,
0001
0001
0001
0000
,
0100
0000
0010
0000
,
1000
1000
1000
0000
,
0001
0000
1000
0000
,
0010
0000
1000
0000
,
0001
0000
0100
0000
,
0010
0010
0010
0010
,
1000
0000
1000
0000
,
0001
0000
0001
0000
,
1000
0000
0001
0000
,
1001
0000
2002
0000
,
0000
0000
3003
0000
;

//--------------- dance-single - DJSuperNOVA ----------------
#NOTES:
     dance-single:
     DJSuperNOVA:
     Easy:
     7:
     0,0,0,0,0:
0000
0000
0000
0000
,
0020
0000
0030
0000
,
1001
0000
1000
0001
,
0000
1000
0100
1000
,
0010
0100
0001
0001
,
0100
0100
0010
0010
,
1000
0100
0001
0000
,
1000
0100
0010
0001
,
1000
0010
0100
0001
,
0000
0100
0010
0100
,
0110
2002
0000
3003
,
0001
0010
0100
1000
,
0010
0010
0100
0100
,
0001
0000
1001
0000
,
1000
0100
0010
0100
,
0001
0000
1010
0101
,
1000
0100
0010
0100
,
0010
0000
0101
1010
,
1000
0100
0001
0100
,
0101
1001
1010
0000
,
1000
0100
0001
0100
,
1000
0100
0110
0100
,
0001
0100
0010
1000
,
0001
0100
1001
0000
,
0100
0001
0100
0010
,
1000
0100
0001
0010
,
0100
1000
0010
0001
,
0101
0110
1010
0000
,
1000
0000
0100
0000
,
0001
0000
0100
0000
,
1000
0000
0001
0000
,
1000
0001
1001
0000
,
1000
0100
1000
0100
,
0001
0001
0001
0001
,
0100
0010
0100
0010
,
1000
1000
1000
1000
,
0010
0100
0001
0100
,
0001
0001
1000
1000
,
0010
0100
0001
1000
,
1001
0110
1001
0000
,
1000
1000
0001
0001
,
0010
0100
1000
0010
,
0100
0001
1000
0010
,
1000
1000
1000
1000
,
0010
0100
0001
0100
,
1000
0100
0001
0100
,
0010
0100
0010
1000
,
0001
0100
1000
1001
,
0100
0010
0001
0100
,
0010
0100
1001
0000
,
0100
1000
0001
0100
,
0110
1001
0110
0000
,
1000
0000
0001
0000
,
1000
0000
0010
0000
,
0010
0000
0100
0000
,
0100
0000
0001
0000
,
1000
1000
0001
0010
,
0100
0100
0010
1000
,
0001
0001
0100
0010
,
1001
0110
1001
0000
,
1000
0100
0010
0001
,
1001
0010
0100
1000
,
0010
0100
0100
0001
,
1000
1000
0010
0100
,
0001
0001
1000
1000
,
0010
0010
0100
0100
,
0001
0010
0100
1000
,
0001
0100
1000
0100
,
0010
0001
0100
0000
,
1000
0000
0000
0000
0000
1000
0100
0000
0000
0000
0000
0100
,
0010
0000
0010
0000
0010
0000
0100
0000
0000
0000
0000
0000
,
0001
0000
0001
0000
0001
0000
1000
0000
0000
0000
0000
0000
,
1000
0000
1000
0000
1000
0000
0001
0000
0000
0000
0000
0000
,
1000
0001
1000
0010
,
0100
0000
0010
0000
0000
1001
0000
0000
0000
0000
0000
0000
,
1000
1000
0001
0001
,
0000
1000
0000
0000
0100
0000
0010
0000
,
1000
0000
0100
0000
0010
0000
0001
0000
0010
0000
0100
0000
,
2000
0000
0100
0000
,
3002
0000
0100
0000
,
0103
0100
0010
0010
,
0011
0110
2200
3300
,
1000
0100
1000
0100
,
0001
0001
0100
1001
,
0100
0010
0100
0010
,
1000
1000
0010
1001
,
0010
0100
0001
0100
,
0001
0001
1000
1001
,
0010
0100
0001
1000
,
1010
0110
0101
0000
,
1000
1000
0001
0001
,
0010
0100
1010
0010
,
0100
0001
1000
0010
,
1000
0001
1010
0001
,
0010
0100
0001
0100
,
1000
0100
1000
0100
,
0001
0100
0010
1000
,
0101
1010
0011
1001
,
0100
0010
0001
0100
,
0010
0100
1000
0001
,
0100
1000
0001
0100
,
0110
1001
0220
0000
,
0000
0000
0330
0000
;

//--------------- dance-single - DJSuperNOVA ----------------
#NOTES:
     dance-single:
     DJSuperNOVA:
     Medium:
     11:
     0,0,0,0,0:
0000
0000
0000
0000
,
0200
0000
0000
0000
0300
0000
0000
0100
,
0020
0000
0130
0110
,
1000
0000
0001
0000
0100
0001
0100
0000
,
2000
3002
0203
0320
,
1030
0000
0100
0000
0010
0001
0010
0000
,
2000
3200
0302
0003
,
0010
0000
0100
0000
1000
0100
0010
0000
,
0001
0000
0010
0000
1000
0010
1000
0001
,
0000
1000
0002
0003
1000
0100
0010
0001
,
1000
0202
0000
0303
,
0001
0010
0100
1000
,
0001
0100
0001
0100
0010
0000
1000
0100
,
1000
0000
1000
0100
0010
0000
0000
0000
,
0100
0001
0010
0001
0100
0000
1000
0010
,
1000
0000
0101
1010
,
1000
0001
0001
0100
0010
0000
0010
1000
,
0001
1000
0020
0230
,
1300
0000
0010
0100
0010
0100
0001
0000
,
1001
0110
2002
3003
,
0100
0001
1000
0000
0100
0000
0001
0000
,
1000
0100
1000
0010
0100
0001
0100
0000
,
0000
1000
0010
0000
0010
0000
1000
0000
,
0001
0010
0001
0100
0010
1000
0100
0000
,
0001
0000
1000
0000
0100
0001
0100
0000
,
0001
0000
0100
0000
1000
0100
0010
0001
,
1000
0000
0010
1000
0000
1000
0010
0100
,
0001
0110
2002
3003
,
1000
0000
1000
0100
0000
0100
0010
0000
0010
0001
0000
0002
,
0000
0000
0203
0000
0000
0320
0000
0000
0000
0130
0000
0100
,
0001
0000
0001
0100
0000
0100
0000
0000
0010
1000
0000
0000
,
0100
0000
0110
0000
1001
0000
1000
0100
,
0020
0000
0130
0020
0000
0130
0010
1000
,
0010
0000
0011
0000
1100
0000
0001
0100
,
0020
0000
0130
0020
0000
0130
0010
0000
,
1000
0000
0101
0000
1001
0000
1000
0100
,
0010
0000
0010
0001
0000
1000
0100
1000
,
0000
0001
0010
0100
1000
0000
0001
0000
,
0100
1000
0100
0000
0010
0001
0010
0000
,
1010
0000
0110
0000
0101
0000
0100
0001
,
2000
0000
3001
2000
0000
3001
1000
0000
,
1100
0000
0110
0000
0011
0000
0010
1000
,
0002
0000
1003
0002
0000
1003
0001
0000
,
0110
1001
0110
0000
,
1000
0010
0100
0001
0000
0100
0000
0000
,
0001
0010
0100
1000
0000
0001
0000
0000
,
0000
0100
1000
0010
0100
0001
0100
0010
,
0000
0010
0000
0100
0000
0100
0000
0000
,
1000
0000
0001
0000
1000
0010
0000
0010
,
0100
0000
0100
0001
0000
1001
0000
0000
,
0100
0000
0001
0000
0001
0100
0000
0100
,
0010
0110
0110
0000
,
1000
0000
0000
0010
0000
0100
0010
0000
0000
0100
0000
0001
,
0000
0000
1000
0000
0000
0010
0100
0000
0000
1000
0000
0000
,
0001
0000
1000
0010
0000
0010
1000
0000
0000
0100
0000
0001
,
0000
0000
0100
0010
0000
0000
1010
0000
0000
0101
0000
0000
,
0100
1000
0100
0000
0001
0010
0001
0000
,
0100
0010
0001
1000
0100
0000
0100
1000
,
0001
1001
0110
1001
,
0100
0010
0100
0000
0220
0000
0330
0000
,
1000
0100
0010
0001
,
0100
0000
0001
0100
0000
0100
0010
0000
0010
1000
0000
0001
,
1000
0110
1001
0010
,
0001
0000
0100
0010
0000
0010
1000
0000
1000
0001
0000
1000
,
0010
0110
1010
0001
,
1000
0000
0100
0010
0000
0001
0010
0000
0100
1000
0000
1000
,
0001
1010
0101
0010
,
1000
0000
0100
0010
0000
0010
0001
0000
1000
0001
0000
0100
,
0010
0110
1001
0100
,
1001
0000
0000
0000
0000
0001
0100
0000
0000
0000
0000
0100
,
0010
0000
0010
0000
0010
0000
0010
0000
0010
0100
0010
0000
,
0100
0000
0100
0000
0100
0000
0100
0000
0100
0010
0100
0000
,
1000
0000
0100
0000
0010
0000
0002
0000
0000
0003
0000
0000
,
1000
0010
1000
0001
,
0000
0010
0000
0100
0000
2002
0000
0000
0000
3003
0000
0000
,
0001
0000
0100
0000
0000
0220
0000
0000
0000
0330
0000
0000
,
0000
0000
1001
0000
0000
0001
1000
0000
0000
0001
0000
0000
,
1000
0000
0100
0000
0001
0000
1000
0000
0010
0000
0001
0000
,
1000
0010
1010
0000
,
0001
0100
0101
0000
,
1000
0100
1000
0100
0010
0001
0010
0000
,
1001
0000
0110
0000
1001
0000
1000
0100
,
0020
0000
0130
0020
0000
0130
0010
1000
,
0010
0000
1001
0000
0110
0000
0001
0100
,
0020
0000
0130
0020
0000
0130
0010
0000
,
1000
0000
0101
0000
1001
0000
1000
0100
,
0010
0000
0010
0001
0000
1000
0100
1000
,
0000
0001
0010
0100
1000
0000
0001
0000
,
0100
1000
0100
0000
0010
0001
0010
0000
,
1010
0000
0110
0000
0101
0000
0100
0001
,
2000
0000
3001
2000
0000
3001
1000
0000
,
0110
0000
1001
0000
0110
0000
0010
1000
,
0002
0000
1003
0002
0000
1003
0001
0000
,
0110
1001
0110
0000
,
1000
0010
0100
0001
0000
0101
0000
0000
,
0001
0010
0100
1000
0000
1010
0000
0000
,
0000
0100
1000
0010
0100
0001
0100
0010
,
0000
0010
0000
0100
0000
0100
0000
0000
,
1000
0000
0001
0000
1000
0010
0000
0010
,
0100
0000
0100
0001
0000
1001
0000
0000
,
0100
0000
0001
0000
0001
0100
0000
0100
,
0010
0110
2002
0000
,
0000
0000
3003
0000
;

//--------------- dance-single - DJSuperNOVA ----------------
#NOTES:
     dance-single:
     DJSuperNOVA:
     Hard:
     13:
     0,0,0,0,0:
0000
0000
0000
0000
,
0200
0000
0000
0000
0300
0000
0000
0100
,
0020
0000
0130
0110
,
1000
0010
1000
0010
0100
0001
0100
0010
,
2000
3002
0203
0320
,
1030
0100
1000
0100
0010
0001
0010
0001
,
2000
3200
0302
0003
,
0000
0001
0100
0010
1000
0001
0010
0100
,
1000
0100
0010
0001
1000
0010
1000
0001
,
0000
1010
0202
0303
1000
0100
0010
0001
,
1000
0022
0000
0033
,
0002
0203
0320
2030
,
3001
0100
0001
0100
0010
0010
1000
0100
,
1000
0000
1000
0100
0010
0010
0010
0000
,
0100
0001
0010
0001
0100
0010
1000
0010
,
1000
0000
0101
1010
,
1000
0001
0001
0100
0010
0100
0010
1000
,
0002
0000
0003
2000
0000
3000
1010
0000
0000
0101
0000
0000
,
0100
0010
0010
0100
0010
0100
0001
1000
,
0001
0100
1000
0000
2002
0000
3003
0000
,
0100
0001
0100
0010
0100
0001
1000
0010
,
1000
0100
1000
0010
0100
0001
0100
0001
,
0000
1000
0010
0100
0010
1000
0010
0100
,
0001
0010
0001
0100
0010
0010
0100
0000
,
1000
0001
1000
0010
0100
0001
0100
0010
,
1000
0001
0100
0010
1000
0100
0010
0001
,
1000
0000
0010
1000
0000
1000
0010
0100
,
0001
0000
0110
0000
1000
0001
1000
0001
,
1000
0000
1000
0100
0000
0100
0010
0000
0010
0001
0000
0001
,
0100
0000
0100
0010
0000
0010
1000
0000
1000
0010
0000
0000
,
0001
0000
0001
0100
0000
0100
0010
0000
0010
1000
0000
1000
,
0100
0000
0000
0000
0100
0000
0010
0000
0000
0000
0000
0000
1001
0000
0000
0000
0000
0000
1000
0000
0000
0100
0000
0000
,
0020
0000
0130
0020
0000
0130
0010
0100
,
0010
0000
0011
0000
1100
0000
0001
0100
,
0020
0000
0130
0020
0000
0130
0010
0000
,
1010
0000
0101
0000
1001
0000
1000
0100
,
0010
0001
0010
0001
0000
1000
0100
1000
,
0000
0001
0010
0100
1000
0000
1001
0000
,
0100
1000
0100
0010
0001
0010
0100
1000
,
1010
0000
0110
0000
0101
0000
0100
0001
,
2000
0000
3001
2000
0000
3001
1000
0010
,
1100
0000
0110
0000
0011
0000
0010
1000
,
0002
0000
1003
0002
0000
1003
0001
0000
,
0110
1001
0110
1001
,
1000
0010
0100
0001
0000
0001
0100
0000
,
0001
0010
0100
1000
0000
0001
0100
0000
,
0000
0100
1000
0010
0100
0001
0100
0010
,
0000
0110
0000
1001
0000
0110
0000
0000
,
1000
0000
0001
0000
1000
0010
0000
0010
,
0100
0000
0100
0001
0000
1001
0000
0000
,
0100
0000
0001
0000
0001
0100
0000
0100
,
0010
1010
0101
0000
,
1000
0000
1000
0010
0000
0010
0100
0000
0100
0001
0000
0001
,
1000
0000
0000
0101
0000
0000
0110
0000
0000
1000
0000
0001
,
1000
0000
1000
0010
0000
0010
1000
0000
1000
0001
0000
0001
,
0100
0000
0000
0110
0000
0000
1010
0000
0000
0001
0000
0001
,
0100
1000
0100
1000
0001
0010
0001
0010
,
0100
0010
0001
1000
0100
0000
0100
1000
,
0001
1001
1001
1001
,
0100
0010
0100
0000
0220
0000
0330
0000
,
1000
0100
0010
0001
,
0100
0000
0001
0100
0000
0100
0010
0000
0010
1000
0000
0001
,
0000
0000
1000
0010
0000
1000
0010
0000
0000
0110
0000
0000
,
0001
0000
0100
0010
0000
0010
1000
0000
1000
0001
0000
1000
,
0000
0000
1000
0010
0000
0010
0100
0000
0000
0110
0000
0000
,
1000
0000
0100
0010
0000
0001
0010
0000
0100
1000
0000
0001
,
0000
0000
0010
1000
0000
0000
0101
0000
0000
1010
0000
0000
,
1000
0000
0100
0010
0000
0010
0001
0000
1000
0001
0000
0100
,
0000
0000
0000
0110
0000
0100
0010
0000
0100
0010
0000
0000
,
0101
0000
0000
0000
0000
0001
0100
0000
0000
0000
0000
0100
,
0010
0000
0010
0000
0010
0000
0010
0000
0100
0010
1000
0000
,
0100
0000
0100
0000
0100
0000
0100
0000
0100
0001
0010
0000
,
1000
0000
1000
0000
0100
0010
0002
0000
0000
0003
0000
0000
,
1000
0000
1000
0010
0000
0010
1000
0000
1000
0001
0000
0001
,
0100
0000
0100
0001
0000
2002
0000
0000
0000
3003
0000
0000
,
0001
0000
0100
0000
0020
0200
0000
0000
0000
0330
0000
0000
,
0000
0000
1001
0000
0000
0001
1000
0000
0000
0001
0000
0000
,
1000
0000
0100
0000
0010
0000
0100
0000
0010
0000
0001
0000
,
1000
0010
1000
1000
,
0001
0100
0001
0001
,
1000
0100
1000
0100
0010
0001
0010
0000
,
1001
0000
0110
0000
2002
3003
1000
0100
,
0020
0000
0130
0020
0000
0130
0010
0100
,
0010
0000
0101
0000
1010
0000
0001
0100
,
0020
0000
0130
0020
0000
0130
0010
0000
,
1010
0000
0101
0000
0110
0000
1000
0100
,
0010
0000
0010
0001
0000
1000
0100
1000
,
0000
0001
0010
0100
1000
0000
1001
0000
,
0100
1000
0100
0010
0001
0010
0100
1000
,
0010
0000
0110
0000
1001
0000
0100
0001
,
2000
0000
3001
2000
0000
3001
1000
0010
,
1100
0000
0110
0000
0011
0000
0010
1000
,
0002
0000
1003
0002
0000
1003
0001
0000
,
0011
0101
1001
1010
,
1000
0010
0100
0001
0000
0100
0001
0000
,
0001
0010
0100
1000
0000
0100
0010
0000
,
0000
0100
1000
0010
0100
0001
0100
0010
,
1000
0010
1000
0010
0100
0001
0100
0001
,
1000
0000
0001
0000
1000
0010
0000
0010
,
0100
0000
0100
0001
0000
1001
0000
0000
,
0110
0000
0001
0000
0001
0100
0000
0100
,
0010
0101
2020
0000
,
0000
0000
3030
0000
;
