#TITLE:Light;
#SUBTITLE:;
#ARTIST:Pory (as ER-5);
#TITLETRANSLIT:;
#SUBTITLETRANSLIT:;
#ARTISTTRANSLIT:;
#GENRE:;
#CREDIT:DJSuperNOVA;
#MUSIC:Light.ogg;
#BANNER:Light.png;
#BACKGROUND:Light-bg.png;
#CDTITLE:;
#SAMPLESTART:59.173;
#SAMPLELENGTH:27.429;
#SELECTABLE:YES;
#OFFSET:-1.744;
#BPMS:0.000=140.000;
#STOPS:;
#BGCHANGES:;
#FGCHANGES:;

//--------------- dance-single - DJSuperNOVA ----------------
#NOTES:
     dance-single:
     DJSuperNOVA:
     Beginner:
     2:
     0,0,0,0,0:
0000
0000
0000
0000
,
0000
0000
0000
0000
,
0010
0000
0000
0000
,
0100
0000
0000
0000
,
0001
0001
0001
0000
,
1000
0000
0000
0000
,
0010
0000
0000
0000
,
1000
0000
0000
0000
,
0002
0000
0003
0000
,
2000
0000
3000
0000
,
1000
0000
1000
0000
,
0001
0000
0001
0000
,
0100
0000
0001
0000
,
1000
0000
1000
0000
,
0010
0000
0010
0000
,
0100
0000
0100
0000
,
0001
0000
0001
0000
,
1001
0000
0000
0000
,
1000
0000
0000
0000
,
0100
0000
0000
0000
,
0001
0000
0000
0000
,
0100
0000
0000
0000
,
1000
0000
0000
0000
,
0001
0000
0000
0000
,
0010
0000
0000
0000
,
1000
0000
0000
0000
,
1001
0000
1000
0000
,
0001
0000
0001
0000
,
1000
0000
0010
0000
,
0010
0000
0001
0000
,
1001
0000
1000
0000
,
0100
0000
0010
0000
,
0110
0000
0000
0000
,
1001
0000
0000
0000
,
1000
0000
0000
0000
,
0001
0000
0000
0000
,
1000
0000
1000
0000
,
0001
0000
0000
0000
,
0010
0000
0000
0000
,
0100
0000
0100
0000
,
0001
0000
0000
0000
,
1000
0000
0000
0000
,
1001
0000
0000
0000
,
0001
0000
0000
0000
,
1000
0000
0000
0000
,
0010
0000
0000
0000
,
0100
0000
0000
0000
,
0001
0000
0000
0000
,
1000
0000
0000
0000
,
0001
0000
1000
0000
,
1001
0000
0001
0000
,
1000
0000
1000
0000
,
0010
0000
0010
0000
,
0100
0000
0000
0000
,
0001
0000
0001
0000
,
0010
0000
0010
0000
,
0100
0000
0100
0000
,
1000
0000
0000
0000
,
1001
0000
1000
0000
,
0001
0000
1000
0000
,
0010
0000
0100
0000
,
0010
0000
0000
0000
,
1000
0000
0100
0000
,
0010
0000
0001
0000
,
1000
0000
0001
0000
,
0010
0000
0100
0000
,
1000
0000
1001
0000
,
0001
0000
0001
0000
,
1000
0000
0000
0000
,
1000
0000
1000
0000
,
0001
0000
0000
0000
,
0010
0000
0010
0000
,
0100
0000
0000
0000
,
0100
0000
0100
0000
,
0010
0000
0000
0000
,
1001
0000
0000
0000
,
1000
0000
0000
0000
,
0001
0000
0000
0000
,
1000
0000
0000
0000
,
0001
0000
0000
0000
,
0100
0000
0000
0000
,
0010
0000
0000
0000
,
0100
0000
0000
0000
,
0010
0000
0000
0000
;

//--------------- dance-single - DJSuperNOVA ----------------
#NOTES:
     dance-single:
     DJSuperNOVA:
     Easy:
     5:
     0,0,0,0,0:
0000
0000
0000
0000
,
0000
0000
0100
0000
,
0020
0000
0000
0000
0000
0032
0000
0000
,
2003
0000
0000
0000
0000
3020
0000
0000
,
0130
0100
0001
1000
,
0001
0000
1000
0100
,
0020
0000
0000
0032
,
2003
0000
0000
0001
,
0002
0000
0000
3003
,
0100
0001
1000
1001
,
0100
0010
0000
0001
,
0100
1000
0000
0100
,
0001
0001
0000
0100
,
0100
0001
0000
0001
,
1000
1000
0000
0000
,
0001
0010
0000
0100
,
0010
0100
0000
0100
,
0010
0000
1000
0001
0000
1000
0001
0000
,
1001
0100
0001
0010
,
0100
0001
0010
1000
,
0010
1000
0001
0100
,
0010
0010
0100
0100
,
0001
1000
0010
0100
,
0001
0010
0100
0001
,
1000
0001
0100
1000
,
1001
0000
0001
0000
1000
0100
0001
0000
,
0110
0100
0001
0100
,
0001
0100
0010
1000
,
0001
0010
0100
1000
,
0001
1000
0100
0001
,
1001
0010
1000
0100
,
0001
1000
0001
1000
,
0002
1000
0100
1003
,
1001
0000
0100
0001
,
0020
0000
0000
0000
0000
0032
0000
0000
,
2003
0000
0000
0000
0000
3020
0000
0000
,
0130
0100
0001
1000
,
0001
0000
1000
0100
,
0020
0000
0000
0032
,
2003
0000
0000
3000
,
0001
0001
0001
0001
,
1000
1000
1000
1001
,
0110
1000
0001
0100
,
0010
1000
1000
0010
,
0100
0001
0001
0100
,
0010
0100
0100
1000
,
0010
0100
0100
0001
,
1000
0001
0100
1000
,
0001
1000
0100
0010
,
0001
1000
0001
1000
,
2001
0000
0100
3010
,
0002
0000
1000
0103
,
0001
0010
0100
0100
,
1000
0100
0001
1000
,
0012
0000
0010
0103
,
2000
0000
0001
3100
,
0110
1001
1000
0010
,
0001
1000
0001
0100
,
0210
0000
0001
1300
,
1020
0000
0100
0031
,
1000
0001
1000
0001
,
1000
1001
0100
0001
,
1010
0001
0100
1000
,
0101
1000
0010
1000
,
0001
0010
0100
0100
,
1000
0010
1000
0001
,
1000
1000
0001
0001
,
1001
0100
1000
0100
,
0001
1000
0010
0010
,
1000
1000
0001
0001
,
1000
0010
1000
1000
,
0001
0100
1000
0001
,
0100
0001
1000
0001
,
0100
0010
0001
1000
,
0010
0100
0001
1000
,
1001
0100
0000
0100
,
1000
0100
0000
0100
,
1000
0010
0000
0010
,
1000
0010
0000
0010
,
1000
0100
0000
0010
,
0001
0100
0000
0010
,
1000
0001
0000
0010
,
0001
0010
0100
1000
;

//--------------- dance-single - DJSuperNOVA ----------------
#NOTES:
     dance-single:
     DJSuperNOVA:
     Medium:
     7:
     0,0,0,0,0:
0000
0000
0000
0000
,
0000
0000
0100
0001
,
0020
0000
0000
0000
0000
0032
0000
0000
,
2003
0000
0000
0000
0000
3020
0000
0000
,
0130
0000
0100
0000
0001
0100
0001
1000
,
0000
0000
1000
0100
,
0020
0000
0000
0000
0000
0130
0002
0000
,
2003
0000
0000
0001
,
0002
0000
0000
3003
,
0100
0000
0001
0000
1000
0001
1001
0000
,
0100
0001
1000
0010
0000
0100
0001
0000
,
0100
0010
1000
0010
0000
1000
0100
0000
,
0001
0100
0001
1000
0000
1000
0100
0010
,
0100
1000
0001
1000
0000
0100
0001
0000
,
1000
0010
1000
0001
0000
0100
0000
1000
,
0001
0100
0010
1000
0000
0001
0100
0000
,
0010
1000
0100
0010
0000
0001
0100
0001
,
0010
0100
1000
0001
0000
1000
0001
0000
,
1001
0000
0100
0000
0001
0000
0010
0100
,
0000
0001
0000
1000
0000
0010
1000
0000
,
0010
1000
0001
0100
,
0010
0000
0010
0000
0100
0010
0100
0000
,
0001
0000
1000
0010
0000
0100
0000
0001
,
0000
1000
0010
0000
0100
1000
0001
0000
,
1000
0000
0001
0000
0100
0010
1000
0000
,
1001
0000
0001
0000
1000
0100
0001
0000
,
0110
0000
0100
0000
0001
0000
0100
0001
,
0000
0100
0000
0010
0000
1000
0100
1000
,
0001
0000
0010
0100
0000
1000
0000
0000
,
0001
0000
1000
0100
0000
0010
0001
0000
,
1001
0010
1000
0100
,
0001
0000
1000
0001
0000
1000
0001
1000
,
0002
1000
0100
1003
,
1001
0000
0100
0001
,
0020
0000
0000
0000
0000
0032
0000
0000
,
2003
0000
0000
0000
0000
3020
0000
0000
,
0130
0000
0100
0000
0001
0100
0001
1000
,
0000
0000
1000
0100
,
0020
0000
0000
0000
0000
0130
0002
0000
,
2003
0000
0000
0000
3000
0100
0010
0200
,
0001
0001
0001
0001
,
1000
1000
1300
1001
,
0110
0000
0000
0000
1000
0000
0000
0001
0000
0000
0001
0000
0100
0000
0000
0000
,
0010
0000
0000
0000
1000
0000
0000
1000
0000
0000
1000
0000
0010
0000
0000
0000
,
0100
0000
0000
0000
0001
0000
0000
0001
0000
0000
0001
0000
0100
0000
0000
0000
,
0010
0000
0000
0000
0100
0000
0000
0010
0000
0000
0010
0000
1000
0000
0000
0000
,
0010
0000
0000
0000
0100
0000
0000
0001
0000
0000
0100
0000
0001
0000
0000
0000
,
1000
0000
0000
0000
0001
0000
0000
0100
0000
0000
0010
0000
1000
0000
0000
0000
,
0001
1000
0100
0010
,
0001
1000
0011
1100
,
2001
0100
0010
3100
,
1002
0100
0010
1003
,
0101
0000
1010
0000
0100
0010
0100
0010
,
1000
0100
0001
1000
,
0012
1000
0010
0103
,
2010
0100
0001
3100
,
0110
0000
1001
0000
1000
0100
0010
0001
,
0000
1000
0000
0001
0000
0100
0010
0000
,
0210
1000
0001
1300
,
1020
0001
0100
0031
,
1010
0000
0101
0000
1000
0100
0001
1000
,
0000
1001
0100
0001
,
1020
0000
0001
0000
0130
0000
1000
0001
,
0201
0000
1000
0000
0310
0000
1000
0001
,
1000
0000
0010
0000
0100
0001
0100
0001
,
0000
1000
0000
0010
0000
1000
0001
1000
,
0001
0001
1000
1000
0001
0001
1000
1000
,
0001
0000
0100
0000
1000
0010
0100
0000
,
0001
0000
1000
0000
0010
0100
0010
0000
,
1000
0000
1000
0000
0001
0100
0001
0000
,
1000
0000
0010
0000
1000
0100
1000
0000
,
0001
0000
0100
0000
1000
0100
0001
0000
,
0100
0000
0001
0000
1000
0010
0001
0000
,
0100
0000
0010
0000
0001
0100
1000
0000
,
0010
0000
0100
0000
0001
0010
1000
0000
,
1001
0100
0001
0100
,
1000
0100
0001
0100
,
1000
0010
0001
0010
,
1000
0010
0001
0010
,
1000
0100
1000
0010
,
0001
0100
0001
0010
,
1000
0001
0100
0010
,
0001
0010
0100
1000
;

//--------------- dance-single - DJSuperNOVA ----------------
#NOTES:
     dance-single:
     DJSuperNOVA:
     Hard:
     15:
     0,0,0,0,0:
0000
0000
0000
0000
,
0000
0000
0000
0000
,
0100
0001
1000
0001
0000
0100
0000
0010
,
0000
1000
0100
1000
0000
0010
0001
0100
,
0010
0001
1000
0001
0000
0100
0000
0001
,
0000
0100
0010
1000
0000
0100
0000
0010
,
1000
0010
1000
0001
0000
0100
0000
0001
,
0000
1000
0010
1000
0000
0001
0100
0010
,
0001
0010
0100
0001
0000
1000
0010
1000
,
0100
0010
0001
0100
0000
0100
0010
0000
,
1000
0100
1000
0000
0010
0000
0100
0010
0000
0100
0010
0000
0001
0000
0010
0100
,
0010
0000
1000
0000
0001
0100
0000
0001
0000
0100
0001
0000
0010
0001
0000
0001
,
1000
0010
1000
0000
0001
0000
0100
0010
0000
0100
0010
0000
1000
0000
0001
0000
,
1000
0100
1000
0000
0010
0000
0100
0010
0000
0100
0010
0000
0100
1000
0000
1000
,
0010
1000
0100
0000
0010
0000
0001
0100
0000
0010
1000
0000
0001
0000
0100
0010
,
1000
0000
1000
0000
0001
0100
0000
0010
0000
0100
0010
0000
1000
0100
0000
0010
,
0001
0010
0001
0000
0100
0000
0010
1000
0000
1000
0010
0000
0100
0000
0100
0010
,
0100
0001
0100
0000
0010
1000
0000
0010
0000
1000
0010
0000
0100
0000
0000
0000
,
1000
0010
0100
1000
0010
0100
0001
0100
,
0001
0010
0100
1000
0100
0010
0001
1000
,
0010
1000
0001
0100
0001
0010
0100
1000
,
0001
1000
0010
1000
0100
0010
0001
1000
,
0010
0100
0001
0010
0001
0100
0010
1000
,
0100
1000
0010
0100
0001
1000
0100
0010
,
0001
1000
0010
0100
0001
0100
0001
1000
,
0010
0000
1000
0000
0100
0000
0001
0000
0100
0010
0100
0000
0010
0000
0100
0010
,
0100
0001
1000
0010
1000
0001
0100
0010
,
1000
0100
0010
0001
0100
0001
0010
0100
,
0001
1000
0010
0100
0001
0010
0100
1000
,
0010
1000
0010
1000
0100
0010
0001
0100
,
0100
0001
0010
0001
0100
0010
1000
0010
,
0100
1000
0100
0010
0001
0100
0001
0100
,
0001
0010
0100
0001
0100
0010
0100
1000
,
0001
0000
1000
0001
,
1000
0010
0100
0010
0000
0100
0000
1000
,
0000
0001
0100
0001
0000
1000
0010
0001
,
1000
0001
0100
1000
0000
0001
0000
0100
,
0000
0010
1000
0100
0000
0100
0000
1000
,
0010
0100
1000
0001
0000
0100
0000
0001
,
0000
1000
0100
1000
0000
0010
0100
0001
,
1000
0010
1000
0100
0000
0010
0000
0001
,
0000
1000
0010
1000
0000
0100
0010
0000
,
1000
0010
1000
0000
0010
0000
0100
0010
0000
0100
0010
0000
0001
0000
0001
0100
,
0010
0000
0010
0000
1000
0010
0000
0010
0000
0100
0010
0000
1000
0100
0000
1000
,
0100
0010
0001
0000
0001
0000
0100
0010
0000
1000
0100
0000
0001
0000
0001
0100
,
0010
1000
0001
0000
0001
0100
0000
0100
0000
0010
1000
0000
1000
0100
0000
0100
,
0001
0010
0001
0000
1000
0000
0010
0100
0000
0100
0010
0000
1000
0000
0001
0100
,
0001
0000
0100
0000
0010
1000
0000
1000
0000
0100
0010
0000
0100
0010
0000
0100
,
0001
1000
0001
0000
1000
0000
0010
0100
0000
1000
0010
0000
0100
0000
0001
0010
,
0001
0100
0001
0000
1000
0000
0100
0010
0000
0100
0010
0000
0001
0000
0000
0000
,
1000
0010
1000
0000
0001
0000
0100
0010
0000
0010
0100
0000
0001
0000
1000
0100
,
1000
0000
0010
0000
0001
0100
0000
0001
0000
1000
0100
0000
0010
0001
0000
0100
,
1000
0100
1000
0000
0010
0000
0001
0100
0000
0010
1000
0000
0001
0000
0100
0010
,
0001
0010
0100
0000
0010
1000
0000
0001
0000
0100
0010
0000
1000
0100
0000
1000
,
0010
0100
0001
0000
0001
0000
0100
0010
0000
0010
0100
0000
1000
0000
0010
0100
,
0001
0000
0001
0000
1000
0010
0000
0010
0000
1000
0010
0000
0100
0010
0000
0100
,
0001
0100
0010
0000
0010
0000
1000
0010
0000
0010
1000
0000
0001
0000
1000
0100
,
0001
0100
1000
0000
0010
0100
0000
0010
0000
0100
0001
0000
1000
0000
0010
0000
,
0100
0010
0001
0000
1000
0000
0010
1000
0000
0001
1000
0000
0100
0000
0001
0000
,
1000
0000
0100
0000
0001
0100
0000
0010
0000
0010
1000
0000
0001
0100
0000
0100
,
0001
0010
0001
0000
1000
0000
0010
0100
0000
0100
0010
0000
1000
0000
0001
0100
,
0001
0100
0010
0000
1000
0000
0100
1000
0000
1000
0100
0000
0001
0010
0000
0100
,
0001
0100
0010
0000
1000
0000
0010
0100
0000
0001
0010
0000
1000
0000
0001
0010
,
0001
0000
0100
0000
0010
1000
0000
0010
0000
0100
0010
0000
0001
1000
0000
0010
,
1000
0100
1000
0000
0001
0000
0100
0010
0000
0100
0010
0000
1000
0000
0100
0010
,
0001
0010
1000
0000
0010
1000
0100
0010
0000
0001
0100
0000
0010
0000
1000
0000
,
0010
0010
0100
0100
0010
0010
0100
0100
,
0001
0000
1000
0000
0010
0000
1000
0100
0000
0100
1000
0000
0010
0000
0100
0000
,
0001
0000
1000
0000
0001
0000
0100
0001
0000
0001
0100
0000
0010
0000
1000
0000
,
0001
0000
0100
0000
1000
0000
0010
0001
0000
0001
0100
0000
0010
0000
1000
0000
,
0001
0000
1000
0000
0010
0000
0100
0001
0000
0001
1000
0000
0010
0000
1000
0000
,
0001
0000
0100
0000
1000
0000
0001
0100
0000
0100
0001
0000
1000
0000
0010
0000
,
0100
0000
0001
0000
1000
0000
0010
0100
0000
0100
0010
0000
1000
0000
0001
0000
,
0100
0000
1000
0000
0010
0000
0100
0001
0000
0001
0100
0000
0010
0000
1000
0000
,
0001
0000
0100
0000
0001
0000
0100
0010
0000
0010
0100
0000
0010
0000
0000
0000
,
1000
0100
0001
0100
1000
0100
0001
0100
,
0010
0100
1000
0100
0010
0100
0001
0100
,
0001
0010
1000
0010
0001
0010
1000
0010
,
0100
0010
0001
0010
1000
0010
0100
0010
,
0001
1000
0010
0100
,
0001
0001
1000
1000
,
0010
0000
0010
0000
0100
0000
0001
0100
,
1000
0001
1000
0100
;
