#TITLE:캉캉!!;
#SUBTITLE:;
#ARTIST:BeautifulDay;
#TITLETRANSLIT:Kan Kan;
#SUBTITLETRANSLIT:;
#ARTISTTRANSLIT:BeautifulDay;
#GENRE:;
#CREDIT:DJSuperNOVA;
#MUSIC:Kan Kan.ogg;
#BANNER:Kan Kan.png;
#BACKGROUND:Kan Kan-bg.png;
#CDTITLE:;
#SAMPLESTART:36.852;
#SAMPLELENGTH:22.588;
#SELECTABLE:YES;
#OFFSET:-0.028;
#BPMS:0.000=170.150
,98.000=42.537
,99.000=35.075
,99.250=70.150
,99.500=140.300
,100.000=170.000
,209.000=340.000
,212.000=42.500
,213.250=85.000
,213.500=100.000
,214.000=170.000
,234.000=85.000
,234.250=170.000
,234.500=340.000
,235.000=170.000
,238.000=85.000
,238.250=170.000
,238.500=340.000
,239.000=170.000
,320.000=340.000
,324.000=170.000
;
#STOPS:;
#DISPLAYBPM:170.000;
#BGCHANGES:;
#FGCHANGES:;

//--------------- dance-single - DJSuperNOVA ----------------
#NOTES:
     dance-single:
     DJSuperNOVA:
     Beginner:
     4:
     0,0,0,0,0:
0000
0000
0000
0000
,
0000
0000
0000
0000
,
0000
0000
0000
0000
,
0000
0000
0000
0000
,
0000
0000
0000
0000
,
0001
0000
1000
0000
,
0010
0001
1001
0000
,
0010
0000
0100
0000
,
1000
0000
0001
0000
,
1001
0000
0010
0000
,
0100
0000
0010
0000
,
1001
0000
1000
0000
,
0100
0000
0001
0000
,
1001
0000
1001
0000
,
1000
1000
1000
0000
,
1001
0000
1001
0000
,
0001
0001
0001
0000
,
1001
0000
1001
0000
,
1000
0100
1000
0000
,
1001
0000
1001
0000
,
0001
0100
0001
0000
,
1000
0000
0001
0000
,
1000
0000
1001
0000
,
1001
0000
1001
0000
,
1001
0000
0000
0000
,
2002
0000
0000
3003
1000
0000
0000
0000
,
0001
0001
0000
0000
,
1000
1000
0000
0001
,
1000
0000
0100
0000
,
0220
0000
0000
0330
0100
0000
0000
0000
,
0001
0001
0000
0000
,
1000
1000
0000
1000
,
0001
0000
1001
0000
,
2002
0000
0000
3003
1000
0000
0000
0000
,
0001
0001
0000
0000
,
1000
1000
0000
0001
,
1000
0000
0110
0000
,
2002
0000
0000
3003
0001
0000
0000
0000
,
1000
1000
0000
0000
,
0001
0001
0000
0001
,
1000
0001
1000
0000
,
1001
0000
0010
0000
,
0001
0001
0100
0000
,
1000
0000
0100
0000
,
1000
1000
0001
0001
,
1001
0000
0010
0000
,
0100
0000
1000
0000
,
1000
0000
0001
0000
,
1000
0000
0001
0000
,
0010
0000
0100
0000
,
0010
0000
0100
0000
,
0010
0000
0100
0000
,
0010
1001
0000
0000
,
0000
0000
0000
0000
2002
0000
0000
3003
,
1000
0000
0001
0001
,
0000
0000
1000
1000
,
0000
0001
1000
0000
,
0100
0000
0000
0000
0220
0000
0000
0330
,
0100
0000
0001
0001
,
0000
0000
1000
1000
,
0000
1000
0001
0000
,
1001
0000
0000
0000
2002
0000
0000
3003
,
1000
0000
0001
0001
,
0000
0000
1000
1000
,
0000
0001
1000
0000
,
0110
0000
0000
0000
2002
0000
0000
3003
,
0001
0000
1000
1000
,
0000
0000
0001
0001
,
0000
0001
1001
0000
,
0100
0000
0010
0000
,
0002
0003
1001
0000
,
0010
0000
0100
0000
,
2000
3000
1001
0000
,
0001
1000
1000
0000
,
1000
0001
0001
0000
,
1000
0000
0010
0000
,
0100
0000
1001
0000
,
1100
0000
0011
0000
,
1001
0000
0110
0000
,
1001
0000
2002
0000
,
0000
0000
3003
0000
,
1001
0000
0000
0000
;

//--------------- dance-single - DJSuperNOVA ----------------
#NOTES:
     dance-single:
     DJSuperNOVA:
     Easy:
     6:
     0,0,0,0,0:
0000
0000
0000
0000
,
0000
0000
0000
0000
,
0000
0000
0000
0000
,
0000
0000
0000
0000
,
0000
0000
0000
0000
,
0001
0100
1000
1001
,
0010
0001
0100
1100
,
0010
1000
0100
1001
,
0001
1000
0001
1000
,
1001
0100
0010
0001
,
0100
1000
0010
0101
,
1000
0100
1000
0001
,
0100
0010
1000
1001
,
0110
1001
0011
1100
,
1000
0000
0001
0000
1000
0100
0001
0000
,
0110
1010
0110
0101
,
0001
0000
1000
0000
0001
0100
1000
0000
,
0101
0110
1010
1100
,
0010
0000
0100
0000
0010
0100
0001
0000
,
1010
0110
0101
0011
,
1000
0001
1000
0001
,
0100
0010
0100
0001
,
1000
0010
1001
1000
,
1001
0001
1001
1000
,
1001
0001
0000
0000
,
2002
0000
0000
3003
0100
0000
0010
0000
,
0101
0101
0010
0100
,
1100
1100
0100
0001
,
1000
0010
0100
0001
,
0220
0000
0000
0330
0100
0000
0010
0000
,
0101
0101
0010
0100
,
1100
1100
0001
1000
,
0010
1000
1001
0110
,
2002
0000
0000
3003
1000
0000
0001
0000
,
0011
0011
0100
0010
,
1010
1010
0100
0001
,
1100
0100
0110
0010
,
0022
0000
0000
0033
0001
0000
0100
0000
,
1010
1010
0100
0001
,
0011
0011
1000
0001
,
1000
0001
1000
0110
,
1001
1000
0010
0100
,
0001
0001
0100
0100
,
1000
0010
0100
0001
,
1000
1000
0001
0001
,
1001
0100
0010
0001
,
0100
0010
1000
1000
,
1010
0100
0011
0100
,
1100
0010
0101
0010
,
0011
0100
1100
0010
,
0101
0100
1100
0101
,
1100
0101
1100
0101
,
1100
1001
0000
0000
,
0000
0000
0000
0000
2002
0000
0000
3003
,
0100
0010
0101
0101
,
0010
0100
1100
1100
,
0100
0001
1000
0010
,
0100
0000
0001
0000
0220
0000
0000
0330
,
0100
0010
0200
0301
,
0010
0100
0200
1300
,
0001
1000
0010
1000
,
1001
0000
0110
0000
2002
0000
0000
3003
,
1000
0001
0011
0011
,
0100
0010
1010
1010
,
0100
0001
1100
0100
,
0110
0000
0010
0000
0022
0000
0000
0033
,
0001
0100
1010
1010
,
0100
0001
0011
0011
,
1000
0001
1001
1000
,
0100
0010
0001
0100
,
0020
0000
0130
0001
,
0100
0010
1000
0010
,
0200
0000
0301
1000
,
0001
0000
1000
0001
1000
0000
0001
0000
,
1000
0000
0001
1000
0001
0000
0100
0000
,
1000
0100
0001
0100
,
1000
0100
0101
0100
,
1100
0010
0011
0010
,
1010
0010
0101
0100
,
1100
0100
2002
0000
,
0000
0000
3003
0000
,
0110
0000
0000
0000
;

//--------------- dance-single - DJSuperNOVA ----------------
#NOTES:
     dance-single:
     DJSuperNOVA:
     Medium:
     11:
     0,0,0,0,0:
0000
0000
0000
0000
,
0000
0000
0000
0000
,
0000
0000
0000
0000
,
0000
0000
0000
0000
,
0000
0000
0000
0000
,
0010
0100
0100
0010
0100
1000
1000
0100
,
0010
0100
0001
0100
0010
0010
0100
0000
,
0001
0100
0100
0010
0100
0010
0010
1000
,
0001
1000
0001
1000
0010
0100
0010
0100
,
0001
1000
0100
0010
0100
0001
1000
0100
,
0001
0100
0010
0100
0010
1000
0100
0000
,
0001
0010
0001
0100
0010
0100
0010
1000
,
0100
1000
0010
1000
0001
0100
0100
0000
,
0011
1100
1010
0101
,
0001
0010
0100
1000
0010
0100
0001
0000
,
1010
0101
0011
1100
,
1000
0100
0010
0001
0100
0010
1000
0000
,
0101
1010
1100
0011
,
1000
0010
0100
0001
0010
0100
1000
0000
,
1100
0011
0101
1010
,
1000
0100
0010
0001
1000
0010
1000
0100
,
1000
0010
1000
0100
0001
0010
0001
1000
,
0001
0010
0001
1000
0010
0000
0110
0000
,
0100
0110
1000
1001
,
0001
1001
0000
0000
,
0220
0000
0330
0000
1000
0100
0010
0100
,
2000
3000
0002
0003
0001
0100
0010
0100
,
0002
0003
2000
3000
0100
0001
0010
0100
,
1000
0010
0100
0001
1000
0001
0100
0010
,
2002
0000
3003
0000
0100
0010
1000
0100
,
0002
0003
2000
3000
0010
0001
0010
0100
,
2000
3000
0002
0003
1000
0010
0100
0001
,
0100
0010
0100
1000
0110
0000
1001
0000
,
0220
0000
0330
0000
1000
0100
0010
0001
,
2000
3000
0002
0003
0100
0001
0100
0010
,
2000
3000
0002
0003
1000
0001
0010
0100
,
1000
0010
1000
0010
0100
0001
0100
0001
,
0220
0000
0330
0000
1000
0100
0001
0100
,
2000
3000
0002
0003
0001
0100
1000
0100
,
0002
0003
2000
3000
0100
0001
0010
0001
,
0100
0010
1000
0100
1000
0000
1001
0000
,
0110
0100
1000
0010
0100
0001
0001
1000
,
0010
0100
0001
0100
0010
1000
1000
0000
,
0001
0010
0100
0010
0100
1000
1000
0100
,
0010
0100
0010
0100
0001
0100
0001
0100
,
0010
0100
1000
0010
1000
0001
0100
0010
,
1000
0100
0001
0010
0100
1000
1000
0000
,
0201
1300
1200
0301
,
1020
0031
0021
1030
,
1002
0103
2001
3100
,
2010
3001
0012
2003
,
3020
0230
0302
1003
,
0110
1001
0000
0000
,
0000
0000
0220
0330
,
1000
0100
0010
0100
2000
3000
0002
0003
,
0001
0100
0010
0100
0002
0003
2000
3000
,
0100
0001
0010
0100
1000
0010
0100
0001
,
1000
0001
0100
0010
2002
0000
3003
0000
,
0100
0010
1000
0100
0002
0003
2000
3000
,
0010
0001
0010
0100
2000
3000
0002
0003
,
1000
0010
0100
0001
0100
0010
0100
1000
,
0110
1001
0220
0330
,
1000
0100
0010
0001
2000
3000
0002
0003
,
0100
0001
0100
0010
2000
3000
0002
0003
,
1000
0001
0010
0100
1000
0010
1000
0010
,
0100
0001
0100
0001
0220
0000
0330
0000
,
1000
0100
0001
0100
2000
3000
0002
0003
,
0001
0100
1000
0100
0002
0003
2000
3000
,
0100
0001
0010
0001
0101
0000
2000
0000
,
3020
0230
0302
0023
,
0230
2300
3001
0200
,
0302
0023
0230
2300
,
3020
0230
0301
0101
,
0100
1100
1000
1010
,
0010
0011
1001
0002
,
0023
0230
2300
3020
,
0230
0302
1003
1000
,
1001
0001
1001
0100
,
0110
0010
0110
0100
,
0110
0010
2002
0000
,
0000
0000
3003
0000
,
0110
0000
0000
0000
;

//--------------- dance-single - DJSuperNOVA ----------------
#NOTES:
     dance-single:
     DJSuperNOVA:
     Hard:
     13:
     0,0,0,0,0:
0000
0000
0000
0000
,
0000
0000
0000
0000
,
0000
0000
0000
0000
,
0000
0000
0000
0000
,
0000
0000
0000
0000
,
0001
1000
1000
0010
0100
0010
0010
1000
,
0100
1000
0010
0100
0100
0001
0001
0000
,
0010
0100
0100
0001
1000
0010
0010
1000
,
0001
1000
0010
1000
0001
1000
0010
1000
,
0001
1000
0001
0100
0010
1000
1000
0010
,
0100
0001
1000
0100
0010
0001
1001
0000
,
0010
0100
0001
1000
0010
0100
0001
0010
,
0100
0010
0100
0010
0100
1000
1000
0000
,
0011
1010
1100
0101
,
0010
1000
0100
0001
0100
1000
0010
0000
,
1010
0011
0101
1100
,
0010
0001
0100
1000
0100
0001
0010
0000
,
1100
0101
0011
1010
,
0001
1000
0100
0010
0001
1000
0001
0000
,
1010
0011
0101
1100
,
1000
0100
0001
0100
1000
0010
0001
0010
,
1000
0100
0001
0100
1000
0010
0001
0010
,
1000
0000
0100
0000
0001
0000
0100
0000
1000
0000
0000
1000
0100
0000
0000
0100
,
0001
0000
0000
0001
0100
0000
0000
0100
1000
0000
0000
1000
0010
0000
0000
0010
,
0001
0000
0000
0001
0010
0000
1000
0000
0000
0000
0000
0000
0000
0000
0000
0000
,
2002
0000
3003
0000
1000
0100
0001
0200
,
1000
0000
0301
0000
0001
0100
1000
0200
,
0001
0000
1300
0000
1000
0100
0001
0100
,
1000
0010
0001
0010
0100
1000
0001
0100
,
2002
0000
3003
0000
1000
0100
0010
0200
,
1000
0000
0310
0000
0100
0001
1000
0200
,
0001
0000
1300
0000
0100
0001
0010
0100
,
1000
0010
0100
0001
1010
0000
0101
0000
,
2002
0000
3003
0000
0001
0100
1000
0200
,
0001
0000
1300
0000
0001
1000
0010
0200
,
1000
0000
0301
0000
1000
0001
0100
1000
,
0100
0001
0100
0010
1000
0010
0001
0100
,
2002
0000
3003
0000
1000
0001
0010
0200
,
1000
0000
0301
0000
0001
1000
0010
0200
,
0001
0000
1300
0000
1000
0100
1000
0010
,
0100
0001
0100
1000
0010
0000
0110
0000
,
1001
0100
0100
0001
1000
0001
0001
0100
,
0010
1000
0001
0100
0100
0010
0010
0000
,
0010
0100
1000
0001
0100
0010
0010
0100
,
0001
1000
0001
0100
0001
1000
0001
0100
,
1000
0100
0010
0100
0001
0100
1000
0100
,
0010
0100
0001
0100
0010
0100
1000
0000
,
0001
0100
0001
0001
0100
1000
0010
0010
,
0100
0001
1000
1000
0010
1000
0100
0100
,
0001
1000
0010
0010
0001
0100
0010
0010
,
0100
0010
1000
1000
0201
0001
1000
1000
,
0001
0001
1000
1000
0001
1000
0001
1000
,
0301
1001
0000
0000
,
0000
0000
2002
3003
,
1000
0100
0001
0200
1000
0000
0301
0000
,
0001
0100
1000
0200
0001
0000
1300
0000
,
1000
0100
0001
0100
1000
0010
0001
0010
,
0100
1000
0001
0100
2002
0000
3003
0000
,
1000
0100
0010
0200
1000
0000
0310
0000
,
0100
0001
1000
0200
0001
0000
1300
0000
,
0100
0001
0010
0100
1000
0010
0100
0001
,
1010
0101
2002
3003
,
0001
0100
1000
0200
0001
0000
1300
0000
,
0001
1000
0010
0200
1000
0000
0301
0000
,
1000
0001
0100
1000
0100
0001
0100
0010
,
1000
0010
0001
0100
2002
0000
3003
0000
,
1000
0001
0010
0200
1000
0000
0301
0000
,
0001
1000
0010
0200
0001
0000
1300
0000
,
1000
0100
0001
0100
2002
3003
2000
0000
,
0200
3000
0020
0300
0002
0030
2000
3003
,
0001
1000
0001
1000
0001
1000
0001
1000
0001
0000
0000
0000
2000
0000
0000
0000
,
0020
3000
0200
0030
0002
0300
2000
3003
,
0001
1000
0001
1000
0001
1000
0001
1000
0101
0000
0000
0000
1100
0000
0000
0000
,
0101
1100
0011
1010
,
0011
0000
1010
0000
1001
0000
0001
1000
,
0010
1000
0100
1000
0001
1000
0100
1000
,
0010
0000
1000
0000
0001
0000
1000
0000
0110
0000
0000
0100
0010
0000
0000
0001
,
0100
0000
0000
0010
0100
0000
0000
1000
0010
0000
0000
0000
0100
0000
0000
0000
,
1010
0100
0011
0100
,
1010
0100
2002
0000
,
0000
0000
3003
0000
,
0110
0000
0000
0000
;
