#TITLE:Invitation;
#SUBTITLE:;
#ARTIST:Zeron;
#TITLETRANSLIT:;
#SUBTITLETRANSLIT:;
#ARTISTTRANSLIT:;
#GENRE:;
#CREDIT:DJSuperNOVA;
#MUSIC:Invitation.ogg;
#BANNER:Invitation.png;
#BACKGROUND:Invitation-bg.png;
#CDTITLE:;
#SAMPLESTART:92.205;
#SAMPLELENGTH:15.360;
#SELECTABLE:YES;
#OFFSET:-1.965;
#BPMS:0.000=125.000;
#STOPS:;
#BGCHANGES:;
#FGCHANGES:;

//--------------- dance-single - DJSuperNOVA ----------------
#NOTES:
     dance-single:
     DJSuperNOVA:
     Beginner:
     1:
     0,0,0,0,0:
0000
0000
0000
0000
,
0000
0000
0000
0000
,
1000
0000
0000
0000
,
0001
0000
0000
0000
,
1000
0000
0000
0000
,
1000
0000
0000
0000
,
0010
0000
0000
0000
,
0100
0000
0000
0000
,
0001
0000
0000
0000
,
1000
0000
0000
0000
,
0000
0000
0000
0000
,
0001
0000
0000
0000
,
1000
0000
0000
0000
,
0001
0000
0000
0000
,
0001
0000
0000
0000
,
0100
0000
0000
0000
,
0010
0000
0000
0000
,
0010
0000
0000
0000
,
0100
0000
0000
0000
,
1000
0000
0000
0000
,
1000
0000
0000
0000
,
0001
0000
0000
0000
,
0001
0000
0000
0000
,
0010
0000
0000
0000
,
0010
0000
0000
0000
,
0100
0000
0000
0000
,
0100
0000
0000
0000
,
1000
0000
0000
0000
,
0001
0000
0000
0000
,
1000
0000
0000
0000
,
0001
0000
0000
0000
,
0100
0000
0000
0000
,
0100
0000
0000
0000
,
0001
0000
0000
0000
,
1000
0000
0000
0000
,
0001
0000
0000
0000
,
1000
0000
0000
0000
,
0010
0000
0000
0000
,
0010
0000
0000
0000
,
0100
0000
0000
0000
,
0000
0000
0000
0000
,
0001
0000
0000
0000
,
0000
0000
0000
0000
,
1000
0000
0000
0000
,
0000
0000
0000
0000
,
0001
0000
0000
0000
,
0100
0000
0100
0000
,
0100
0000
0000
0000
,
0001
0000
0000
0000
,
1000
0000
0000
0000
,
1000
0000
0000
0000
,
0001
0000
0000
0000
,
0001
0000
0000
0000
,
0010
0000
0000
0000
,
0010
0000
0000
0000
,
1000
0000
0000
0000
,
0100
0000
0000
0000
,
1000
0000
0000
0000
,
0100
0000
0000
0000
,
0001
0000
0000
0000
,
0100
0000
0000
0000
,
0001
0000
0000
0000
,
0100
0000
0000
0000
,
0010
0000
0000
0000
,
0010
0000
0010
0000
,
0020
0000
0000
0000
,
0000
0000
0000
0000
,
0030
0000
0000
0000
;

//--------------- dance-single - DJSuperNOVA ----------------
#NOTES:
     dance-single:
     DJSuperNOVA:
     Easy:
     2:
     0,0,0,0,0:
0000
0000
0000
0000
,
0000
0000
0000
0000
,
0010
0000
0000
0000
,
0100
0000
0000
0000
,
0001
0000
0000
0000
,
1000
0000
0000
0000
,
1000
0000
0100
0000
,
0010
0000
0001
0000
,
1000
0000
0000
0000
,
0001
0000
0000
0000
,
0000
0000
0000
0000
,
0010
0000
0000
0000
,
0100
0000
0000
0000
,
0010
0000
0010
0000
,
1000
0000
0000
0000
,
0001
0000
0000
0000
,
1000
0000
0000
0000
,
0100
0000
0010
0000
,
0001
0000
0000
0000
,
1000
0000
0000
0000
,
1000
0000
0000
0000
,
0001
0000
0000
0000
,
0001
0000
0000
0000
,
0010
0000
0010
0000
,
0100
0000
0100
0000
,
1000
0000
0000
0000
,
0001
0000
0000
0000
,
1001
0000
0000
0000
,
0010
0000
0000
0000
,
1001
0000
0000
0000
,
0100
0000
0000
0000
,
0001
0000
0001
0000
,
1000
0000
1000
0000
,
1001
0000
0000
0000
,
0100
0000
0000
0000
,
1001
0000
0000
0000
,
0010
0000
0000
0000
,
0001
0000
0001
0000
,
1000
0000
1000
0000
,
0020
0000
0000
0030
,
0200
0000
0000
0300
,
0002
0000
0000
0003
,
2000
0000
0000
3000
,
0002
0000
0000
0003
,
2000
0000
0000
3000
,
0200
0000
0000
0300
,
0010
0000
0010
0000
,
0001
0000
0000
0000
,
1000
0000
0000
0000
,
0010
0000
0010
0000
,
0010
0000
0000
0000
,
1000
0000
0000
0000
,
0001
0000
0000
0000
,
0100
0000
0100
0000
,
0100
0000
0000
0000
,
0001
0000
0000
0000
,
0100
0000
0000
0000
,
1000
0000
0100
0000
,
0001
0000
0000
0000
,
1000
0000
0000
0000
,
0001
0000
0000
0000
,
1000
0000
0100
0000
,
0001
0000
0000
0000
,
0010
0000
0010
0000
,
0100
0000
0100
0000
,
2002
0000
0000
0000
,
0000
0000
0000
0000
,
3003
0000
0000
0000
;

//--------------- dance-single - DJSuperNOVA ----------------
#NOTES:
     dance-single:
     DJSuperNOVA:
     Medium:
     4:
     0,0,0,0,0:
0000
0000
0000
0000
,
0000
0000
0000
0000
,
0010
0000
0000
0000
,
0100
0000
0000
0000
,
0001
0000
0001
0000
,
1000
0000
0000
0000
,
1000
0000
0100
0000
,
0010
0000
0001
0000
,
1000
0000
0000
0000
,
0001
0000
0000
0000
,
0000
0000
0000
0000
,
0010
0000
0000
0000
,
0100
0000
0000
0000
,
0001
0000
0001
0000
,
1000
0000
0000
0000
,
0010
0000
0000
0000
,
1000
0000
0000
0000
,
0001
0000
0100
0000
,
1000
0000
0000
0000
,
0001
0001
0001
0000
,
1000
1000
1000
0000
,
0010
0000
0100
0000
,
1000
1000
1000
0000
,
0010
0010
0100
0100
,
0001
1000
0001
0000
,
1000
0000
0001
0000
,
1000
0100
0010
0001
,
1000
0000
0000
0000
,
1000
0000
0000
0000
,
0001
0000
0000
0000
,
0001
0000
0000
0000
,
0001
0100
0010
0010
,
1000
0100
0010
0010
,
1000
0000
0000
0000
,
0100
0000
0000
0000
,
0001
0000
0000
0000
,
0100
0000
0000
0000
,
1000
0100
1000
0100
,
0001
0100
0001
0100
,
2000
3000
0200
0300
,
0020
0000
0000
0030
,
0002
0003
0200
0300
,
0020
0000
0000
0030
,
2000
3000
0002
0003
,
2000
0000
0000
3000
,
0020
0030
0200
0300
,
0010
0010
0010
0010
,
1001
0100
0000
0010
,
0001
0100
0000
0100
,
1000
0000
1000
0000
,
0001
0000
0000
0010
,
0001
0100
0000
0010
,
1000
0100
0000
1000
,
0100
0000
0001
0000
,
0100
0000
0000
0000
,
1000
0000
1000
0000
,
0001
0000
0001
0000
,
0010
0010
0010
0000
,
0100
0100
0100
0000
,
1000
0000
0100
0000
,
0001
0000
0100
0000
,
1000
1000
0001
0001
,
1000
0000
0001
0000
,
1001
0000
0100
0000
,
0010
0010
0100
0100
,
2002
0000
0000
0000
,
0000
0000
0000
0000
,
3003
0000
0000
0000
;

//--------------- dance-single - DJSuperNOVA ----------------
#NOTES:
     dance-single:
     DJSuperNOVA:
     Hard:
     5:
     0,0,0,0,0:
0000
0000
0000
0000
,
0000
1000
0100
0010
,
0001
1000
0000
0000
0000
0100
0010
0000
,
1000
0100
0000
0000
0000
0100
0010
0000
,
0001
0001
0010
0100
,
1000
0000
0000
0000
,
1000
0100
0010
0001
,
1000
0000
0100
0000
1000
0000
0000
0010
,
0001
0100
0010
1000
,
0001
0000
0000
0000
,
0000
1000
0100
0010
,
0001
1000
0000
0000
0000
0100
0010
0000
,
0001
1000
0000
0000
0000
0001
0100
0000
,
0010
1000
0100
0010
,
0001
0000
0000
0000
0000
1000
0100
0000
,
0010
0001
0000
0000
0000
0100
0010
0000
,
1000
0001
0000
0000
0000
0100
0010
0000
,
0001
0010
0100
1000
,
0001
0000
0000
0000
,
1000
0000
0000
1000
0000
0000
1000
0000
0000
0000
0000
0000
0000
0000
0000
0000
,
0001
0000
0000
0001
0000
0000
0001
0000
0000
0000
0000
0000
0000
0000
0000
0000
,
0100
0000
0000
0100
0000
0000
0100
0000
0000
0000
0000
0000
0000
0000
0000
0000
,
0010
0000
0000
0010
0000
0000
0010
0000
0000
0000
0000
0000
0000
0000
0000
0000
,
1000
0100
1000
0100
,
0010
0001
0010
0000
,
0001
0001
0100
0100
,
0110
1000
0100
0010
,
0001
1000
0000
0000
0000
0000
0000
0000
,
0010
1000
0000
0000
0000
0000
0000
0000
,
0001
0100
0000
0000
0000
0000
0000
0000
,
0010
0100
0000
0000
0000
0000
0000
0000
,
0001
0000
0000
1000
0000
0000
0001
0000
1000
0000
0000
0000
1000
0000
0000
0000
,
1000
0000
0000
0001
0000
0000
1000
0000
0001
0000
0000
0000
0001
0000
0000
0000
,
0010
0100
0000
0000
0000
0000
0000
0000
,
0010
1000
0000
0000
0000
0100
0010
0000
,
0001
0010
0000
0000
0000
0000
0000
0000
,
0100
1000
0000
0000
0000
0000
0000
0000
,
0010
0000
0000
0010
0000
0000
0010
0000
0100
0000
0000
0000
0010
0000
0000
0000
,
0100
0000
0000
0100
0000
0000
0100
0000
0010
0000
0000
0000
0100
0000
0000
0000
,
2000
3000
0020
0000
,
0200
0000
0000
0000
0330
0000
0001
0100
,
0002
0003
2000
0000
,
0002
0000
3003
0000
,
1000
0000
0000
0010
0000
0000
0000
0000
0000
0000
0000
0000
0010
0000
0000
0000
,
1000
0000
0000
0010
0000
0000
0000
0000
0000
0000
0000
0000
0010
0000
0000
0000
,
0100
0000
0000
0010
0000
0000
0000
0000
0000
0000
0000
0000
0010
0000
0000
0000
,
0100
0000
0000
0000
0100
0000
0000
0000
0010
0000
0000
0010
0000
0000
0001
0000
,
1000
0100
0000
0000
0000
0010
0001
0000
,
0001
0100
0000
0000
0000
0010
1000
0000
,
0100
0010
0001
0100
,
0010
0000
0000
0000
0000
1000
0100
0000
,
0010
0001
0000
0000
0000
0001
0010
0000
,
0100
1000
0000
0000
0000
0100
0010
0000
,
0001
1000
0010
0100
,
1001
0000
0000
0000
,
1000
0100
0001
0000
,
0001
0100
1000
0000
,
1000
0010
0001
1000
,
0001
0010
1000
0000
,
0001
1000
0001
1000
,
0010
0100
0010
0000
,
1000
0100
1000
0100
,
0001
0010
0100
1000
,
0001
0000
0000
0001
0000
0000
0001
0000
1000
0000
0000
1000
0000
0000
1000
0000
,
0010
0010
0010
0000
0100
0100
0100
0000
,
2002
0000
0000
0000
,
0000
0000
0000
0000
,
3003
0000
0000
0000
;

//--------------- dance-single - DJSuperNOVA ----------------
#NOTES:
     dance-single:
     DJSuperNOVA:
     Challenge:
     8:
     0,0,0,0,0:
0000
0000
0000
0000
,
0000
1000
0100
0010
,
0001
1000
0000
0000
0000
0100
0010
0001
,
0010
0100
0000
0000
0000
0100
1000
0100
,
0010
0100
0010
0100
0010
0001
0010
0100
,
0010
0000
0000
0000
,
1000
0000
0000
0100
0000
0000
0010
0000
0100
0000
0000
0010
0000
0000
0001
0000
,
1000
0000
0000
0100
0000
0000
0010
0000
0001
0000
0000
0000
0000
0000
1000
0000
,
0010
0100
0010
1000
0010
0100
0010
0100
,
0010
0000
0000
0000
,
0000
1000
0100
0010
,
0001
1000
0000
0000
0000
0001
0100
0010
,
1000
0001
0000
0000
0000
0100
1000
0100
,
0010
0100
0010
0100
0010
0001
0010
0100
,
0010
0000
0000
0000
0000
1000
0100
0010
,
0001
1000
0000
0000
0000
0100
0010
0001
,
1000
0100
0000
0000
0000
0001
0100
0010
,
1000
0010
0100
0001
0010
0100
1000
0100
,
0010
0000
0100
0100
,
1001
0000
0000
1000
0000
0000
1000
0000
0000
0000
0000
0000
0001
0000
0000
0000
,
0100
0000
0000
0100
0000
0000
0100
0000
0000
0000
0000
0000
0010
0000
0000
0000
,
1000
0100
1000
0000
0001
0100
0001
0000
,
1000
0000
0000
1000
0000
0000
1000
0000
0000
0000
0000
0000
0100
0000
0010
0000
,
0001
0100
0001
0010
0100
0010
0100
1000
,
0100
1000
0100
0010
0001
0000
0000
0000
,
1000
0100
0010
1000
0010
0100
1000
0001
,
1000
0100
0010
0001
,
0010
1000
0000
0000
0000
0000
0000
0000
,
0010
0100
0000
0000
0000
0000
0000
0000
,
0001
0100
0000
0000
0000
0000
0000
0000
,
0001
0010
0000
0000
0000
1000
0100
0010
,
0001
0000
0000
0001
0000
0000
0001
0000
0100
0000
0010
0000
1000
0000
0010
0000
,
1000
0000
0000
1000
0000
0000
1000
0000
0100
0000
0010
0000
0001
0000
0100
0000
,
0010
1000
0000
0000
0000
0000
0000
0000
,
0010
1000
0000
0000
0000
0100
0010
0001
,
0010
0100
0000
0000
0000
0000
0000
0000
,
0010
0100
0000
0000
0000
0000
0000
0000
,
1000
0000
0000
0100
0000
0000
0010
0000
0001
0000
0010
0000
0100
0000
0010
0000
,
1000
0000
0000
1000
0000
0000
1000
0000
0001
0000
0100
0000
0001
0000
0100
0000
,
0020
0000
2030
0000
,
3200
0000
0000
0000
0000
0000
0310
0001
,
0020
0000
0000
0000
0230
0000
0310
0100
,
2000
0000
0000
0000
0002
3003
1000
0100
,
0020
0000
0000
0001
0000
0000
0000
0000
0000
0000
0000
0000
0031
0000
0000
0000
,
0200
0000
0000
0010
0000
0000
0000
0000
0000
0000
0000
0000
0310
0000
0000
0000
,
2000
0000
0000
0100
0000
0000
0000
0000
0000
0000
0000
0000
3100
0000
0000
0000
,
1001
0000
0000
0000
1001
0000
0000
0000
0001
0000
0000
1000
0000
0000
0001
0000
,
0010
0100
0000
0000
0000
1000
0100
0010
,
0001
1000
0000
0000
0000
0100
1000
0100
,
0010
0100
0010
0100
0010
0001
0010
0100
,
0010
0000
0000
0000
0000
0100
0010
0001
,
1000
0100
0000
0000
0000
0100
1000
0010
,
0100
0001
0000
0000
0000
0100
0010
0001
,
1000
0100
0010
0001
0010
0100
1000
0100
,
1000
0000
0000
0000
,
0100
0000
1000
0000
0000
0000
0000
0010
0001
0000
0000
0000
0000
0000
0000
0100
,
0010
0000
0000
0000
0000
0000
0000
1000
0100
0000
0000
0100
1000
0000
0000
0000
,
0001
0010
0100
1000
0001
0100
0010
1000
,
0001
0100
0001
0010
0100
0010
0100
1000
,
0100
1000
0100
1000
0010
0100
0010
0100
,
0001
0000
0000
0100
0000
0000
1000
0000
0001
0000
0000
0010
0000
0000
1000
0000
,
0100
0010
0001
1000
0100
1000
0010
0100
,
1000
0010
0100
0001
1000
0100
0010
0001
,
1000
0000
0000
1000
0000
0000
1000
0000
0001
0000
0000
0001
0000
0000
0001
0000
,
0010
0010
0100
0100
0010
0100
0010
0100
,
2002
0000
0000
0000
,
0000
0000
0000
0000
,
3003
0000
0000
0000
;
