#TITLE:Identity;
#SUBTITLE:;
#ARTIST:SHK;
#TITLETRANSLIT:;
#SUBTITLETRANSLIT:;
#ARTISTTRANSLIT:;
#GENRE:;
#CREDIT:DJSuperNOVA;
#MUSIC:Identity.ogg;
#BANNER:Identity.png;
#BACKGROUND:Identity-bg.png;
#CDTITLE:;
#SAMPLESTART:41.054;
#SAMPLELENGTH:15.484;
#SELECTABLE:YES;
#OFFSET:0.752;
#BPMS:0.000=155.000
,35.000=310.000
,51.000=155.000
,83.000=310.000
,84.000=155.000
,252.000=77.500
,253.000=155.000
,254.000=310.000
,256.000=155.000
,352.000=77.500
,352.250=310.000
,352.750=77.500
,353.000=310.000
,353.500=77.500
,353.750=310.000
,354.250=77.500
,354.500=310.000
,355.000=77.500
,355.125=155.000
,355.250=310.000
,355.500=77.500
,355.625=155.000
,355.750=310.000
,356.000=155.000
;
#STOPS:83.000=0.194;
#DISPLAYBPM:155.000;
#BGCHANGES:;
#FGCHANGES:;

//--------------- dance-single - DJSuperNOVA ----------------
#NOTES:
     dance-single:
     DJSuperNOVA:
     Beginner:
     2:
     0,0,0,0,0:
0000
0000
0000
0000
,
0000
0000
0000
0000
,
0000
0000
0000
0000
,
0000
0000
0000
0000
,
0000
0000
0000
0000
,
0000
0000
0000
0000
,
0000
0000
0000
0000
,
0000
0000
0000
0000
,
0000
0000
0000
0000
,
0000
0000
0000
0000
,
0000
0000
0000
0000
,
0000
0000
0000
0000
,
0000
0000
0000
0000
,
1000
0000
0000
0000
,
0001
0000
0000
0000
,
1000
0000
0000
0000
,
0001
0000
0000
0000
,
0100
0000
0000
0000
,
0010
0000
0000
0000
,
0100
0000
0000
0000
,
0010
0000
0000
1001
,
1000
0000
0000
0000
,
0100
0000
0000
0000
,
0010
0000
0000
0000
,
0001
0000
0000
0000
,
1000
0000
0000
0000
,
0010
0000
0000
0000
,
0100
0000
0000
0000
,
0001
0000
0000
0000
,
1000
0000
1000
0000
,
0001
0000
0000
0000
,
0001
0000
0001
0000
,
1000
0000
0000
0000
,
0010
0000
0010
0000
,
0100
0000
0000
0000
,
0100
0000
0100
0000
,
0010
0000
0000
0000
,
2000
0000
0000
0000
,
0002
0000
0000
3003
,
1000
0000
0000
0000
,
0100
0000
0000
0000
,
0010
0000
0000
0000
,
0001
0000
0000
0000
,
0001
0000
0000
0000
,
0100
0000
0000
0000
,
0010
0000
0000
0000
,
1000
0000
0000
0000
,
0001
0000
0000
0000
,
0001
0000
0000
0000
,
1000
0000
0000
0000
,
1000
0000
0000
0000
,
0010
0000
0000
0000
,
0010
0000
0000
0000
,
0100
0000
0000
0000
,
0100
0000
0000
0000
,
1000
0000
1000
0000
,
0001
0000
0000
0000
,
0001
0000
0001
0000
,
0100
0000
0000
0000
,
0100
0000
0100
0000
,
0010
0000
0000
0000
,
0010
0000
0010
0000
,
1000
0000
0001
0000
,
1001
0000
0000
0000
,
0010
0000
0000
0000
,
0100
0000
0000
0000
,
1000
0000
0000
0000
,
0001
0000
0000
0000
,
1000
0000
0000
0000
,
0001
0000
0000
0000
,
0100
0000
0000
0000
,
0010
0000
0100
0000
,
0010
0000
0000
0000
,
1000
0000
0000
0000
,
0001
0000
0000
0000
,
1000
0000
0000
0000
,
0100
0000
0000
0000
,
0010
0000
0000
0000
,
0001
0000
0000
0000
,
1000
0000
0100
0000
,
1000
0000
0000
0000
,
0001
0000
0000
0000
,
0100
0000
0000
0000
,
0001
0000
0000
0000
,
0010
0000
0010
0000
,
0100
0000
0100
0000
,
0010
0000
0100
0000
,
0010
0000
0100
0000
,
1001
0000
0000
0000
,
1001
0000
0000
0000
;

//--------------- dance-single - DJSuperNOVA ----------------
#NOTES:
     dance-single:
     DJSuperNOVA:
     Easy:
     4:
     0,0,0,0,0:
0000
0000
0000
0000
,
0000
0000
0000
0000
,
0000
0000
0000
0000
,
0000
0000
0000
0000
,
0000
0000
0000
0000
,
0000
0000
0000
0000
,
0000
0000
0000
0000
,
0000
0000
0000
0000
,
0000
0000
0000
0000
,
0000
0000
0000
0000
,
0000
0000
0000
0000
,
0000
0000
0000
0000
,
0000
0000
0000
0000
,
1000
0000
0000
0000
,
0100
0000
0000
0000
,
0010
0000
0000
0000
,
0001
0000
0000
0000
,
1000
0000
1000
0000
,
0010
0000
0010
0000
,
0001
0000
0010
0000
,
0001
0000
0010
1001
,
0100
0000
0100
0000
,
1000
0000
1000
0000
,
0010
0000
0010
0000
,
0100
0000
0100
0000
,
1000
0000
0001
0000
,
1000
0000
0001
0000
,
0010
0000
0001
0000
,
1000
0100
0010
0001
,
1000
0000
0010
0001
,
0100
0000
0100
1000
,
1000
0000
0100
0001
,
1000
0000
0100
0001
,
1000
0000
0001
0000
,
0100
0000
0010
0000
,
1000
0100
0010
0000
,
0100
0010
1000
0001
,
2002
0000
0000
3003
,
1000
0001
1000
1001
,
1000
0000
1000
0000
,
0100
0000
0100
0000
,
0001
0000
0001
0000
,
0010
0000
0010
0000
,
1000
0000
0100
0000
,
1000
0000
0100
0000
,
0001
0000
0100
0000
,
0001
0000
0100
0000
,
1000
0000
0010
0000
,
0001
0000
0010
0000
,
1000
0000
0100
0000
,
0001
0000
0100
0000
,
1000
0000
1000
0000
,
0001
0000
0001
0000
,
0100
0000
0010
0000
,
0100
0000
1001
0000
,
1000
1000
1000
0000
,
0001
0001
0001
0000
,
0100
0100
0100
0000
,
0010
0010
0010
0000
,
1001
1000
1000
0000
,
1001
0001
0001
0000
,
0110
0010
0010
0000
,
0110
0100
0100
0000
,
1001
0000
0000
0000
,
1000
0000
0000
0010
,
0001
0000
0100
1000
,
0010
0000
0100
0001
,
0010
0000
1000
0000
,
0001
0000
0100
0010
,
1000
0000
0100
0000
,
0001
0000
0001
0100
,
1000
0000
1001
0000
,
1000
0000
0100
0010
,
0001
0000
0001
1000
,
0010
0000
0010
0100
,
1000
0000
0100
0000
,
1001
0000
0100
0010
,
0001
0000
0100
1000
,
0010
0000
0010
0010
,
0100
0000
1000
0000
,
1001
0000
0100
0000
,
0001
0000
0100
0000
,
1000
0000
0100
0000
,
0010
0000
0100
0000
,
0001
0000
1000
0000
,
0010
0000
0001
0000
,
0010
0000
0100
0000
,
1000
0000
0001
0000
,
1001
0000
0000
0000
,
1001
0000
0000
0000
;

//--------------- dance-single - DJSuperNOVA ----------------
#NOTES:
     dance-single:
     DJSuperNOVA:
     Medium:
     7:
     0,0,0,0,0:
0000
0000
0000
0000
,
0000
0000
0000
0000
,
0000
0000
0000
0000
,
0000
0000
0000
0000
,
0000
0000
0000
0000
,
0000
0000
0000
0000
,
0000
0000
0000
0000
,
0000
0000
0000
0000
,
0000
0000
0000
0000
,
0000
0000
0000
0000
,
0000
0000
0000
0000
,
0000
0000
0000
0000
,
0000
0000
0000
0000
,
1000
1000
1000
1000
,
0001
0001
0001
0001
,
0100
0100
0100
0100
,
0010
0010
0010
0010
,
1000
0100
1000
0100
,
0010
0001
0010
0001
,
1000
0010
0001
0010
,
1000
0100
0001
1001
,
1000
0000
0100
0000
0010
0000
0100
0010
,
0001
0000
0100
0000
0010
0000
0100
0010
,
1000
0000
0100
0000
1000
0000
0001
0010
,
0100
0000
0010
0000
1000
0000
0100
0010
,
0001
0000
0100
0000
0010
0000
1000
0100
,
1000
0000
0010
0000
0100
0000
0001
0100
,
0001
0000
0010
0000
0100
0100
0100
0000
,
0010
0000
1000
0000
0010
0010
0010
0000
,
1001
0000
0100
0000
0010
0000
0001
0100
,
1000
0000
0100
0000
0010
0000
1000
0100
,
0001
0000
0100
0000
0010
0000
1000
0010
,
1000
0000
0100
0000
0010
0000
0001
0010
,
0001
1000
0010
0100
,
0001
0100
0010
1000
,
0100
0000
0010
0000
0100
0010
0100
0000
,
0001
0000
1000
0000
0100
0010
0100
0000
,
2000
3200
0320
0032
,
1000
0000
1003
0000
1000
0100
0010
0001
,
1000
1000
1000
1000
,
0001
0001
0001
0001
,
0100
0100
0100
0100
,
0010
0010
0010
0010
,
1001
0100
0010
0100
,
0010
0001
0010
0001
,
1000
0100
1000
0100
,
0010
0100
0010
0100
,
1000
0100
0010
0100
0000
0010
0100
0001
,
0000
0100
1000
0010
0000
1000
0010
1000
,
0000
0100
0001
0010
0000
0100
0010
1000
,
0000
0010
1000
0100
0000
0001
0010
1000
,
0000
0010
1000
0100
0000
0001
0010
0100
,
0000
0010
1000
0100
0000
0010
0100
0010
,
0000
0100
0010
0100
0000
1000
0001
1000
,
0000
0001
0100
0001
0000
1000
0010
1000
,
0100
0010
0001
0101
,
0010
1000
0001
0110
,
0010
1000
0100
1001
,
0100
0010
1000
0110
,
0100
0100
0001
0101
,
1000
0010
0100
0011
,
1000
0100
1000
0110
,
0001
0100
0010
0100
,
1001
0000
0000
0000
,
1000
0000
0100
0010
,
0110
0000
0001
0100
,
0110
0000
1000
0001
,
1001
0000
0001
0100
,
1010
0000
1000
0010
,
0101
0000
0001
0010
,
0011
0000
1000
0100
,
1100
0001
0100
0010
,
0110
0000
1000
0000
0100
0000
0010
0001
,
0100
0000
0010
0000
1000
0000
0100
1000
,
0100
0000
0010
0000
0100
0000
0010
0001
,
0010
0000
0100
0000
0010
0000
0100
1000
,
1001
0000
0100
0000
0010
0000
0100
0010
,
0100
0000
0001
0000
0010
0000
0100
0010
,
1000
0000
0001
0000
0100
0000
0010
0100
,
0010
0001
1000
0100
,
1010
0100
0010
0001
,
0101
0010
0100
1000
,
1100
0100
0010
0001
,
0011
0001
0010
0100
,
1010
0000
1000
0000
0010
0000
0100
0001
,
0010
0000
1000
0000
0010
0000
0100
0010
,
0110
0000
0001
0000
1000
0000
0010
1000
,
1010
0000
0100
0000
0001
0000
0100
0010
,
0001
0000
0000
1000
0000
0000
0001
0000
0000
1000
0000
0000
0001
0000
1000
0000
,
1001
0000
0000
0000
;

//--------------- dance-single - DJSuperNOVA ----------------
#NOTES:
     dance-single:
     DJSuperNOVA:
     Hard:
     13:
     0,0,0,0,0:
0000
0000
0000
0000
0000
0000
0000
1000
,
0000
0100
0000
0010
0000
0001
0000
0100
,
0000
0001
0000
0010
0000
0100
0000
1000
,
0000
0100
0000
1000
0000
0010
0000
0001
,
0000
0010
0000
0001
0000
1000
0000
0100
,
0000
0001
0000
0100
0000
1000
0000
0010
,
0000
0001
0000
0010
0000
1000
0000
1000
,
0000
0001
0000
0001
0000
1000
0000
0100
,
0000
0010
0000
1001
0000
0200
0000
0000
,
0000
0000
0000
0000
,
0000
0000
0000
0000
,
0000
0000
0000
0000
,
0000
0000
0000
0000
,
0301
0100
0000
0100
0000
0100
0000
0100
,
0010
1000
0000
1000
0000
1000
0000
1000
,
0001
0010
0000
0010
0000
0010
0000
0010
,
0100
0001
0000
0001
0000
0001
0000
0001
,
0100
0010
0000
1000
0000
0010
0000
0100
,
0010
0001
0000
1000
0000
0010
0000
0100
,
0010
0001
0000
0100
0000
0010
0000
1000
,
0100
1000
0000
0010
0000
0100
0110
0000
,
1000
0010
1000
0100
1000
0010
0100
0001
,
0010
0001
0100
0001
0010
0001
0010
0100
,
1000
0010
1000
0100
1000
0010
1000
0100
,
0010
0100
0001
0100
0010
0100
0001
0100
,
0010
0100
0001
0100
0010
0100
1000
0100
,
0001
0100
1000
0010
0100
0001
1000
0100
,
1000
0001
0100
0010
1000
0100
1000
0010
,
0100
0001
0010
0001
0100
0010
1000
0100
,
2000
0000
3020
0000
0230
0000
0301
0100
,
0020
0000
2030
0000
3200
0000
1300
0010
,
0200
0000
0302
0000
0023
0000
0031
0100
,
0020
0000
0230
0000
0302
0000
1003
0010
,
0200
0000
0302
0000
2003
0000
3010
0100
,
0002
0000
0203
0000
2300
0000
3010
0100
,
0020
0000
2030
0000
3200
0000
0301
0010
,
1010
0000
0001
0100
1100
0000
1000
0010
,
0002
2003
3020
0230
,
0310
0100
0010
0100
0001
1000
0001
1000
,
0001
0100
0010
0100
0001
0100
0010
0100
,
0010
1000
0100
1000
0010
1000
0100
1000
,
0001
1000
0010
1000
0001
1000
0010
1000
,
0100
0001
0100
0010
0100
0001
0100
0010
,
1000
0001
0100
0010
1000
0001
0100
0010
,
0001
0100
0010
1000
0001
0100
0010
1000
,
0001
0010
0100
1000
0001
0100
0010
1000
,
0001
0100
0010
0001
1000
0010
0100
0001
,
2000
0010
0000
0100
0000
0001
0000
0100
,
0000
0010
0000
0100
0000
0001
0000
3100
,
0020
1000
0000
0100
0000
0001
0000
0100
,
0000
0001
0000
1000
0000
0100
0000
1030
,
0002
0100
0000
1000
0000
0010
0000
0100
,
0000
1000
0000
0100
0000
1000
0000
0103
,
0020
0001
0000
0100
0000
1000
0000
0100
,
0000
0001
0000
0100
0000
0001
0000
1030
,
0001
0100
0001
0100
0010
0100
0010
0100
,
1000
0010
1000
0010
0100
0010
0100
0010
,
1000
0001
1000
0001
0100
0001
0100
0001
,
1000
0001
1000
0001
1000
0010
1000
0010
,
0100
0001
0100
0010
1000
0010
0100
0001
,
1000
0010
1000
0001
0100
0001
1000
0010
,
1000
0100
1000
0001
0100
0001
1000
0010
,
1000
0001
0010
0001
1000
0100
0010
0001
,
1001
0000
2000
0000
,
3001
1001
0000
0000
0100
0000
0010
0001
,
0201
0000
0320
2030
,
3001
1001
0000
0000
0020
0000
0130
1000
,
1020
0000
0000
0000
0000
0000
0000
0000
0130
0000
0000
0100
0000
0000
0100
0000
,
1001
1001
0000
0000
0200
0000
0310
0001
,
0101
0000
0000
0000
0020
0000
1030
0010
,
2010
0000
0000
0000
3200
0000
0310
0001
,
0102
0000
0000
0000
0000
0003
0100
0010
0200
0000
0000
0000
0000
0000
0000
0000
,
1300
0010
1000
0100
1000
0010
0100
0001
,
0010
0001
0100
0001
0010
0001
0010
0100
,
1000
0010
1000
0100
1000
0010
1000
0100
,
0010
0100
0001
0100
0010
0100
0001
0100
,
0010
1000
0001
1000
0010
0100
1000
0100
,
0001
0100
1000
0010
0100
0001
0100
1000
,
0100
0010
0100
0010
1000
0100
1000
0010
,
0100
0001
0010
0001
0100
0010
1000
0100
,
0020
0000
0031
0200
0000
0310
1000
0100
,
0002
0000
0103
0020
0000
1030
0100
1000
,
0020
0000
0130
0002
0000
0013
0100
1000
,
0002
0000
0103
0020
0000
1030
0100
0010
,
0002
0000
1003
0200
0000
1300
0010
0100
,
0002
0000
1003
0020
0000
0130
0010
0100
,
2000
0000
3001
0200
0000
0310
1000
0100
,
0020
0000
0031
0200
0000
0310
0100
0010
,
0001
0000
0000
0010
0000
0000
0100
0000
0000
1000
0000
0000
0001
0000
1000
0000
,
2002
0000
0000
0000
,
3003
0000
0000
0000
;

//--------------- dance-single - DJSuperNOVA ----------------
#NOTES:
     dance-single:
     DJSuperNOVA:
     Challenge:
     18:
     0,0,0,0,0:
0000
0000
0000
0000
0000
0000
0000
0100
,
1000
0100
0010
1000
0010
1000
0010
0100
,
0001
0100
0001
0100
0010
0100
0010
1000
,
0010
1000
0100
0010
0100
0010
0001
0010
,
0001
0010
0100
0001
0100
0001
1000
0010
,
1000
0010
0100
0010
0100
0010
0001
0010
,
0001
1000
0001
1000
0001
0100
0001
0100
,
0001
0100
0000
0100
0010
0000
1000
0000
0100
0010
0001
0000
0100
0000
0001
1000
,
0010
0100
0010
0000
1000
0100
0010
0001
1000
0000
0220
0000
0000
0000
0000
0000
,
0000
0000
0000
0000
,
0000
0000
0000
0000
,
0000
0000
0000
0000
,
0000
0000
0000
0330
,
0001
0200
0010
0000
0310
1000
0001
0000
,
1000
0002
0100
0000
0103
1000
0010
0000
,
1000
0200
0010
0000
0301
1000
0100
0000
,
0010
0002
0100
0000
1003
0100
0010
0000
,
0100
2000
0010
0000
3010
0100
0001
0000
,
1000
0020
0100
0000
1030
0100
0001
0000
,
1000
0001
0100
0010
1000
0001
0100
0010
1000
0100
0010
0001
1000
0100
0010
0001
,
0100
0010
1000
0100
1000
0010
0100
0001
0010
0001
1000
0100
0010
0000
0000
0000
,
0110
0100
0001
0100
0010
1000
0100
1000
,
0010
0001
0100
0001
0100
1000
0100
0001
,
0010
0001
1000
0010
0001
0100
0010
1000
,
0100
0001
0100
0010
1000
0010
0001
0100
,
1000
0100
0001
0010
0001
0100
1000
0100
,
1000
0010
0001
0100
0001
0010
1000
0100
,
0001
0000
1000
0000
0100
0000
0010
1000
0100
1000
0001
0000
0101
0000
1000
0100
,
0001
0000
0001
0000
0010
1000
0100
0001
1000
0000
0001
0100
1000
0100
0001
1000
,
0002
0203
0320
2030
3200
0320
0032
0203
,
0302
0003
0200
0000
2300
0000
3200
0000
0302
0000
0023
0000
2030
0000
3020
0000
,
0230
0302
2003
3020
0032
0203
2300
3020
,
0230
0302
2003
3200
0302
0203
2300
3020
,
0032
0203
2300
3002
0023
2030
3002
0203
,
2300
0000
3200
0000
0302
0000
2003
0000
3020
0000
0032
0003
2000
0000
3200
0000
,
0302
0023
0230
2300
3020
0230
0302
2003
,
3010
0000
0100
0010
1000
0010
0000
0100
0010
0000
0010
0001
0010
0100
1000
0100
,
0010
0001
0010
0001
0010
0001
0010
0001
1000
0100
1000
0100
2000
0000
0000
0000
,
0001
0000
0001
0000
0001
0000
3001
0000
0001
0100
0001
0100
0010
1000
0010
1000
,
0100
0010
1000
0100
1000
0010
1000
0100
0010
0001
0100
0001
1000
0001
0010
0100
,
0010
0100
1000
0001
0010
0100
1000
0010
1000
0010
0100
0001
1000
0010
0100
0001
,
0010
0100
1000
0100
1000
0010
0100
0001
1000
0010
0100
0001
1000
0010
0100
0001
,
0010
0100
0010
0100
1000
0001
0010
0001
0010
0001
0100
0010
1000
0100
1000
0001
,
0010
0100
1000
0001
0010
0100
1000
0010
0100
0010
0100
0010
1000
0100
0010
0001
,
0100
0010
0100
0001
1000
0100
0010
0001
0010
0100
0010
0001
1000
0010
0100
0001
,
0010
0100
0010
0001
1000
0001
0010
0100
1000
0010
1000
0100
1000
0010
0100
0001
,
0010
0100
0010
0001
0100
0010
1000
0100
0010
0100
0010
0001
0100
0001
0010
0100
,
2000
0020
3000
0200
0030
0002
0300
2000
,
0003
0020
3000
0200
0030
2000
0300
0200
,
3000
0020
0300
0200
0030
0020
0300
0002
,
0030
2000
0003
0002
3000
0200
0003
0020
,
0300
2000
0030
0200
3000
0002
0300
0200
,
0003
0020
0300
2000
0030
0200
3000
0020
,
0300
0002
0030
0200
0003
0002
0300
2000
,
0003
0020
3000
0200
0030
0002
0300
2003
,
3001
0100
0001
0100
0010
1000
0001
0100
1000
0010
0100
0010
0001
1000
0100
1000
,
0010
0100
0001
0010
1000
0100
0001
0010
0001
1000
0100
0010
0100
1000
0001
0100
,
0010
1000
0100
0001
0100
1000
0010
0001
0100
0010
1000
0001
0010
1000
0010
0001
,
0100
1000
0100
0010
0100
0001
1000
0010
0100
0001
0010
0001
1000
0100
1000
0010
,
0100
0001
1000
0100
1000
0001
0010
0100
1000
0100
1000
0010
0100
0001
0010
0100
,
1000
0001
0010
0001
0100
0010
0100
0010
1000
0100
1000
0010
0100
0001
0010
0001
,
1000
0010
1000
0010
0100
0001
1000
0010
0100
0001
0010
0100
1000
0100
0010
0100
,
1000
0001
1000
0001
0100
0010
0100
0010
1000
0001
1000
0001
0100
0010
0100
0010
,
0200
0000
0320
0000
,
0130
0201
0000
0000
0320
0000
0031
0100
,
2100
0000
3020
0230
,
0301
0000
0102
0000
0000
0000
0000
0000
0023
0000
0000
1030
0100
0000
1000
0000
,
1200
0000
0000
0000
0000
0000
0000
0000
0310
0000
0001
0100
0000
0010
0100
0000
,
0110
0120
1000
0100
2030
0001
3100
0010
,
0012
0000
0000
0000
0000
0000
0000
0000
0203
0000
0000
0310
1000
0000
0010
0000
,
1020
0000
0000
0000
0000
0000
0000
0000
0230
0000
0000
0301
1000
0000
0100
0000
,
0102
0000
0000
0000
0000
0003
1000
0001
2000
0000
0000
0000
0000
0000
0000
0000
,
3010
0100
0001
0100
0010
1000
0100
1000
,
0010
0001
0100
0001
0100
1000
0100
0001
,
0010
0001
1000
0010
0001
0100
0010
1000
,
0100
0001
0100
0010
1000
0010
0001
0100
,
1000
0100
0001
0010
0001
0100
1000
0100
,
1000
0010
0001
0100
0001
0010
1000
0100
,
0001
1000
0100
0010
0100
0001
0100
1000
,
0001
1000
0010
0100
1000
0001
1000
0100
,
0010
0001
0100
0010
0001
0010
0100
0000
0010
0100
1000
0010
0100
0010
1000
0000
,
0010
1000
0001
1000
0100
0010
0001
0000
0100
0010
1000
0010
0100
1000
0001
0000
,
0010
0100
0001
0100
1000
0100
0010
0000
0001
1000
0100
0010
0001
0100
1000
0000
,
0100
0010
0001
0010
0100
0001
0010
0000
1000
0010
0100
1000
0001
0010
0100
0000
,
1000
0010
0100
0010
0001
0100
0010
0000
0001
0010
0100
1000
0010
1000
0100
0000
,
1000
0100
0010
0001
0010
0001
0100
0000
0001
0100
0010
0100
1000
0010
0100
0000
,
0001
0010
1000
0010
0100
1000
0010
0100
0010
1000
0001
0100
0001
0010
1000
0000
,
0001
0100
0010
1000
0010
1000
0100
0001
0100
0001
0010
0100
1000
0100
0010
0001
,
0010
0000
0000
0110
0000
0000
1100
0000
0000
1010
0000
0000
0110
0000
0101
0000
,
2002
0000
0000
0000
,
3003
0000
0000
0000
;
