#TITLE:Identity Part 5;
#SUBTITLE:;
#ARTIST:SHK;
#TITLETRANSLIT:;
#SUBTITLETRANSLIT:;
#ARTISTTRANSLIT:;
#GENRE:;
#CREDIT:DJSuperNOVA;
#MUSIC:Identity Part 5.ogg;
#BANNER:Identity Part 5.png;
#BACKGROUND:Identity Part 5-bg.png;
#CDTITLE:;
#SAMPLESTART:15.030;
#SAMPLELENGTH:27.429;
#SELECTABLE:YES;
#OFFSET:-0.030;
#BPMS:0.000=140.000
,131.000=70.000
,131.063=140.000
,131.125=280.000
,131.250=70.000
,131.313=140.000
,131.375=280.000
,131.500=70.000
,131.563=140.000
,131.625=280.000
,131.750=70.000
,131.813=140.000
,131.875=280.000
,132.000=70.000
,132.500=140.000
,133.000=280.000
,134.000=70.000
,134.125=140.000
,134.250=280.000
,134.500=140.000
,136.000=70.000
,136.250=280.000
,136.750=70.000
,137.000=280.000
,137.500=70.000
,137.625=140.000
,137.750=280.000
,138.000=140.000
,140.000=70.000
,140.500=140.000
,141.000=280.000
,142.000=70.000
,142.125=140.000
,142.250=280.000
,142.500=140.000
,144.000=70.000
,144.250=280.000
,144.750=70.000
,145.000=280.000
,145.500=140.000
,146.000=70.000
,146.250=140.000
,146.500=280.000
,147.000=70.000
,147.063=140.000
,147.125=280.000
,147.250=70.000
,147.313=140.000
,147.375=280.000
,147.500=70.000
,147.563=140.000
,147.625=280.000
,147.750=70.000
,147.813=140.000
,147.875=280.000
,148.000=70.000
,148.500=140.000
,149.000=280.000
,150.000=70.000
,150.125=140.000
,150.250=280.000
,150.500=140.000
,152.000=70.000
,152.250=280.000
,152.750=70.000
,153.000=280.000
,153.500=70.000
,153.625=140.000
,153.750=280.000
,154.000=140.000
,156.000=70.000
,156.500=140.000
,157.000=280.000
,158.000=70.000
,158.125=140.000
,158.250=280.000
,158.500=140.000
,160.000=70.000
,160.250=280.000
,160.750=70.000
,161.000=280.000
,161.500=70.000
,161.625=140.000
,161.750=280.000
,162.000=70.000
,162.063=140.000
,162.125=280.000
,162.250=70.000
,162.313=140.000
,162.375=280.000
,162.500=70.000
,162.563=140.000
,162.625=280.000
,162.750=70.000
,162.813=140.000
,162.875=280.000
,163.000=70.000
,163.125=140.000
,163.250=280.000
,163.500=70.000
,163.625=140.000
,163.750=280.000
,164.000=140.000
;
#STOPS:;
#DISPLAYBPM:140.000;
#BGCHANGES:;
#FGCHANGES:;

//--------------- dance-single - DJSuperNOVA ----------------
#NOTES:
     dance-single:
     DJSuperNOVA:
     Beginner:
     2:
     0,0,0,0,0:
0000
0000
0000
0000
,
1000
0000
0000
0000
,
0001
0000
0000
0000
,
1000
0000
0000
0000
,
0001
0000
0000
0000
,
0100
0000
0000
0000
,
0100
0000
0000
0000
,
0010
0000
0000
0000
,
0010
0000
0000
0000
,
1001
0000
0000
0000
,
1000
0000
0000
0000
,
1000
0000
0000
0000
,
1000
0000
0000
0000
,
0100
0000
0000
0000
,
0010
0000
0000
0000
,
0010
0000
0000
0000
,
1001
0000
0000
0000
,
0001
0000
0000
0000
,
0010
0000
0000
0000
,
0001
0000
0000
0000
,
0010
0000
0000
0000
,
0100
0000
0000
0000
,
1000
0000
0000
0000
,
0100
0000
0000
0000
,
1000
0000
0000
0000
,
0020
0000
0000
0030
,
0200
0000
0000
0300
,
0002
0000
0000
0003
,
2000
0000
0000
3000
,
0002
0000
0000
0003
,
2000
0000
0000
3000
,
0020
0000
0000
0030
,
0200
0000
0300
0000
,
1001
0000
0000
0000
,
0110
0000
0000
0000
,
1001
0000
0000
0000
,
0110
0000
0000
0000
,
1001
0000
0000
0000
,
0110
0000
0000
0000
,
0011
0000
0000
0000
,
1100
0000
0000
0000
,
1000
0000
0000
0000
,
0010
0000
0000
0000
,
1000
0000
1000
0000
,
0001
0000
0001
0000
,
1001
0000
0000
0000
,
0001
0000
0000
0000
,
0100
0000
0100
0000
,
0001
0000
0001
0000
,
1001
0000
0000
0000
,
1000
0000
0000
0000
,
1000
0000
0000
0000
,
1000
0000
0000
0000
,
0001
0000
0000
0000
,
0001
0000
0000
0000
,
0001
0000
0000
0000
,
0100
0000
0010
0000
,
0100
0000
0000
0000
,
0100
0000
0000
0000
,
0010
0000
0000
0000
,
0010
0000
0010
0000
,
1001
0000
0000
0000
,
0100
0000
0000
0000
,
0010
0000
0000
0000
,
0001
0000
0000
0000
,
1000
0000
0000
0000
,
0001
0000
0000
0000
,
0010
0000
0100
0000
,
0010
0000
0220
0330
,
1000
0000
0001
0000
,
1000
0000
0001
0000
,
0100
0000
0010
0000
,
0100
0000
0010
0000
,
2002
0000
0000
0000
,
0000
0000
0000
0000
,
3003
0000
0000
0000
;

//--------------- dance-single - DJSuperNOVA ----------------
#NOTES:
     dance-single:
     DJSuperNOVA:
     Easy:
     4:
     0,0,0,0,0:
0000
0000
0000
0100
,
0010
0000
0000
0010
0000
0000
0000
0000
,
0100
0000
0000
0100
0000
0000
0000
0000
,
0001
0000
0000
0001
0000
0000
0000
0000
,
1000
0000
0000
1000
0000
0000
0000
0000
,
1000
0000
1000
0000
,
0001
0000
0001
0000
,
0100
0000
0010
0000
,
1000
0100
0010
0001
,
1000
0000
1000
0000
,
0010
0000
0010
0000
,
0100
0000
0100
0000
,
0001
0010
0001
0000
,
1000
0000
1000
0000
,
0001
0000
0001
0000
,
0100
0000
0100
0000
,
0010
1000
0100
0000
,
1000
0001
1000
0000
,
0010
0100
0010
0000
,
1000
0100
1000
0000
,
0001
0100
0001
0000
,
1000
1000
0010
0000
,
0001
0001
0010
0000
,
0100
0100
0010
0000
,
0001
0001
1000
1000
,
1001
0000
0001
0000
,
1000
0000
0100
0000
,
0010
0000
1000
0000
,
0001
0000
1000
0100
,
0001
0000
0001
0100
,
1000
0000
1000
0000
,
0010
0000
0100
0000
,
0001
1000
0001
1001
,
0110
0000
1000
0001
,
1001
0000
0110
0000
,
1001
0000
1000
0100
,
0001
0000
1000
0000
,
1001
0000
0110
0000
,
1000
0000
0001
0000
,
0010
0000
0100
0000
,
0001
0000
1001
0000
,
0100
0000
0100
0000
,
0010
0000
0010
0000
,
1000
0100
0010
0001
,
1000
0100
1000
0000
,
0010
0000
1000
0000
,
0001
0000
0100
0000
,
0001
0010
0100
1000
,
0001
0100
0001
0000
,
1000
0000
0000
0000
,
0001
0000
0000
0000
,
1000
0000
0100
0000
,
0001
0000
0100
0000
,
1000
0000
1000
0000
,
0001
0000
0001
0000
,
0010
0000
0010
0000
,
0100
0100
0100
0110
,
1000
0000
0001
0000
,
1000
0000
0001
0000
,
1000
1000
0001
0001
,
1000
0100
0010
0000
,
1000
1000
0001
0000
,
0001
0001
0100
0000
,
0100
0100
0010
0000
,
1000
0001
1000
1001
,
0001
0000
1000
0000
,
0001
0000
1000
0000
,
0100
0100
0010
0010
,
0100
0010
0110
0000
,
1000
0001
1001
0000
,
0001
1000
1001
0000
,
1000
0100
0001
0100
,
1000
1000
0001
0001
,
2002
0000
0000
0000
,
0000
0000
0000
3003
,
0110
0000
0000
0000
;

//--------------- dance-single - DJSuperNOVA ----------------
#NOTES:
     dance-single:
     DJSuperNOVA:
     Medium:
     6:
     0,0,0,0,0:
0000
0000
0000
1000
,
0001
0000
0000
0010
0000
0000
0100
0000
,
0001
0000
0000
0100
0000
0000
0001
0000
,
0010
0000
0000
0100
0000
0000
1000
0000
,
0010
0000
0000
1000
0000
0000
0100
0000
,
0010
0000
0000
0100
0000
0000
1000
0000
,
0001
0000
0000
0100
0000
0000
0001
0000
,
0100
0000
0000
1000
0000
0000
0100
0000
,
1000
1000
0001
0001
,
1000
0100
1000
0100
,
0001
0100
0001
0100
,
0010
1000
0010
1000
,
0001
0010
0001
0010
,
1000
0100
0001
0100
,
1000
0010
0001
0010
,
1000
0100
0001
0100
,
0010
0100
1000
0100
,
1001
1000
0000
0100
0000
0010
0001
0000
,
0100
0010
0000
1000
0000
0100
0010
0000
,
0001
0100
0000
0010
0000
1000
0000
0100
,
1000
0010
0001
1001
,
1000
0100
0000
0010
0000
0001
1000
0000
,
0100
0010
0000
0100
0000
1000
0010
0000
,
0100
0001
0000
0100
0000
0010
0000
1000
,
0100
0010
1001
0110
,
2002
0003
0020
3030
,
0220
0300
0002
0033
,
0202
0300
2000
3003
,
0202
0003
2000
3300
,
2002
3000
0200
0303
,
2002
0003
0200
3300
,
1000
0100
0001
0100
,
1000
0000
0100
0000
0010
0000
0010
0010
,
0220
0330
0000
0000
1001
0000
0100
0000
,
0010
0000
0000
0010
0000
0000
0010
0000
0001
0000
0000
0000
0100
0000
0000
0000
,
2002
3003
0000
0000
0110
0000
1000
0000
,
0100
0000
0000
0100
0000
0000
0100
0000
0001
0000
0000
0000
1000
0000
0000
0000
,
2002
3003
0000
0000
0110
0000
0100
0000
,
0001
0000
0000
0001
0000
0000
0001
0000
1000
0000
0000
0000
1000
0000
0000
0000
,
0220
0330
0000
0000
1001
0000
0100
0000
,
0001
0000
0000
1000
0000
0000
0001
0000
1000
0000
0000
0000
1000
0000
0000
0000
,
1000
0000
0000
0001
0000
0000
0100
0000
0000
0000
0010
0000
1000
0000
0000
0000
,
0100
0000
0000
0010
0000
0000
0001
0000
0000
0000
1000
0000
0000
0000
0001
0000
,
1000
0100
0010
0001
,
1000
0010
0100
0001
,
1001
0000
0000
0100
0000
0000
0010
0000
0000
0000
0100
0000
0010
0000
0000
0000
,
0001
0000
0000
0100
0000
0000
1000
0000
0000
0000
0010
0000
0000
0000
1000
0000
,
0001
0100
0010
1000
,
0001
0010
0100
1000
,
0001
0000
0000
0010
0000
0000
0100
0000
,
0010
0000
0000
0100
0000
0000
0001
0000
,
0100
0000
0000
1000
0000
0000
0100
0000
,
1000
0000
0000
0010
0000
0000
0100
0000
,
0001
0001
0001
0001
,
1000
1000
1000
1000
,
0010
0010
0100
0100
,
0220
0330
2002
3003
,
1001
1000
0000
0100
0000
0010
0001
0000
,
0100
0010
0000
1000
0000
0100
0010
0000
,
0001
0100
0000
0010
0000
1000
0000
0100
,
1000
0010
0001
1001
,
1000
0010
0000
0100
0000
0100
0001
0000
,
1000
0010
0100
0001
,
1000
0100
1000
0001
,
0100
0001
1001
0110
,
1001
0000
0100
0010
0000
0010
0100
0000
,
0001
0000
1000
0001
0000
0001
1000
0000
,
0100
0010
0001
1000
,
0100
0020
0002
0033
,
0001
0100
0010
2000
,
3010
0100
0001
0100
,
0001
0100
0010
1000
,
0100
0010
0001
0100
,
2002
0000
0000
0000
,
0000
0000
0000
3003
,
0110
0000
0000
0000
;

//--------------- dance-single - DJSuperNOVA ----------------
#NOTES:
     dance-single:
     DJSuperNOVA:
     Hard:
     13:
     0,0,0,0,0:
0000
0000
0000
0000
0000
0000
1000
0100
,
0020
0000
0000
0230
0000
0000
2300
0000
,
3002
0000
0000
0203
0000
0000
0320
0000
,
0230
0000
0000
0302
0000
0000
2003
0000
,
3001
0010
0100
1000
0000
0000
1000
0100
,
0010
0000
1000
0001
1000
0100
1000
0001
,
0100
0000
0001
1000
0001
0100
0001
1000
,
0010
0000
1000
0100
0001
0100
0010
1000
,
0100
0010
1000
0001
1000
0100
0010
0001
,
1000
0000
0100
0000
0010
0000
0100
0010
0000
0100
0010
0000
0001
0000
0100
0000
,
0010
0000
1000
0000
0010
0000
0100
0010
0000
0100
0010
0000
1000
0000
0001
0000
,
0100
0000
0010
0000
1000
0000
0010
1000
0000
0010
1000
0000
0100
0000
0001
0000
,
0010
0000
0100
0000
1000
0000
0010
1000
0000
1000
0010
0000
0100
0000
0010
0000
,
1000
0000
0100
0000
0010
0000
0001
0010
0000
0010
0001
0000
0100
0000
0010
0000
,
1000
0000
0100
0000
0001
0000
0010
0001
0000
0001
0010
0000
0100
0000
0010
0000
,
1000
0000
0100
0000
0010
0000
0100
0001
0000
0100
0001
0000
1000
0000
0100
0000
,
0010
0001
0100
0010
1000
0100
0010
0100
,
0001
0100
0000
0010
0000
1000
0100
1000
,
0001
0100
0000
0001
0000
1000
0010
1000
,
0010
0100
0000
0001
0000
1000
0000
0100
,
0010
0001
0010
0100
0000
0100
1000
0100
,
0010
0100
0000
1000
0000
0001
0100
0001
,
0010
0001
0000
1000
0000
1000
0010
0100
,
0010
1000
0000
0100
0000
0010
0000
0001
,
0100
0010
1000
0010
0001
0010
0100
0010
,
2000
0000
0000
0000
0000
0000
0000
3000
0200
0000
0300
0020
0000
0030
0001
0000
,
0200
0000
0300
0020
0000
0030
0100
0000
0002
0000
0000
0003
2000
0000
0000
3000
,
0100
0010
0001
1000
0001
0010
0100
1000
,
0001
1000
0100
0010
0001
1000
0001
0010
,
0002
0000
0000
0000
0000
0000
0000
0003
0200
0000
0300
0002
0000
0003
0100
0000
,
0010
0000
1000
0000
0100
0000
2000
0000
0000
0000
0000
3000
0020
0000
0000
0030
,
0100
0001
0100
0010
0001
0010
0100
1000
,
0100
0000
1000
0000
0100
0000
0010
0000
0001
0000
0100
0000
0010
0100
0010
0100
,
0020
0000
0130
0000
0110
0100
0010
1000
,
0001
0000
0000
0100
0000
0000
0001
0000
2000
0000
0000
0000
3020
0000
0000
0000
,
0230
0310
0100
0000
0110
0100
0010
1000
,
0100
0000
0000
0010
0000
0000
0100
0000
0110
0000
0000
0000
0001
0010
0001
0010
,
0200
0000
0310
0000
0110
0100
0010
0100
,
0001
0000
0000
1000
0000
0000
0001
0000
2000
0000
0000
0000
3020
0000
0000
0000
,
2030
3001
1000
0000
1001
0100
0001
1000
,
0010
0000
0000
0010
0000
0000
0010
0000
0100
0010
0100
0010
0100
0000
0100
0000
,
0001
0000
0000
0100
0000
0000
0010
0000
0000
0000
1000
0000
0100
0000
1000
0000
,
0010
0000
0000
0001
0000
0000
0100
0000
0000
0000
0010
0000
0000
0000
1000
0000
,
0001
0100
0010
0001
1000
0100
0010
0100
,
1000
0001
0010
0100
0010
0100
1000
0010
,
1000
0000
0000
0100
0000
0000
0010
0000
0000
0000
0100
0000
0001
0000
0100
0000
,
0010
0000
0000
0001
0000
0000
1000
0000
0000
0000
0100
0000
0000
0000
0010
0000
,
0001
0010
0100
1000
0001
0100
0010
1000
,
0001
0010
0100
1000
0010
0100
0001
1000
,
0020
0000
0000
1000
0000
0000
0031
0000
,
0200
0000
0000
1000
0000
0000
0310
0000
,
2000
0000
0000
0001
0000
0000
3100
0000
,
0010
0001
0010
1000
0000
0000
1000
0100
,
0010
1000
0010
0100
0010
1000
0010
0100
,
0001
0100
0001
0010
0001
0100
0001
0010
,
1000
0100
1000
0001
1000
0010
1000
0100
,
0010
0001
0100
1000
0100
0010
0100
1000
,
0001
0100
0000
0010
0000
1000
0010
1000
,
0010
0100
0000
1000
0000
0100
0001
0010
,
0001
0100
0000
1000
0000
1000
0000
0100
,
0010
0001
0010
1000
0000
1000
0001
0100
,
0010
0100
0000
0010
0000
0100
0001
0000
,
1000
0010
0100
0001
1000
0100
0010
0001
,
0100
0010
1000
0001
0010
0100
1000
0100
,
0010
0100
0010
0001
1000
0010
0100
1000
,
0002
0000
0103
0010
0000
0010
0100
1000
,
0002
0000
0103
1000
0000
1000
0010
0100
,
1000
0100
0010
0100
0001
0100
0010
0100
,
1000
0100
0001
0100
0020
0000
0130
0000
,
1000
0100
0010
0001
1000
0100
1000
0000
,
0001
0100
0010
1000
0001
0100
0001
1000
,
0100
1000
0010
0100
0001
0010
0001
1000
,
0100
0010
0001
0010
0001
0100
0010
0100
,
2002
0000
0000
0000
,
0000
0000
0000
3003
,
0110
0000
0000
0000
;

//--------------- dance-single - DJSuperNOVA ----------------
#NOTES:
     dance-single:
     DJSuperNOVA:
     Challenge:
     18:
     0,0,0,0,0:
0000
0000
0000
0000
0000
0000
0000
0000
0000
0000
0000
0000
0001
1000
0100
0010
,
0002
0000
0000
0023
0000
0000
0230
0000
,
0302
0000
0000
0203
0000
0000
0320
0000
,
0230
0000
0000
2300
0000
0000
3200
0000
,
1300
0000
0100
0000
0010
0000
0001
0000
0000
0000
0000
0000
0001
1000
0100
0010
,
0002
0000
0103
0020
0100
0000
2030
0000
,
3200
0000
0310
0200
0001
0000
1300
0000
,
0002
0000
1003
0020
1000
0000
0032
0000
,
1003
0100
1000
0100
0010
0001
0010
0001
1000
0100
0010
0001
1000
0010
0100
0001
,
1000
0000
0001
0000
1000
0000
0100
0010
0000
0010
0100
0000
1000
0001
0010
0001
,
0100
0000
0010
0000
1000
0000
0100
0010
0000
0010
0100
0000
0001
0100
0001
0100
,
0010
0000
1000
0000
0001
0000
0100
0001
0000
0001
0100
0000
0010
0100
1000
0100
,
1000
0000
0100
0000
0010
0000
0100
0001
0000
0010
0001
0000
0100
0010
0100
0010
,
1000
0000
0100
0000
0010
0000
0100
0001
0010
0001
0100
0000
0010
0100
0010
0100
,
0010
0000
1000
0000
0001
0000
0100
0010
1000
0100
0010
0000
0001
0100
0010
0100
,
0001
0000
1000
0100
0010
0100
1000
0001
0000
0001
1000
0000
0001
0100
0001
0100
,
0010
1000
0010
1000
0001
0010
0100
1000
0010
0100
0001
0010
0100
1000
0010
0100
,
0002
0000
0003
0200
0000
0300
0010
0000
0000
2000
0000
3000
0100
0000
0000
0020
0000
0030
0002
0000
0003
0200
0000
0300
,
0002
0000
0003
0020
0000
0030
0001
0000
0000
2000
0000
3000
0100
0000
0000
2000
0000
3000
0020
0000
0030
0200
0000
0300
,
0020
0000
0030
2000
0000
3000
0010
0000
0000
0200
0000
0300
0001
0000
0000
0020
0000
0030
0001
0000
0000
0200
0000
0300
,
0020
0000
0000
0000
0030
0000
0002
0000
0000
0000
0003
0000
0020
0000
0000
0000
0030
0000
0200
0000
0000
0000
0300
0000
0010
0000
0000
0000
0000
0000
0100
0000
0000
0000
0000
0000
0001
0000
0000
1000
0000
0000
0100
0000
0000
0010
0000
0000
,
0002
0000
0003
0100
0000
0000
0010
0000
0000
2000
0000
3000
0100
0000
0000
0010
0000
0000
0002
0000
0003
0100
0000
0000
,
0020
0000
0030
0100
0000
0000
1000
0000
0000
0200
0000
0300
0010
0000
0000
0100
0000
0000
0020
0000
0030
1000
0000
0000
,
0002
0000
0003
0100
0000
0000
0010
0000
0000
2000
0000
3000
0010
0000
0000
0100
0000
0000
0001
0000
0000
0200
0000
0300
,
0001
1000
0100
0010
0100
0010
0001
0100
0010
1000
0100
1000
0010
0100
0001
0010
,
0002
0000
0000
0000
1000
0000
0000
0003
0200
0000
0300
0020
0001
0030
0100
0000
,
2000
0000
3000
0200
0001
0300
0010
0000
0002
0000
0000
0003
2000
0000
0000
3000
,
0001
0100
0010
0100
0001
0100
0010
1000
0001
1000
0010
1000
0001
1000
0010
1000
,
0100
0010
0100
0010
0001
0100
0001
0100
0001
0010
0001
0010
0100
1000
0100
0010
,
0002
0000
0000
0000
0100
0000
0000
0003
2000
0000
3000
0200
0001
0300
0010
0000
,
0002
0000
0000
0000
0100
0003
0020
0000
1000
0000
0000
0030
0200
0000
0000
0300
,
0001
0100
0010
1000
0001
0010
0100
1000
0010
0100
0010
0001
0100
0010
1000
0100
,
1000
0100
0010
0100
0001
0100
1000
0010
0100
0001
1000
0010
0100
0010
0100
0010
,
0220
0330
0100
0000
0110
0010
0100
1000
,
0101
0000
0000
1010
0000
0000
0110
0000
0002
0000
0103
0000
0020
0000
1030
0000
,
2200
3300
1000
0000
0100
0000
0000
0000
1100
0000
0001
0000
0010
0000
0100
0000
,
1100
0000
0000
0011
0000
0000
1010
0000
0202
0303
0000
0000
0100
0001
0010
0001
,
0022
0033
0001
0000
0100
0000
0000
0000
0101
0000
0010
0000
0100
0000
1000
0000
,
0101
0000
0000
0110
0000
0000
1010
0000
0200
0000
0310
0000
0002
0000
0103
0000
,
0220
0330
0010
0000
1000
0000
0000
0000
1010
0000
0100
0000
0001
0000
0100
0000
,
1010
0000
0000
0110
0000
0000
0011
0000
0100
0010
0100
0010
0100
0000
0100
0000
,
1000
0100
0010
0001
0000
0000
2000
0000
0010
0000
3100
0000
0001
0000
1000
0000
,
0010
0000
0000
1000
0100
0000
0010
0000
0001
0000
0100
0000
0010
0000
1000
0000
,
0100
0010
0100
0010
0001
0010
0001
0100
0010
0100
0010
1000
0100
1000
0100
1000
,
0001
0010
0100
0001
0100
0010
0001
0100
0010
1000
0010
0100
0001
0010
0001
0100
,
0010
0100
0010
0001
0000
0000
0200
0000
0001
0000
0310
0000
0100
0000
1000
0000
,
0010
0000
0000
0100
0010
0000
1000
0000
0001
0000
0100
0000
0000
0000
0020
0000
,
1030
0100
1000
0100
0010
0100
0010
0100
0001
0100
0001
0100
0010
1000
0010
1000
,
0100
0010
0001
0100
0010
1000
0100
0010
0001
0100
0010
1000
0100
1000
0001
0100
,
0001
0000
1000
0000
0010
0000
1000
0100
0000
1000
0100
0000
0010
0001
0010
0001
,
0100
0000
0010
0000
0001
0000
1000
0100
0000
0100
1000
0000
0010
0001
0010
0001
,
1000
0000
0100
0000
0010
0000
0100
0001
0000
0010
0001
0000
1000
0010
1000
0010
,
0100
0000
0010
0001
0100
0000
0010
1000
0000
0100
1000
0000
0010
0001
0100
0010
,
0001
0100
0001
1000
0001
1000
0100
0010
0001
0010
0001
1000
0100
1000
0010
0100
,
0010
0100
0010
1000
0001
0010
0001
0100
0001
1000
0010
0100
0001
1000
0001
0010
,
0001
1000
0010
0100
0001
0010
0001
0100
0001
1000
0100
1000
0100
0010
0001
0100
,
0010
1000
0100
1000
0010
0100
0001
0100
0010
1000
0010
1000
0100
1000
0010
0100
,
0002
0000
0003
0200
0000
0300
0010
0000
0000
2000
0000
3000
0100
0000
0000
0020
0000
0030
0002
0000
0003
0200
0000
0300
,
0002
0000
0003
0020
0000
0030
0001
0000
0000
2000
0000
3000
0100
0000
0000
2000
0000
3000
0020
0000
0030
0200
0000
0300
,
0020
0000
0030
2000
0000
3000
0010
0000
0000
0200
0000
0300
0001
0000
0000
0020
0000
0030
0001
0000
0000
0200
0000
0300
,
0020
0000
0000
0000
0030
0000
0002
0000
0000
0000
0003
0000
0020
0000
0000
0000
0030
0000
0200
0000
0000
0000
0300
0000
0010
0000
0000
0000
0000
0000
0100
0000
0000
0000
0000
0000
0001
0000
0000
1000
0000
0000
0100
0000
0000
0010
0000
0000
,
0002
0000
0003
0100
0000
0000
0010
0000
0000
2000
0000
3000
0100
0000
0000
0010
0000
0000
0002
0000
0000
0000
0000
0000
,
0013
0001
0010
0100
0010
0100
1000
0100
1000
0100
0010
0100
0010
0001
1000
0100
,
0010
0100
1000
0010
0100
0010
0100
1000
0100
0010
0001
1000
0100
0010
0001
0100
,
0001
0010
0100
0010
1000
0010
0100
0001
1000
0100
1000
0010
0100
0001
0010
0001
,
2000
0000
0000
0000
0000
3000
0010
0000
0000
0100
0000
0000
0001
0000
0000
0200
0000
0300
0010
0000
0000
1000
0000
0000
,
0200
0000
0000
0000
0000
0300
0010
0000
0000
0001
0000
0000
1000
0000
0000
0020
0000
0030
0001
0000
0000
0010
0000
0000
,
1000
0010
0100
0001
1000
0010
0100
0001
1000
0100
0010
0001
1000
0100
0010
0001
,
0010
0100
1000
0100
0001
0100
1000
0100
0020
0000
0000
0000
0130
0000
0000
0000
,
0001
0100
0010
1000
0001
0010
0100
1000
0100
1000
0100
0010
0002
0000
0000
0000
,
0103
0010
0100
0010
1000
0010
0100
0001
1000
0010
0100
0001
1000
0100
1000
0010
,
0100
0010
0100
0001
0010
0100
1000
0010
0100
0001
0010
0001
0100
0010
1000
0100
,
1000
0010
1000
0010
0100
0001
0100
0001
1000
0100
1000
0100
0010
0001
0010
0001
,
2002
0000
0000
3003
,
1000
0100
0001
0100
1000
0010
0001
0010
1000
0100
0001
0100
1000
0100
0010
0002
,
2000
0000
0000
0000
,
0000
0000
0000
0000
,
3003
0000
0000
0000
;
