#TITLE:Identity Part 4;
#SUBTITLE:;
#ARTIST:SHK;
#TITLETRANSLIT:;
#SUBTITLETRANSLIT:;
#ARTISTTRANSLIT:;
#GENRE:;
#CREDIT:DJSuperNOVA;
#MUSIC:Identity Part 4.ogg;
#BANNER:Identity Part 4.png;
#BACKGROUND:Identity Part 4-bg.png;
#CDTITLE:;
#SAMPLESTART:23.603;
#SAMPLELENGTH:27.429;
#SELECTABLE:YES;
#OFFSET:-1.746;
#BPMS:0.000=140.000
,116.000=280.000
,123.000=140.000
,156.000=280.000
,159.000=140.000
;
#STOPS:116.000=0.429
,118.000=0.429
,120.000=0.214
,121.000=0.214
,122.000=0.214
,156.000=0.643
;
#DISPLAYBPM:140.000;
#BGCHANGES:;
#FGCHANGES:;

//--------------- dance-single - DJSuperNOVA ----------------
#NOTES:
     dance-single:
     DJSuperNOVA:
     Beginner:
     2:
     0,0,0,0,0:
0000
0000
0000
0000
,
0001
0000
0000
0000
,
1000
0000
0000
0000
,
1000
0000
0000
0000
,
0001
0000
0000
0000
,
0100
0000
0100
0000
,
0010
0000
0000
0000
,
0010
0000
0010
0000
,
0100
0000
0000
0000
,
0001
0000
0001
0000
,
1000
0000
0000
0000
,
1000
0000
1000
0000
,
0001
0000
0000
0000
,
1000
0000
0000
0000
,
0001
0000
0000
0000
,
1000
0000
0000
0000
,
0001
0000
0000
0000
,
0100
0000
0000
0000
,
0010
0000
0000
0000
,
0100
0000
0000
0000
,
0010
0000
0000
0000
,
1000
0000
0000
0000
,
0001
0000
0000
0000
,
1000
0000
0000
0000
,
0001
0000
0000
0000
,
1000
0000
0000
0000
,
0010
0000
0000
0000
,
1000
0000
0000
0000
,
0010
0000
0000
0000
,
1001
0000
0000
0000
,
1001
0000
0000
0000
,
0100
0000
0000
0000
,
0010
0000
0000
0000
,
0100
0000
0000
0000
,
0100
0000
0000
0000
,
0001
0000
0000
0000
,
1000
0000
0000
0000
,
0001
0000
0000
0000
,
0001
0000
0000
0000
,
1001
0000
0000
0000
,
1000
0000
0000
0000
,
0001
0000
0000
0000
,
1000
0000
0000
0000
,
0001
0000
0000
0000
,
0100
0000
0000
0000
,
0010
0000
0000
0000
,
0100
0000
0000
0000
,
0010
0000
0000
0000
,
1000
0000
0000
0000
,
0100
0000
0000
0000
,
1000
0000
0000
0000
,
0100
0000
0000
0000
,
0010
0000
0000
0000
,
0001
0000
0000
0000
,
0010
0000
0000
0000
,
0001
0000
0000
0000
,
1001
0000
0000
0000
,
1000
0000
0000
0000
,
0001
0000
0000
0000
,
1000
0000
0000
0000
,
0001
0000
0001
0000
,
1000
0000
0000
0000
,
1000
0000
1000
0000
,
0001
0000
0000
0000
,
1001
0000
0000
0000
;

//--------------- dance-single - DJSuperNOVA ----------------
#NOTES:
     dance-single:
     DJSuperNOVA:
     Easy:
     5:
     0,0,0,0,0:
0000
0000
0000
0000
,
0100
0000
0100
0000
,
0010
0000
0010
0000
,
1000
0000
1000
0000
,
0001
0001
0001
0000
,
1000
0010
1000
0010
,
0001
0100
0001
0100
,
0001
0010
0001
0010
,
0100
1000
0100
1000
,
0001
0001
1000
1000
,
0010
0010
0100
0100
,
1000
1000
0010
0010
,
0100
0100
0001
0001
,
1000
0100
1000
0100
,
0010
0001
0010
0001
,
2000
3000
0002
0003
,
0100
0010
0110
0100
,
0001
0001
1000
1000
,
0010
0010
1000
1000
,
0001
0001
0100
0100
,
0001
0010
0100
1000
,
0001
0100
0001
0100
,
1000
0100
1000
0100
,
0010
0100
0010
0100
,
0010
0001
0010
0001
,
1000
1000
0010
0010
,
0100
0100
0010
0010
,
1000
1000
0001
0001
,
0100
0100
0001
0001
,
1001
0000
0110
0000
,
1000
0100
0010
0001
,
1000
0010
1000
0010
,
0001
0100
0001
0100
,
0001
0010
0001
0010
,
0100
1000
0100
1000
,
0001
0001
1000
1000
,
0010
0010
0100
0100
,
1000
1000
0010
0010
,
0100
0100
0001
0001
,
1001
0000
0000
0000
,
0200
0000
0000
0300
,
0020
0000
0000
0030
,
2000
0000
0000
3000
,
0002
0000
0000
0003
,
1000
1000
1000
1000
,
0001
0001
0001
0001
,
0100
0100
0100
0100
,
0010
0010
0010
0110
,
1000
0100
1000
0100
,
0010
0001
0010
0001
,
2000
3000
0002
0003
,
0100
0010
0100
0110
,
0001
0001
1000
1000
,
0010
0010
1000
1000
,
0001
0001
0100
0100
,
0001
0010
0100
1000
,
0001
0100
0001
0100
,
1000
0100
1000
0100
,
0020
0030
0200
0300
,
0010
0001
0010
1001
,
1000
1000
0010
0010
,
0100
0100
0010
0010
,
1000
0010
0001
0100
,
1000
0100
0001
0100
,
2002
0000
0000
0000
,
3003
0000
0000
0000
;

//--------------- dance-single - DJSuperNOVA ----------------
#NOTES:
     dance-single:
     DJSuperNOVA:
     Medium:
     7:
     0,0,0,0,0:
0000
0000
0000
0000
,
0100
1000
0100
0000
0010
0001
0010
0000
,
0010
1000
0010
0000
0100
0001
0100
0000
,
1000
0100
1000
0000
0001
0100
0001
0000
,
1000
0010
1000
0000
0001
0010
0001
0000
,
1000
1000
0000
0100
0010
0010
0000
0001
,
0100
0100
0000
0010
1000
1000
0000
0010
,
0100
0100
0000
0001
1000
1000
0000
0100
,
0010
0010
0000
0001
0100
0100
0000
0010
,
1000
1000
0000
0100
0010
0010
0000
0001
,
0100
0100
0000
0010
1000
1000
0000
0010
,
0100
0100
0000
0001
1000
1000
0000
0100
,
0010
0000
0001
0000
0100
0000
1000
0100
,
1000
0000
0000
0100
0000
0000
0010
0000
0000
0000
0001
0000
0000
0000
0100
0000
,
0010
0000
0000
1000
0000
0000
0010
0000
0000
0000
0100
0000
0000
0000
1000
0000
,
0002
0000
0000
0203
0000
0000
0000
0320
,
0000
1030
0100
2000
0000
0000
3000
0000
,
1001
0100
0010
0001
,
0010
0001
0100
0010
,
1000
0100
1000
0100
,
0010
0000
0001
0000
0100
0000
1000
0100
,
0010
0000
0000
0100
0000
0000
0001
0000
0000
0000
0010
0000
0000
0000
1000
0000
,
0010
0000
0000
1000
0000
0000
0010
0000
0000
0000
0100
0000
0000
0000
0010
0000
,
0002
0000
0000
0023
0000
0000
0000
0230
,
0000
0310
1000
0200
0000
0000
0300
0000
,
0101
1000
0100
0010
,
0001
0000
0100
0020
1000
0000
0130
0000
,
0001
1000
0100
0010
,
1001
0110
0011
1100
,
1001
0000
0110
0000
,
0011
1100
1010
0002
,
1003
0000
0010
0100
0000
0000
0110
0000
,
0001
0000
1000
0100
0000
0000
0011
0000
,
0100
0000
0010
1000
0000
0000
1010
0000
,
0100
0000
0001
0100
0000
0000
0110
0000
,
1001
0000
0100
0010
0000
0000
0101
0000
,
0010
0000
0100
1000
0000
0000
1100
0000
,
0100
0000
0001
0100
0000
0000
0110
0000
,
1000
0100
0010
0001
,
2002
0000
3003
0000
0000
0000
1000
0100
,
0010
0000
0000
0100
0000
0000
0001
0000
0000
0000
0010
0000
0000
0000
1000
0000
,
0100
0000
0000
1000
0000
0000
0010
0000
0000
0000
0100
0000
0000
0000
1000
0000
,
0002
0000
0000
0200
0000
0303
0000
1000
,
0000
0010
0100
2000
0000
0000
3001
0000
,
0110
1000
0100
0010
,
0100
1000
0010
0001
,
0010
0100
0010
0001
,
1000
0100
0010
1001
,
1000
0000
0000
0100
0000
0000
0010
0000
0000
0000
0001
0000
0000
0000
0100
0000
,
0010
0000
0000
1000
0000
0000
0010
0000
0000
0000
0100
0000
0000
0000
1000
0000
,
0002
0000
0000
0203
0000
0000
0000
0320
,
0000
1030
0100
2000
0000
0000
3000
0000
,
1001
0100
0010
0001
,
0010
0001
0100
0010
,
1000
0100
1000
0100
,
0010
0000
0001
0000
0100
0000
1000
0100
,
0010
0000
0000
0100
0000
0000
0001
0000
0000
0000
0010
0000
0000
0000
1000
0000
,
0010
0000
0000
1000
0000
0000
0010
0000
0000
0000
0100
0000
0000
0000
0010
0000
,
0002
0000
0000
0023
0000
0000
0000
0230
,
0000
0310
1000
0200
0000
0000
0300
0000
,
0101
1000
0100
0010
,
0001
0000
0100
0020
1000
0000
0130
0000
,
0001
1000
0100
0010
,
1001
0000
0010
0100
0001
0000
1010
0000
,
0201
0000
0000
0320
0000
0000
2030
0000
,
0002
0000
3003
0000
;

//--------------- dance-single - DJSuperNOVA ----------------
#NOTES:
     dance-single:
     DJSuperNOVA:
     Hard:
     13:
     0,0,0,0,0:
0000
0000
0000
0000
,
1000
0000
0010
0000
0100
0000
0010
0001
0000
0001
0100
0000
0010
0000
0100
0000
,
0001
0000
0010
0000
1000
0000
0100
0010
0000
0010
1000
0000
0100
0000
1000
0000
,
0010
0000
0100
0000
1000
0000
0010
0100
0000
0100
0001
0000
0010
0000
0100
0000
,
1000
1000
0100
0100
0010
0010
1001
0000
,
1000
0100
1000
0000
0010
0000
0100
0000
0001
0000
0001
0000
0100
0000
0010
0000
,
1000
0010
1000
0000
0100
0000
0010
0000
0001
0000
0001
0000
1000
0000
0010
0000
,
0100
0010
0100
0000
0001
0000
1000
0000
0010
0000
0010
0000
1000
0000
0001
0000
,
0100
0010
0100
0000
0001
0000
1000
0000
0010
0000
0010
0000
1001
0000
0000
0000
,
1000
0100
0010
0000
0000
0000
0100
0000
1000
0010
0100
0000
0000
0000
0001
0000
,
0010
0001
1000
0000
0000
0000
0001
0000
0100
0010
1000
0000
0000
0000
0010
0000
,
1000
0001
1000
0000
0000
0000
0100
0000
0010
0100
0010
0000
0000
0000
0001
0000
,
1000
0100
1000
0000
0001
0100
0001
0000
1000
0010
1000
0000
0200
0000
2300
0000
,
3020
0000
0000
0230
0000
0000
0320
0000
0000
0000
0032
0000
0000
0000
0203
0000
,
0320
0000
0000
2030
0000
0000
3020
0000
0000
0000
0230
0000
0000
0000
2300
0000
,
3002
0000
0000
0203
0000
0000
0000
0320
,
0000
2030
3200
2300
0000
0000
3001
0000
,
0001
0100
0010
1000
0001
0100
0010
1000
,
0001
0010
0100
1000
0001
0010
0100
1000
,
0001
0100
0010
1000
0001
0010
0100
1000
,
0001
0100
0010
1000
0001
0010
0100
1000
,
0020
0000
0000
0230
0000
0000
0320
0000
0000
0000
0032
0000
0000
0000
1003
0100
,
0020
0000
0000
2030
0000
0000
3020
0000
0000
0000
0230
0000
0000
0000
2300
0000
,
3002
0000
0000
0203
0000
0000
0000
0320
,
0000
2030
3200
2300
0000
0000
3001
0000
,
1000
0010
0100
0001
1000
0010
0100
0001
,
1000
0100
0010
0001
1000
0100
0010
0001
,
1000
0010
0100
0001
1000
0100
0010
0001
,
1000
0010
0100
0001
1000
0100
0010
0001
,
1001
0000
0110
0000
,
0011
1010
0101
1100
,
0010
0010
1000
0100
0001
0001
0100
0010
,
1000
1000
0100
0010
0001
0001
0100
0010
,
1000
1000
0100
0010
0001
0001
0100
0010
,
1000
1000
0010
0100
0001
0001
1000
0100
,
0001
0010
0001
0000
1000
0000
0010
0000
0100
0010
0100
0000
1000
0000
0001
0000
,
0100
1000
0100
0000
0010
0000
0001
0000
0100
0010
0100
0000
1000
0000
0001
0000
,
0100
0001
0100
0000
0010
0000
1000
0000
0100
1000
0100
0000
0010
0000
0100
0000
,
1000
0010
1000
0000
0001
0010
0001
0000
1000
0100
1000
0000
0001
0010
0001
0000
,
2002
3003
0000
0000
0000
0000
0000
0000
0000
0000
0000
0000
1000
0000
0100
0000
,
0020
0000
0000
0230
0000
0000
0302
0000
0000
0000
0023
0000
0000
0000
2030
0000
,
3020
0000
0000
2030
0000
0000
3002
0000
0000
0000
0023
0000
0000
0000
2030
0000
,
3020
0000
0000
0230
0000
0000
0000
0302
,
0000
2003
3200
0020
0000
0000
0330
0000
,
1000
0010
0100
0001
1000
0100
0010
0001
,
1000
0010
0100
0001
1000
0100
0010
0001
,
0100
1000
0001
0010
0100
1000
0001
0100
,
0010
1000
0001
0100
0010
1000
0001
0010
,
0002
0000
0000
0203
0000
0000
0320
0000
0000
0000
2030
0000
0000
0000
3200
0000
,
0320
0000
0000
0230
0000
0000
0302
0000
0000
0000
0023
0000
0000
0000
2030
0000
,
3020
0000
0000
0230
0000
0000
0000
0302
,
0000
0023
0230
2300
0000
0000
3001
0000
,
0001
0100
0010
1000
0001
0100
0010
1000
,
0001
0010
0100
1000
0001
0010
0100
1000
,
0001
0100
0010
1000
0001
0010
0100
1000
,
0001
0100
0010
1000
0001
0010
0100
1000
,
0020
0000
0000
0230
0000
0000
0320
0000
0000
0000
0032
0000
0000
0000
1003
0100
,
0020
0000
0000
2030
0000
0000
3020
0000
0000
0000
0230
0000
0000
0000
2300
0000
,
3002
0000
0000
0203
0000
0000
0000
0320
,
0000
2030
3200
2300
0000
0000
3001
0000
,
1000
0100
1000
0000
0010
0000
0001
0000
0100
0000
0010
0000
1000
0000
0100
0000
,
0001
0100
0001
0000
0100
0000
0010
0000
1000
0000
0010
0000
0100
0000
0001
0000
,
1000
0010
1000
0000
0100
0000
0001
0000
0100
0000
1000
0000
0100
0000
0010
0000
,
0001
0010
0001
0000
1000
0010
1000
0000
0001
0100
0001
0000
1000
0100
1000
0000
,
0202
0000
0000
0000
0000
0300
0020
0000
0000
0000
0000
0003
0200
0000
0000
0030
,
2000
0000
0000
0000
,
3300
0000
0000
0000
;

//--------------- dance-single - DJSuperNOVA ----------------
#NOTES:
     dance-single:
     DJSuperNOVA:
     Challenge:
     18:
     0,0,0,0,0:
0000
0000
0000
0000
,
1000
0100
1000
0000
1000
0000
0010
0100
0001
0100
0010
0000
0010
0000
0001
0010
,
0100
1000
0100
0000
0100
0000
1000
0010
0100
0010
0001
0000
0101
0000
0100
0000
,
1000
0100
0010
0000
0010
0000
0100
0001
0010
0001
0100
0000
0100
0000
0010
1000
,
0100
1000
0010
0100
0001
0010
0001
0100
0010
1000
0001
0100
1000
0100
0010
0001
,
1000
0100
2000
0000
0010
0000
3010
0000
0100
0010
0200
0000
0001
0000
0301
0000
,
0001
0010
0002
0000
1000
0000
1003
0000
0010
1000
0020
0000
0100
0000
0130
0000
,
1000
0100
0020
0000
0100
0000
0130
0000
0001
0100
0020
0000
0100
0000
0130
0000
,
1000
0100
0020
0000
0100
0000
0130
0000
0001
0100
0020
0000
0100
0000
0130
0000
,
1100
0100
0020
0000
1000
0000
0130
0000
0010
0001
2000
0000
0100
0000
3010
0000
,
0001
0100
0020
0000
1000
0000
0130
0000
1000
0100
2000
0000
0100
0000
3010
0000
,
0001
0100
0020
0000
1000
0000
0130
0000
1000
0010
0200
0000
0001
0000
0310
0000
,
1000
0100
1000
0000
0001
0100
0001
0000
1000
0100
0010
0001
1000
0010
0100
0001
,
0200
0000
0000
0320
0100
0000
2030
0000
0000
0000
3200
0000
0310
0000
0100
0010
,
0002
0000
0000
0203
0010
0000
2300
0000
0100
0000
3020
0000
0000
0000
0230
0000
,
0302
0000
1003
0020
0000
0130
1000
0200
,
0000
0310
1000
0200
0000
0310
0110
0000
,
0001
0100
0010
1000
0001
0100
0010
1000
0001
0010
0001
0010
0100
1000
0100
1000
,
0001
0100
0010
1000
0001
0100
0010
1000
0001
0100
0001
0100
0010
1000
0010
1000
,
0001
0100
0010
1000
0001
0100
0010
1000
0001
0010
0100
1000
0001
0010
0100
0010
,
1000
0100
1000
0100
0010
0001
0010
0001
1000
0010
0100
0001
1000
0100
0010
0001
,
0200
0000
0000
0320
0100
0000
0032
0000
0000
0000
0203
0000
0310
0000
0100
0010
,
2000
0000
0000
3200
0010
0000
0302
0000
0100
0000
0023
0000
0000
0000
0230
0000
,
2300
0000
3001
0020
0000
0130
0001
0200
,
0000
0310
0001
0200
0000
0310
1001
0000
,
1000
0100
0010
0001
1000
0100
1000
0010
0001
0100
0001
0010
1000
0100
0010
0001
,
1000
0010
0100
0001
1000
0010
1000
0100
0001
0010
0001
0100
1000
0010
0100
0001
,
1000
0010
0100
0001
1000
0100
0010
0001
1000
0010
0100
0001
1000
0100
0010
0001
,
1000
0100
1000
0100
0001
0010
0001
0010
1000
0100
0010
0001
0010
1000
0001
0100
,
0110
0000
1001
0000
,
0011
0000
0000
0000
0101
0000
0000
0000
0110
0000
0000
0000
0010
1000
0100
1000
,
0001
0100
0002
0000
0010
0000
0013
0000
0100
0010
0200
0000
1000
0000
1300
0000
,
1000
0010
2000
0000
0001
0000
3001
0000
0010
0001
0020
0000
0100
0000
0130
0000
,
0001
0100
0020
0000
0100
0000
0130
0000
1000
0100
0020
0000
0100
0000
0130
0000
,
0001
0100
0020
0000
0100
0000
0130
0000
1000
0100
0020
0000
0100
0000
0130
0000
,
1000
0100
0010
0000
0011
0000
1100
0000
0001
0100
0010
0000
1010
0000
0101
0000
,
1000
0010
0100
0000
0101
0000
0110
0000
0001
0100
0010
0000
0110
0000
1010
0000
,
0001
0100
1000
0000
0011
0000
1100
0000
1000
0100
0001
0000
1100
0000
0011
0000
,
1000
0010
0001
0000
1000
0100
0001
0000
1000
0100
0001
0100
1000
0010
0001
0100
,
2000
3000
0000
0000
0000
0000
0000
0000
0000
0000
0000
0000
0100
1000
0100
0010
,
0002
0000
0000
0203
0000
0000
0320
0000
0000
0000
2030
0000
0000
0000
3100
1000
,
0020
0000
0000
0230
0000
0000
0302
0000
0000
0000
2003
0000
0000
0000
3010
0000
,
0210
0000
0000
2300
0000
0000
0000
3200
,
0000
0302
0023
0200
0000
0000
0330
0000
,
0001
0100
0001
0100
0010
1000
0010
1000
0001
0010
0001
0010
0100
1000
0100
1000
,
0100
0010
0100
0010
0100
0001
0100
0001
1000
0100
1000
0100
0010
0001
0010
0001
,
1000
0010
1000
0010
0100
0001
0100
0001
1000
0100
0010
0100
0001
0010
0100
0010
,
1000
0100
0010
0100
0001
0010
0100
0010
1000
0100
0010
0001
1000
0010
0100
0001
,
0200
0000
0000
0320
0100
0000
2030
0000
0000
0000
3200
0000
0310
0000
0100
0010
,
0002
0000
0000
0203
0010
0000
2300
0000
0100
0000
3020
0000
0000
0000
0230
0000
,
0302
0000
1003
0020
0000
0130
1000
0200
,
0000
0310
1000
0200
0000
0310
0110
0000
,
0001
0100
0010
1000
0001
0100
0010
1000
0001
0010
0001
0010
0100
1000
0100
1000
,
0001
0100
0010
1000
0001
0100
0010
1000
0001
0100
0001
0100
0010
1000
0010
1000
,
0001
0100
0010
1000
0001
0100
0010
1000
0001
0010
0100
1000
0001
0010
0100
0010
,
1000
0100
1000
0100
0010
0001
0010
0001
1000
0010
0100
0001
1000
0100
0010
0001
,
0200
0000
0000
0320
0100
0000
0032
0000
0000
0000
0203
0000
0310
0000
0100
0010
,
2000
0000
0000
3200
0010
0000
0302
0000
0100
0000
0023
0000
0000
0000
0230
0000
,
2300
0000
3001
0020
0000
0130
0001
0200
,
0000
0310
0001
0200
0000
0310
1001
0000
,
1000
0100
0010
0001
1000
0100
1000
0010
0001
0100
0001
0010
1000
0100
0010
0001
,
1000
0010
0100
0001
1000
0010
1000
0100
0001
0010
0001
0100
1000
0010
0100
0001
,
1000
0010
0100
0001
1000
0100
0010
0001
1000
0010
0100
0001
1000
0100
0010
0001
,
1000
0100
1000
0100
0001
0010
0001
0010
1000
0100
0010
0001
0010
1000
0001
0200
,
0020
0000
0000
0000
0000
0300
2000
0000
0000
0000
0000
0030
0200
0000
0000
3000
,
0002
0000
0000
0000
,
0303
0000
0000
0000
;
