#TITLE:I Need Your Love;
#SUBTITLE:;
#ARTIST:Red Pulse;
#TITLETRANSLIT:;
#SUBTITLETRANSLIT:;
#ARTISTTRANSLIT:;
#GENRE:;
#CREDIT:DJSuperNOVA;
#MUSIC:I Need Your Love.ogg;
#BANNER:I Need Your Love.png;
#BACKGROUND:I Need Your Love-bg.png;
#CDTITLE:;
#SAMPLESTART:60.458;
#SAMPLELENGTH:27.429;
#SELECTABLE:YES;
#OFFSET:-0.029;
#BPMS:0.000=140.000;
#STOPS:;
#BGCHANGES:;
#FGCHANGES:;

//--------------- dance-single - DJSuperNOVA ----------------
#NOTES:
     dance-single:
     DJSuperNOVA:
     Beginner:
     1:
     0,0,0,0,0:
0000
0000
0000
0000
,
0000
0000
0000
0000
,
0001
0000
0000
0000
,
0001
0000
0000
0000
,
1000
0000
0000
0000
,
1000
1000
1000
0000
,
0010
0000
0000
0000
,
0010
0000
0000
0000
,
0100
0000
0000
0000
,
0100
0100
0100
0000
,
1000
0000
0000
0000
,
0100
0000
0000
0000
,
0100
0000
0000
0000
,
0010
0000
0000
0000
,
0010
0000
0000
0000
,
0100
0000
0000
0000
,
0100
0000
0000
0000
,
0001
0000
0000
0000
,
1000
0000
0000
0000
,
0001
0000
0001
0000
,
1001
0000
0000
0000
,
1000
0000
0000
0000
,
0001
0000
0000
0000
,
1000
0000
1000
0000
,
0100
0000
0000
0000
,
0010
0000
0000
0000
,
0100
0000
0000
0000
,
0001
0000
0001
0000
,
0100
0000
0000
0000
,
0010
0000
0000
0000
,
0100
0000
0000
0000
,
0010
0000
0000
0000
,
1000
0000
0000
0000
,
0001
0000
0000
0000
,
1000
0000
0000
0000
,
0001
0000
0000
0000
,
1001
0000
0000
0000
,
1000
0000
0000
0000
,
0001
0000
0000
0000
,
1000
0000
0000
0000
,
0001
0000
0000
0000
,
0100
0000
0000
0000
,
0001
0000
0000
0000
,
1000
0000
0000
0000
,
0001
0000
0000
0000
,
1000
0000
0000
0000
,
1000
0000
0000
0000
,
0001
0000
0000
0000
,
0001
0000
0000
0000
,
0100
0000
0000
0000
,
0010
0000
0000
0000
,
0100
0000
0100
0000
,
0010
0000
0000
0000
,
1000
0000
0000
0000
,
0001
0000
0000
0000
,
1000
0000
1000
0000
,
0001
0000
0000
0000
,
0100
0000
0000
0000
,
0010
0000
0000
0000
,
0001
0000
0001
0000
,
1001
0000
0000
0000
,
1000
0000
0000
0000
,
1001
0000
0000
0000
,
0001
0000
0000
0000
,
0100
0000
0000
0000
,
0010
0000
0000
0000
,
0100
0000
0000
0000
,
0010
0010
0010
0000
,
1000
0000
0100
0000
,
0001
0000
0000
0000
,
0001
0000
0000
0000
,
0100
0000
0000
0000
,
1000
0000
0000
0000
,
0100
0000
0000
0000
,
0001
0000
0000
0000
,
1000
0000
0001
0000
,
1000
0000
0001
0000
,
1001
0000
0000
0000
;

//--------------- dance-single - DJSuperNOVA ----------------
#NOTES:
     dance-single:
     DJSuperNOVA:
     Easy:
     3:
     0,0,0,0,0:
0000
0000
0000
0000
,
0000
0000
0000
0000
,
0100
0000
0000
0000
,
0001
0000
0000
0000
,
1000
0000
1000
0000
,
0001
0001
0001
0000
,
0010
0000
0000
0000
,
1000
0000
0000
0000
,
0001
0000
0000
0000
,
0100
0100
1001
0000
,
1000
0100
0010
0001
,
1000
0000
1000
0000
,
0001
0000
0001
0000
,
0010
0000
0010
0000
,
0100
0000
0100
0001
,
1000
0000
1000
0000
,
0001
0000
0001
0000
,
0010
0000
0010
0000
,
1000
0100
0001
0100
,
1000
0000
1000
0000
,
1001
0000
0001
0000
,
0100
0000
0001
0000
,
0100
0000
1000
0000
,
0100
0100
1000
1000
,
0010
0000
0100
0000
,
0010
0000
0100
0000
,
0001
0000
1000
0000
,
0001
0001
1000
1000
,
1001
0000
0001
0000
,
1000
0000
0001
0000
,
1000
0000
0010
0000
,
1000
0000
0100
0100
,
0001
0000
0010
0000
,
1000
0000
0010
0000
,
0001
0000
0100
0000
,
1000
0100
0001
0100
,
1000
0000
1000
0000
,
0001
0000
0001
0000
,
0010
0000
0010
0000
,
0100
0000
0100
0000
,
1000
0000
0100
0000
,
0001
0000
0100
0000
,
1000
0000
1000
0000
,
0001
0000
0001
0000
,
1001
0000
0000
0000
,
0100
0000
0000
0000
,
0010
0000
0000
0000
,
0001
0000
0000
0000
,
1000
0000
0100
0000
,
1000
0000
0001
0000
,
0100
0000
0001
0000
,
0010
0010
0010
0010
,
1000
0000
1000
0000
,
0001
0000
0001
0000
,
0100
0000
0100
0000
,
0010
0000
0010
0000
,
1000
0000
1000
0000
,
0001
0000
0001
0000
,
1000
0000
0100
0000
,
0001
0100
1000
0100
,
1001
0000
0001
0000
,
1000
1000
1000
0000
,
0010
0000
0100
0000
,
0001
0001
0001
0000
,
1001
0000
1000
0000
,
0100
0100
0100
0000
,
0010
0000
0001
0000
,
1000
1000
1000
0000
,
0001
0000
0001
0000
,
1000
0000
0100
0000
,
0010
0000
0001
0000
,
0100
0000
0010
0000
,
1000
0000
0100
0000
,
0001
0000
0100
0000
,
1000
0000
0010
0000
,
0001
0000
0100
0000
,
1000
0100
0010
0001
,
1001
0100
0010
0100
;

//--------------- dance-single - DJSuperNOVA ----------------
#NOTES:
     dance-single:
     DJSuperNOVA:
     Medium:
     7:
     0,0,0,0,0:
0000
0000
0000
0000
,
0000
0000
0000
0000
,
1000
0100
0001
0100
,
1000
0100
0001
0100
,
1000
0100
0001
0100
,
0110
0110
0110
0000
,
0001
0010
1000
0010
,
0001
0010
1000
0010
,
0001
0010
1000
0010
,
1001
1001
1001
0000
,
1000
0100
0010
0001
,
1000
0100
1000
0001
,
0100
0001
1000
0100
,
0010
1000
0010
0001
,
0100
0001
0010
1000
,
0100
0001
0100
0001
,
0010
1000
0010
1000
,
0100
0001
0010
0100
,
1000
0100
0001
0100
,
1001
0110
1001
0110
,
1000
0100
1000
0100
,
0001
0100
0010
0010
,
1000
1000
0001
0001
,
1000
0100
1000
0000
0001
0100
0001
0000
,
1000
1000
0010
0010
,
0100
0100
0001
0001
,
1000
0100
0001
0100
,
0001
0010
0001
0000
1000
0010
1000
0000
,
1001
0100
0000
0100
,
0010
0001
0000
0001
,
0100
0010
0000
0010
,
1000
0100
1000
1000
,
0001
0001
0100
0100
,
0010
0010
1000
1000
,
0001
1000
0001
0100
,
0001
1000
1001
0110
,
1000
0100
0001
0100
,
1000
0100
0001
0100
,
0001
0001
1000
1000
,
0001
0100
1000
0100
,
0001
0001
1000
1000
,
1000
0010
0001
0010
,
1000
0100
0001
0100
,
0001
0100
1000
0100
,
0010
0000
0000
0000
,
0100
0000
0000
0000
,
0001
0000
0000
0000
,
1000
0000
0000
0000
,
1000
0000
0100
0000
,
0010
0000
0001
0000
,
1000
0000
0001
0000
,
1001
0110
1001
0000
,
1000
0100
0001
0100
,
1000
0100
0001
0100
,
0001
0100
1000
0100
,
0010
0001
0010
0001
,
0100
1000
0010
0001
,
0010
1000
0010
0010
,
1000
0001
0100
1000
,
1001
0010
1001
0100
,
1001
0100
0010
0100
,
0010
0010
0100
0100
,
1001
0100
0010
0010
,
1000
1000
0001
0001
,
1001
0100
0010
0001
,
0010
0100
1010
0101
,
0010
0100
1000
0010
,
0011
1100
0011
0000
,
1000
0100
0010
0001
,
1000
1000
0001
0001
,
0001
0100
1000
0100
,
1000
1000
0001
0001
,
1000
0100
0001
0100
,
0010
1000
0010
0001
,
0010
1000
0100
0001
,
0100
1000
0010
0001
,
1001
0110
1001
0100
,
0010
0000
0000
0010
0000
0000
0010
0000
0100
0000
0000
0100
0000
0000
0100
0000
;

//--------------- dance-single - DJSuperNOVA ----------------
#NOTES:
     dance-single:
     DJSuperNOVA:
     Hard:
     12:
     0,0,0,0,0:
0000
0000
0000
0000
,
0000
0000
0000
0000
,
1000
0100
0001
0100
,
1000
0010
0001
0010
,
1000
0100
0001
0100
,
1001
0110
1001
0000
,
0001
0100
1000
0100
,
0001
0010
1000
0010
,
0001
0100
1000
0100
,
1001
0110
1001
0000
,
1000
0100
1000
0100
0010
0001
0010
0001
,
1000
0000
0000
0010
0000
0000
0100
0000
0001
0000
0000
0100
0000
0000
0100
0000
,
1000
0000
0000
0100
0000
0000
0001
0000
1000
0000
0000
0100
0000
0010
1000
0000
,
0001
0000
0000
0010
0000
0000
0100
0000
1000
0000
0000
1000
0000
0000
0100
0000
,
0010
0000
0000
0010
0000
0000
0001
0000
0100
0000
0000
0100
0000
0100
0010
0000
,
1000
0000
0000
0100
0000
0000
0001
0000
1000
0000
0000
0100
0000
0000
0010
0000
,
1000
0000
0000
0100
0000
0000
0001
0000
1000
0000
0000
0010
0000
0000
0001
0000
,
0100
0000
0000
0100
0000
0000
0100
0000
0010
0000
0000
0010
0000
0000
0010
0000
,
1000
0000
0000
0100
0000
0000
1000
0000
0001
0000
0000
0100
0000
0000
0001
0000
,
1001
0000
0000
0100
0010
0000
0100
0000
1001
0000
0000
0010
0100
0000
0010
0000
,
1000
0100
1000
0001
1000
0100
1000
0001
,
0100
0001
0100
0010
0100
0001
0100
0010
,
1000
0100
0010
0100
1000
0001
0100
0010
,
1000
0001
0000
0100
0000
0100
0010
0000
1000
0000
0100
0000
0010
0000
0001
0000
,
0010
0100
0010
1000
0010
0100
0010
1000
,
0001
0100
0010
0100
0001
0100
0010
0100
,
0001
0100
0010
1000
0001
1000
0010
0100
,
0001
0100
0000
0100
0000
0100
0010
0000
1000
0000
0100
0000
0010
0000
0001
0000
,
1000
0001
0100
0001
1000
0001
0100
0001
,
0100
0001
1000
0100
1000
0001
1000
0100
,
0010
1000
0001
0100
0010
1000
0001
0100
,
0010
0100
0000
0100
0000
0010
0100
0000
0001
0000
0010
0000
0100
0000
1000
0000
,
0001
0100
0001
0100
0010
1000
0010
0100
,
0001
0010
0001
0010
1000
0010
1000
0001
,
0100
0010
0100
0010
1000
0100
0001
0100
,
0010
1000
0000
1000
0000
0010
0100
0000
0001
0000
0010
0000
0100
0000
1000
0000
,
0010
0000
0000
0010
0100
0000
1000
0000
0001
0000
0000
0001
1000
0000
0100
0000
,
0010
0000
0000
0010
0001
0000
0100
0000
0010
0000
0000
0010
1000
0000
0100
0000
,
1000
0000
0000
1000
0010
0000
0100
0000
0001
0000
0000
0001
0100
0000
0010
0000
,
1000
0000
0000
1000
0100
0000
0010
0000
0001
0000
0000
1000
0001
0000
0100
0000
,
0001
0000
0000
0001
0100
0000
0010
0000
1000
0000
0000
1000
0100
0000
1000
0000
,
0010
0000
0000
0010
0100
0000
0001
0000
0010
0000
0000
0010
0001
0000
0100
0000
,
0010
0000
0000
0010
1000
0000
0100
0000
0001
0000
0000
0001
0100
0000
0010
0000
,
0001
0000
1000
0000
0001
0000
1000
0000
0010
0000
0000
0010
0100
0000
0100
0000
,
1000
0100
0000
0010
0000
0000
0000
0000
0000
0000
0000
0000
0100
0000
0000
0000
,
0010
0100
0000
0001
0000
0000
0000
0000
0000
0000
0000
0000
0001
0000
0000
0000
,
1000
0100
0000
0001
0000
0000
0000
0000
0000
0000
0000
0000
0010
0000
0000
0000
,
0100
0010
0000
0001
0000
0000
0000
0000
0000
0000
0000
0000
0100
0000
0000
0000
,
1000
1000
0100
0100
,
0001
0001
0010
0010
,
1000
0100
0001
0100
,
1000
1001
0110
1001
,
0010
0000
0000
0010
0100
0000
1000
0000
0001
0000
0000
0001
1000
0000
0100
0000
,
0010
0000
0000
0010
0001
0000
0100
0000
0010
0000
0000
0010
1000
0000
0100
0000
,
1000
0000
0000
1000
0010
0000
0100
0000
0001
0000
0000
0001
0100
0000
0010
0000
,
1000
0000
0000
1000
0100
0000
0010
0000
0001
0000
0000
1000
0001
0000
0100
0000
,
0001
0000
0000
0001
0100
0000
0010
0000
1000
0000
0000
1000
0100
0000
1000
0000
,
0010
0000
0000
0010
0100
0000
0001
0000
0010
0000
0000
0010
0001
0000
0100
0000
,
0010
0000
0000
0010
1000
0000
0100
0000
0001
0000
0000
0001
0100
0000
0010
0000
,
1000
0100
0010
0001
1000
0100
0010
0001
,
1001
0100
0010
0100
,
0001
0100
0000
0100
0000
0010
0100
0000
1000
0000
0100
0000
1000
0000
0010
0000
,
0100
0001
0100
0010
,
1010
0100
0101
0010
,
1000
0100
0001
0100
,
1000
0010
0000
0001
0000
0010
1000
0000
0100
0000
0001
0000
0100
0000
1000
0000
,
0010
0100
0001
0100
,
1001
0110
1001
0110
,
1000
0100
1000
0000
0100
0010
0100
0000
0010
0001
0010
0000
0001
1000
0001
0000
,
1000
0000
0000
0010
0000
0000
0100
0000
0001
0000
0000
0100
0000
0000
0100
0000
,
1000
0000
0000
0100
0000
0000
0001
0000
1000
0000
0000
0100
0000
0010
1000
0000
,
0001
0000
0000
0010
0000
0000
0100
0000
1000
0000
0000
1000
0000
0000
0100
0000
,
0010
0000
0000
0010
0000
0000
0001
0000
0100
0000
0000
0100
0000
0100
0010
0000
,
1000
0000
0000
0100
0000
0000
0001
0000
0100
0000
0000
0001
0000
0000
0010
0000
,
1000
0000
0000
0100
0000
0000
0001
0000
1000
0000
0000
0010
0000
0000
0001
0000
,
0100
0000
0000
1000
0000
0000
0100
0000
0010
0000
0000
0001
0000
0000
0010
0000
,
1000
0001
1000
0001
0100
0010
0100
0010
,
1000
0000
0000
1000
0000
0000
1000
0000
0001
0000
0000
0001
0000
0000
0001
0000
;
