#TITLE:I Love Dance;
#SUBTITLE:;
#ARTIST:Teddy Bear;
#TITLETRANSLIT:;
#SUBTITLETRANSLIT:;
#ARTISTTRANSLIT:;
#GENRE:;
#CREDIT:DJSuperNOVA;
#MUSIC:I Love Dance.ogg;
#BANNER:I Love Dance.png;
#BACKGROUND:I Love Dance-bg.png;
#CDTITLE:;
#SAMPLESTART:14.103;
#SAMPLELENGTH:14.769;
#SELECTABLE:YES;
#OFFSET:1.589;
#BPMS:0.000=130.000;
#STOPS:;
#BGCHANGES:;
#FGCHANGES:;

//--------------- dance-single - DJSuperNOVA ----------------
#NOTES:
     dance-single:
     DJSuperNOVA:
     Beginner:
     2:
     0,0,0,0,0:
0000
0000
0000
0000
,
0100
0000
0000
0000
0000
0000
0000
0010
,
0000
0000
0000
0000
,
0100
0000
0000
0000
0000
0000
0000
0001
,
0000
0000
1000
0000
,
0001
0000
0000
0000
0000
0000
0000
0100
,
0000
0000
0010
0000
,
0100
0000
0000
0000
0000
0000
0000
0010
,
0000
0000
0000
0000
,
1001
0000
0000
0000
0000
0000
0000
1000
,
0000
0000
0001
0000
,
0100
0000
0000
0000
0000
0000
0000
0001
,
0000
0000
1000
0000
,
0001
0000
0000
0000
0000
0000
0000
0100
,
0000
0000
0010
0000
,
0010
0000
0000
0000
0000
0000
0000
1000
,
0000
0000
0000
0000
,
0001
0000
0000
0000
,
0001
0000
0000
0000
,
1000
0000
0000
0000
,
1000
0000
1000
0000
,
0010
0000
0000
0000
,
0100
0000
0001
0000
,
0001
0000
0000
0000
,
1000
0000
0000
0000
,
1001
0000
0000
0000
,
0000
0000
0000
0000
,
1001
0000
0000
0000
,
0000
0000
0000
0000
,
1001
0000
1000
0000
,
0001
0000
1000
0000
,
1001
0000
0000
0100
,
0001
0000
1000
0000
,
1001
0000
0000
0000
,
0100
0000
0000
0000
,
0001
0000
0000
0000
,
1000
0000
0000
0000
,
0001
0000
0000
0000
0000
0000
0000
1000
,
0000
0000
0000
0000
,
1001
0000
0000
0000
,
0100
0000
0100
0000
,
0010
0000
0000
0000
,
0110
0000
0000
0000
,
0001
0000
1000
0000
,
1000
0000
0000
0000
,
0001
0000
0100
0000
,
0100
0000
0000
0000
,
1000
0000
0010
0000
,
0010
0000
0001
0000
,
1000
0000
0000
0000
,
1001
0000
0000
0000
,
0001
0000
0000
0000
,
0100
0000
0000
0000
,
0001
0000
0000
0000
,
1001
0000
0000
0000
,
0010
0000
0000
0000
,
1000
0000
0000
0000
,
0001
0000
0001
0000
,
1000
0000
1000
0000
,
1001
0000
0000
0000
,
0001
0000
0000
0000
,
1000
0000
0000
0000
,
0010
0000
0100
0000
,
0010
0000
0000
0000
,
1000
0000
0000
0000
,
0001
0000
0000
0000
,
1000
0000
0000
0000
,
1001
0000
0000
0000
;

//--------------- dance-single - DJSuperNOVA ----------------
#NOTES:
     dance-single:
     DJSuperNOVA:
     Easy:
     5:
     0,0,0,0,0:
0000
0000
0000
0000
,
0001
0000
0000
0000
1000
0000
0000
0001
,
0000
0000
0100
0010
,
0001
0000
0000
0000
1000
0000
0000
0010
,
0000
0000
2000
0000
,
3001
0000
0000
0000
0100
0000
0000
0010
,
0000
1000
0100
0010
,
0001
0000
0000
0000
0001
0000
0000
0100
,
0000
0000
0000
1000
,
1001
0000
0100
0001
,
0100
1000
0010
0100
,
1000
0001
0010
0100
,
0001
0001
1000
1000
,
1001
0010
0100
0010
,
1000
0001
0100
1000
,
0010
0100
0010
0010
,
1001
0100
0100
0100
,
0001
0000
0001
0000
,
1000
1000
1000
0000
,
0010
0000
0010
0000
,
0100
0100
0100
0000
,
1000
0000
0100
0000
,
0010
0010
0001
0001
,
1000
0000
0001
0000
,
0100
0100
0010
0000
,
1001
0000
0100
0000
,
0010
1000
0100
0010
,
0101
0000
0010
0000
,
0001
0001
0100
0100
,
1010
0000
1000
1000
,
0010
0010
0100
0001
,
1001
0000
0000
0100
,
0010
0010
1000
0001
,
0101
0000
0000
0000
0001
0000
0000
0001
,
0000
0000
0010
0100
,
1000
0000
0000
0000
1000
0000
0000
1000
,
0000
0010
0100
0001
,
1001
0000
0000
0000
0100
0000
0000
0100
,
0000
0010
0100
1000
,
0011
0000
0000
0000
0100
0000
0000
0100
,
0001
0010
0100
0010
,
2000
3002
2003
3002
,
1003
0010
0100
0010
,
1000
0010
0100
0101
,
0001
0010
0100
1000
,
0010
0100
1000
1010
,
0001
0100
0001
1000
,
0010
1000
0010
1010
,
0001
1000
0001
1000
,
0010
0010
0100
0100
,
1001
0000
0000
0000
0001
0000
0000
0001
,
0010
0000
0100
0000
1000
0000
0000
1000
,
0010
0000
0100
0000
0010
0000
0000
0010
,
0100
0010
0100
0010
,
0110
0000
1000
0000
0001
0000
0000
0010
,
1000
0000
0010
0000
0100
0000
0000
0010
,
0001
1000
0001
1000
,
1001
0110
1001
0110
,
1000
0000
0001
0000
0010
0010
0010
0000
,
1001
0000
0100
0001
,
0100
1000
0010
0100
,
1000
0001
0010
0100
,
0001
0001
1000
1000
,
1001
0010
0100
0010
,
1000
0001
0100
1000
,
1010
0100
0010
0010
,
1001
0100
0100
0100
,
0001
0000
0000
0000
0000
0000
0000
0000
1000
0000
0000
1000
0000
0000
0001
0000
;

//--------------- dance-single - DJSuperNOVA ----------------
#NOTES:
     dance-single:
     DJSuperNOVA:
     Medium:
     7:
     0,0,0,0,0:
0000
0000
0000
0000
,
1001
0000
0000
0000
0000
0000
0001
0000
1000
0000
0000
0100
0000
0000
0001
0000
,
0000
0000
1000
0010
,
0011
0000
0000
0000
0000
0000
0001
0000
0100
0000
0000
1000
0000
0000
0001
0000
,
0000
0000
2002
3003
,
0110
0000
0000
0000
0000
0000
0010
0000
1000
0000
0000
0100
0000
0000
0001
0000
,
0000
0010
1000
0001
,
0101
0000
0000
0000
0000
0000
1000
0000
0010
0000
0000
0100
0000
0000
0001
0000
,
0000
0000
2002
0000
3003
1000
0001
1000
,
0001
0000
0000
0000
0000
0000
0100
0000
0001
0000
0000
1000
0000
0000
0001
0000
,
0000
0101
1000
0001
,
1010
0000
0000
0000
0001
0000
0000
0000
0100
0000
0000
0001
0000
0000
0100
0000
,
0000
0100
0010
0100
0002
0003
2000
3000
,
1001
0000
0000
0000
0100
0000
0000
0000
0001
0000
0000
0100
0000
0000
1000
0000
,
0000
0101
0100
1100
,
1001
0000
0000
0000
0100
0000
0010
0000
0001
0000
0000
0001
0000
0000
0001
0000
,
1000
1000
0001
0001
,
1001
0100
0010
0001
,
0010
0110
1001
0110
,
1001
0010
0100
1000
,
0020
0000
0000
0030
0200
0000
0000
0300
0002
0000
0000
0003
2000
0000
0000
3000
,
0010
0100
0001
0000
1000
0000
0010
0000
,
1000
0101
0100
1010
,
0101
0000
0000
0001
0000
0000
1000
0000
0001
0000
0000
1000
0000
0000
1000
0000
,
0010
0010
0010
0010
,
1001
1000
0001
0101
,
1000
0000
1100
0000
1000
0100
0001
0000
,
0101
0001
0110
0100
,
0010
0000
0000
0010
0000
0000
0010
0000
0100
0000
0001
0000
1000
0000
0000
0000
,
1001
0100
0010
0100
0001
1000
0010
0100
,
0001
0010
0100
1000
0001
0010
0100
1000
,
0001
0000
0000
1000
,
0001
0100
1000
0100
0001
0000
1001
0000
,
0100
0000
0001
0000
1000
0010
0100
0000
,
1000
0000
0001
0000
0010
0001
0100
0000
,
1000
0000
0001
0000
1000
0100
0010
0000
,
2000
0000
0000
3000
0002
0000
0000
0003
0200
0000
0000
0300
0020
0000
0000
0030
,
1000
0000
0000
1000
0000
0000
1000
0000
0001
0000
0000
0001
0000
0000
0001
0000
,
0000
0110
1001
0110
,
1001
0000
0000
0000
0100
0000
0001
0000
0010
0000
0000
0010
0000
0000
0010
0000
,
1000
0010
1000
0010
,
0100
0010
0100
0010
0100
0000
1001
0000
,
0100
0000
0010
0000
0001
0000
0100
0000
0020
0000
0000
1030
0000
0000
0000
0000
,
0001
1000
0001
1000
,
0001
0000
0100
0000
0010
0000
1000
0000
0200
0000
0000
0301
0000
0000
0000
0000
,
1000
0000
0010
0000
0001
0100
1000
0000
,
1001
0000
0000
0000
0100
0000
0010
0000
0002
0000
0000
1003
0000
0000
0000
0000
,
0001
0001
1000
1000
,
1001
0000
0100
0000
0001
0100
1000
0000
,
0010
0000
0100
0000
1000
0010
0001
0000
,
1010
0000
0010
0000
0001
0100
0001
0000
,
1000
0000
0010
0000
1000
0100
1000
0000
,
0010
0000
0100
0000
0001
0010
0001
0000
,
1000
0000
0010
0000
1000
0100
0010
0000
,
0011
0000
0100
0000
0010
0100
1000
0000
,
0001
0000
1000
0000
0010
0100
0001
0000
,
1000
0000
0001
0000
0010
0100
0010
0000
,
1001
0110
1001
0110
,
1000
0000
0101
0000
0010
1000
0100
0000
,
0001
0000
0000
0000
0000
0000
0100
0000
0001
0000
0000
1000
0000
0000
0001
0000
,
0000
0101
1000
0101
,
1010
0000
0000
0000
0001
0000
0000
0000
0100
0000
0000
0001
0000
0000
0100
0000
,
0000
0100
0010
0100
0002
0003
2000
3000
,
1001
0000
0000
0000
0100
0000
0000
0000
0001
0000
0000
0100
0000
0000
1000
0000
,
0000
0101
0100
1100
,
1001
0000
0000
0000
0100
0000
0010
0000
0001
0000
0000
0001
0000
0000
0001
0000
,
1000
0100
0010
0001
,
1001
0000
0000
0000
0000
0000
1000
0000
0001
0000
0000
0100
0000
0000
0010
0000
;

//--------------- dance-single - DJSuperNOVA ----------------
#NOTES:
     dance-single:
     DJSuperNOVA:
     Hard:
     13:
     0,0,0,0,0:
0000
0000
0000
0000
,
1001
0000
0000
0000
0000
0000
0001
0000
0101
0000
0000
0100
0000
0000
1000
0000
,
0000
0000
1010
0100
,
0011
0000
0000
0000
0000
0000
0001
0000
0101
0000
0000
0100
0000
0000
0010
0000
,
0000
0000
2020
3030
,
0011
0000
0000
0000
0000
0000
0010
0000
1010
0000
0000
1000
0000
0000
0100
0000
,
0000
0101
1010
0110
,
0101
0000
0000
0000
0000
0000
0010
0000
1010
0000
0000
0010
0000
0000
0100
0000
,
0000
0000
0002
0000
0003
1000
0001
0000
,
1010
0000
0000
0000
0001
0000
0100
0000
1000
0000
0000
0100
0000
0000
0001
0000
,
0000
1001
1100
1001
,
0110
0000
0000
0000
1000
0000
0100
0000
0001
0000
0000
0100
0000
0000
0001
0000
,
0000
0000
1000
0000
0010
0000
0100
0000
0002
0000
0000
1003
0000
0000
0000
0000
,
1010
0000
0000
0000
0100
0000
0010
0000
0001
0000
0000
0100
0000
0000
1000
0000
,
0000
1001
0110
1001
,
0110
0000
0000
0100
0010
0000
1000
0000
0001
0000
0000
0001
0000
0000
1000
0000
,
0010
0100
0010
0100
0001
1000
0001
1000
,
1001
0000
0000
0000
0010
0000
0001
0000
0100
0000
0000
0010
0100
0000
0010
0000
,
1000
1010
0110
0101
,
1001
0000
0000
0100
0001
0000
0100
0000
1000
0000
0000
1000
0000
0000
0001
0000
,
2000
0000
0000
3000
0200
0000
0000
0300
0020
0000
0000
0030
0002
0000
0000
0003
,
1000
0000
0000
0000
1001
0000
0100
0000
0010
0000
0000
0010
1000
0000
0001
0000
,
1000
0011
1100
0011
,
1001
0000
0000
1000
0001
0000
1000
0000
0010
0000
0000
0010
0000
0000
0100
0000
,
0001
0000
0000
0000
0100
0000
0000
0000
0010
0000
0000
0000
1000
0000
0000
0100
0000
0000
0000
1000
0000
0000
0001
0000
0000
0000
1000
0000
0000
0100
0000
0000
,
0001
1000
0010
0100
0001
1000
1001
0010
,
0100
0000
0010
0000
1010
0000
0100
0000
0010
0001
0010
0001
0100
0000
0000
0000
,
0110
0000
0100
0000
0001
0000
1000
0100
1000
0100
1000
0000
0010
0000
0010
0000
,
0100
0000
0000
0001
0000
0000
1000
0001
1000
0001
1000
0000
1001
0000
0000
0000
,
0110
1000
0100
0010
0001
0100
0010
1000
,
0100
0010
0001
0010
0100
1000
0100
0010
,
0110
0000
0000
0000
0000
0000
0000
0000
0000
0000
0000
0000
1001
0000
0000
1000
,
0001
0100
0010
1000
0001
1000
1001
0000
,
0110
0000
0100
0000
0010
0000
0100
0010
0000
0010
0100
0000
0001
0000
1000
0000
,
1000
0000
0010
0000
0100
0000
0001
1000
0000
1000
0001
0000
0100
0000
0010
0000
,
1000
0000
0010
0000
1000
0000
0100
0010
0000
0010
0100
0000
0010
0000
1000
0000
,
0002
0000
0000
0003
0020
0000
0000
0030
0200
0000
0000
0300
2000
0000
0000
3000
,
0001
0000
0100
0001
0000
0100
0001
0000
1000
0000
0000
0010
0000
0000
1000
0000
,
0001
0000
0100
0000
0010
1000
0000
0000
0110
0000
0000
0000
1001
0000
0000
0000
,
0110
0000
0000
0000
0100
0000
0010
0000
0001
0000
0000
1000
0000
0000
0010
0000
,
1000
0100
1000
0001
0100
0001
1000
0010
,
1000
0001
1000
0010
1000
0001
1000
0000
,
1001
0000
0100
0000
0001
0000
1000
0000
0020
0000
0000
0130
0000
0000
1000
0001
,
0000
0000
0001
0000
1000
0000
0010
0000
0100
0010
0100
0000
0001
0000
0000
0000
,
1001
0000
0010
0000
0100
0000
1000
0000
0020
0000
0000
1030
0000
0000
0001
1000
,
0000
0000
1000
0000
0001
0000
0100
0000
0010
0000
1000
0000
0010
0001
0000
0000
,
1100
0000
0010
0000
0001
0000
0100
0000
0010
1000
0010
1000
0000
0000
0010
0100
,
0000
0000
0100
0000
0001
0000
1000
0000
0010
1000
0000
0010
0000
1000
0010
0000
,
0011
1100
0011
1100
,
0001
0100
0010
1000
0001
0100
0010
0000
,
2001
0000
3002
0000
1003
0100
0010
0100
,
0000
0001
0100
0000
1000
0010
0100
0000
,
1010
0000
0101
0000
1000
0100
1000
0010
,
0000
0010
0100
0001
0000
0001
1000
0010
,
0110
0000
1000
0000
0001
0100
1000
0001
,
0000
1000
0001
0000
1000
0100
0001
1000
,
0001
0000
1010
0000
0001
0010
0100
1000
,
0011
1100
0011
1100
,
1001
0000
0000
0000
0110
0000
0000
0000
0001
0000
0000
1000
0002
0000
0000
0003
,
1001
0000
0000
0000
0001
0000
0100
0000
1000
0000
0000
0100
0000
0000
0001
0000
,
0000
1001
1100
1001
,
0110
0000
0000
0000
1000
0000
0100
0000
0001
0000
0000
0100
0000
0000
0001
0000
,
0000
0000
1000
0000
0010
0000
0100
0000
0002
0000
0000
1003
0000
0000
0000
0000
,
1010
0000
0000
0000
0100
0000
0010
0000
0001
0000
0000
0100
0000
0000
1000
0000
,
0000
1001
0110
1001
,
0110
0000
0000
0100
0010
0000
1000
0000
0001
0000
0000
0001
0000
0000
1000
0000
,
0010
0100
0010
0100
0001
1000
0001
1000
,
1001
0000
0000
0000
0000
0000
0001
0000
0010
0000
0000
0100
0000
0000
1001
0000
;

//--------------- dance-single - DJSuperNOVA ----------------
#NOTES:
     dance-single:
     DJSuperNOVA:
     Challenge:
     16:
     0,0,0,0,0:
0000
0000
0000
0000
,
1001
0000
0000
0000
0000
0000
1000
0000
1010
0000
0000
0110
0000
0000
0101
0000
,
0000
0000
0200
0320
,
0031
0000
0000
0000
0000
0000
0001
0000
0011
0000
0000
0110
0000
0000
1100
0000
,
0000
0000
2020
3030
,
0101
0000
0000
0000
0000
0000
0100
0000
0101
0000
0000
1001
0000
0000
1010
0000
,
0000
1002
2003
3020
,
0130
0000
0000
0000
0000
0000
0100
0000
0110
0000
0000
1010
0000
0000
0101
0000
,
0000
0000
0000
0000
1001
0000
0000
0000
0000
0000
1000
0000
0001
0000
0000
1000
,
0001
1000
0100
0010
0001
0000
0100
0000
0010
0000
0000
0100
1000
0000
0010
0000
,
0100
0000
0000
0000
0101
0000
1000
0000
0100
1000
0010
0000
0001
0000
0100
0010
,
1000
0000
0100
0000
0001
0000
0100
0000
0010
0000
0000
0100
1000
0000
0001
0000
,
0100
0000
0001
0000
0010
0000
0100
0000
1000
0001
1000
0000
1010
0000
0000
0000
,
0101
0000
0000
0000
0100
0000
1000
0000
0010
0000
0000
0010
1000
0000
0010
0000
,
1000
0000
2002
3003
0220
0330
2002
3003
,
1001
0000
0000
1000
0001
0000
1000
0000
0010
0000
0000
0100
0010
0000
0001
0000
,
1000
0010
1000
0010
0100
0001
0100
0001
1000
0100
1000
0100
0010
0001
0010
0001
,
1000
0100
0010
0001
1000
0000
0001
0000
1000
0000
0000
0010
0100
0000
1000
0000
,
0010
0100
0011
0000
1001
0000
1100
0000
,
1000
0100
0010
0001
1000
0000
0001
0000
0100
0000
0000
0001
0100
0000
0010
0000
,
2000
3020
0230
0302
,
1003
0100
0010
0001
1000
0000
0010
0000
1000
0000
0000
0001
1000
0000
0010
0000
,
0100
0000
0202
0303
2020
3030
0202
0303
,
1001
0000
0000
0010
0100
0000
0010
0000
1001
0000
0000
0100
0001
0000
1000
0000
,
0001
0000
0000
0000
1000
0000
0000
0000
0010
0000
0000
0000
1000
0000
0000
0100
0000
0000
0000
0010
0000
0000
0001
0000
0000
0000
0010
0000
0000
0100
0000
0000
,
1010
0000
0001
0100
0001
0000
1000
0000
0010
0000
0100
0000
0101
0000
0010
0000
,
1000
0000
0010
0100
0001
0000
0001
0010
0100
0010
1000
0000
1001
0000
1000
0100
,
0001
0000
0100
0000
0010
0000
1000
0010
1000
0100
1000
0010
1000
0000
1000
0000
,
0101
0000
0100
0010
0000
1000
0010
0100
0010
1000
0010
0100
0020
0000
0230
0000
,
0301
0000
0001
0100
0010
1000
0001
0010
0100
1000
0001
0100
0010
1000
0001
0010
,
0100
0010
0001
1000
0100
0010
0001
0100
0010
0001
0010
0001
1000
0100
1000
0100
,
0110
0000
0000
0000
0000
0000
0000
0000
0000
0000
0000
0000
1001
0000
0000
0010
,
0001
0000
1000
0000
0100
1000
0100
0000
0011
0000
0100
0000
1010
0000
0000
0000
,
1001
0000
0100
0000
0001
0000
1000
0010
0000
0010
1000
0000
0001
0000
0100
0000
,
0010
0000
1000
0000
0001
0000
0100
0010
0000
0010
0100
0000
0010
0000
1000
0000
,
0001
0010
0100
1000
0010
0000
1000
0001
0000
0001
1000
0000
0010
0000
0100
0000
,
2000
3200
0320
0032
,
1003
0000
0010
0100
0000
0001
0100
0000
1010
0000
0000
0101
0000
0000
1100
0000
,
0000
0000
0010
0000
0001
0200
0000
0000
0320
0000
0000
0000
2030
0000
0000
0000
,
3001
0100
0001
0100
0010
1000
0010
0000
1010
0000
1000
0010
0000
0100
0010
0000
,
0001
0100
0001
0100
0010
1000
0010
1000
0001
0010
0100
1000
0001
0000
0000
0000
,
1000
0100
1000
0001
0100
0001
1000
0100
1000
0001
0000
0000
1001
0000
0000
1000
,
0001
0000
0100
0000
0010
0000
1000
0000
0020
0000
0130
0001
0000
1000
0010
0000
,
0000
0100
0010
0000
1001
0000
0100
0001
0010
0001
0100
0000
1000
0100
0010
0100
,
1100
0000
0001
0000
0100
0000
1000
0100
0001
0100
1000
0000
0011
0000
1000
0010
,
0000
1000
0010
0000
0101
0000
1000
0010
0100
0010
0001
0000
1000
0010
1000
0010
,
1010
0000
0100
0000
0001
0000
1000
0100
1000
0100
1000
0010
0000
0100
0001
1000
,
0010
0000
0100
0000
0110
0000
0100
0010
0000
0010
1000
0000
0001
1000
0100
0010
,
0001
1000
0010
1000
0010
0100
0001
1000
,
0100
0010
1000
0100
0010
0001
0100
0001
1000
0010
0100
0001
0010
0100
0010
0100
,
1000
0000
0000
0000
0101
0000
0000
0000
1000
0000
0000
1000
0001
0000
0100
0000
,
0010
0000
0000
0000
1010
0000
0000
0000
0001
0100
0000
0000
0101
0000
0010
1000
,
0100
0000
0000
0000
0110
0000
0000
0000
1000
0010
0000
0100
0001
0000
1000
0000
,
0010
0000
0000
0000
0110
0000
0000
0000
1000
0100
0001
0000
1001
0000
0000
0000
,
1001
0000
0000
0000
0001
0000
1000
0000
0010
0000
0000
0100
0001
0000
1000
0000
,
0010
0000
1000
0000
0100
0000
0010
0000
0001
0100
0001
0000
1000
0000
0100
1000
,
0100
0000
0010
0000
1000
0000
0001
0000
1000
0000
0010
0000
0100
0000
1000
0100
,
0011
1100
0011
1100
,
1001
0000
0000
0000
0110
0000
0000
0000
0100
0000
0000
0000
0001
0100
0001
0100
,
0020
0000
0030
0010
0100
0000
0001
0000
1001
0000
0000
1000
0010
0000
1000
0000
,
0100
1000
0011
0000
1010
0000
0101
0000
,
1000
0100
0010
0001
1000
0000
0010
0000
1010
0000
0000
0100
0001
0000
1000
0000
,
0100
0000
0010
0000
0100
0000
1000
0000
0020
0000
0000
0031
1000
0000
0000
0000
,
1010
0000
0100
0010
0100
0010
0001
0000
0101
0000
0000
0100
0010
0000
1010
0000
,
1000
0000
0202
0303
2020
3030
0202
0303
,
1001
0000
0000
0001
1000
0000
0100
0000
0011
0000
0100
1000
0000
0100
0010
0000
,
1000
0001
1000
0001
0100
0010
0100
0010
1000
0100
1000
0100
0010
0001
0010
0000
,
1001
0000
0000
0000
0000
0000
0001
0000
0101
0000
0000
0110
0000
0000
1010
0000
;
