#TITLE:Hallucination;
#SUBTITLE:;
#ARTIST:CHERIV;
#TITLETRANSLIT:;
#SUBTITLETRANSLIT:;
#ARTISTTRANSLIT:;
#GENRE:;
#CREDIT:DJSuperNOVA;
#MUSIC:Hallucination.ogg;
#BANNER:Hallucination.png;
#BACKGROUND:Hallucination-bg.png;
#CDTITLE:;
#SAMPLESTART:88.441;
#SAMPLELENGTH:28.872;
#SELECTABLE:YES;
#OFFSET:-0.027;
#BPMS:0.000=133.000
,131.000=66.500
,131.250=133.000
,131.500=266.000
,132.000=66.500
,132.500=266.000
,133.500=133.000
,136.000=66.500
,136.250=266.000
,136.750=66.500
,137.000=266.000
,137.500=133.000
,139.000=266.000
,139.500=133.000
,139.750=66.500
,140.000=133.000
,144.000=66.500
,144.250=266.000
,144.750=66.500
,145.000=266.000
,145.500=133.000
,146.000=66.500
,146.250=266.000
,146.750=66.500
,147.000=266.000
,147.500=133.000
,148.000=66.500
,148.500=266.000
,149.500=133.000
,152.000=66.500
,152.250=266.000
,152.750=66.500
,153.000=266.000
,153.500=133.000
,155.000=266.000
,155.500=66.500
,155.750=133.000
,160.000=66.500
,160.250=266.000
,160.750=66.500
,161.000=266.000
,161.500=133.000
,163.000=66.500
,163.250=133.000
,163.500=266.000
,164.000=133.000
,195.000=66.500
,195.250=133.000
,195.500=266.000
,196.000=133.000
,259.000=66.500
,259.250=133.000
,259.500=266.000
,260.000=133.000
;
#STOPS:;
#DISPLAYBPM:133.000;
#BGCHANGES:;
#FGCHANGES:;

//--------------- dance-single - DJSuperNOVA ----------------
#NOTES:
     dance-single:
     DJSuperNOVA:
     Beginner:
     3:
     0,0,0,0,0:
0000
0000
0000
0000
,
0000
0000
0000
0000
,
0000
0000
0000
0000
,
0000
0000
0000
0000
,
0000
0000
0000
0000
,
0010
0000
0000
0000
,
0100
0000
0000
0000
,
0001
0000
0000
0000
,
1001
0000
0000
0000
,
1000
0000
0000
0000
,
0001
0000
0000
0000
,
1000
0000
0000
0000
,
0001
0000
0000
0000
,
0100
0000
0000
0000
,
0010
0000
0000
0000
,
0100
0000
0000
0000
,
0010
0000
0000
0000
,
1000
0000
1000
0000
,
0001
0000
0000
0000
,
0001
0000
0001
0000
,
1000
0000
0000
0000
,
0010
0000
0010
0000
,
0100
0000
0000
0000
,
0100
0000
0100
0000
,
0010
0000
0000
0000
,
1000
0000
0001
0000
,
1000
0000
0001
0000
,
0100
0000
0010
0000
,
0100
0000
0010
0000
,
1000
0000
1000
0000
,
0001
0000
0001
0000
,
0100
0000
0100
0000
,
0010
0000
0010
0000
,
1001
0000
1000
0000
,
0001
0001
0001
0000
,
1000
0000
1000
0000
,
0010
0000
0010
0000
,
0100
0000
1000
0000
,
1000
1000
1000
0000
,
0100
0000
0001
0000
,
1000
0000
1001
0000
,
1000
0000
0010
0000
,
0100
0000
0100
0000
,
0001
0000
1000
0000
,
0010
0010
0010
0000
,
1000
0000
0001
0000
,
1000
0000
0010
0000
,
0100
0000
0001
0000
,
1000
1000
0001
0000
,
1001
0000
0100
0000
,
0010
0000
0100
0000
,
0001
0000
0100
0000
,
1000
0000
0100
0000
,
0001
0000
0001
0000
,
1000
0000
1000
0000
,
0010
0000
0010
0000
,
0100
0000
0001
0000
,
1000
0000
0001
0000
,
1000
0000
1000
0000
,
0001
0000
0001
0000
,
0100
0000
0010
0000
,
0100
0000
0010
0000
,
0001
0000
1000
0000
,
0001
0000
0100
0000
,
0010
0000
1000
0000
,
1001
0000
0001
0000
,
1000
0000
0001
0000
,
0100
0000
0100
0000
,
0010
0000
0010
0000
,
1000
0000
0100
0000
,
0001
0000
0001
0000
,
0100
0000
0100
0000
,
1000
0000
1000
0000
,
0010
0000
0100
0000
,
0010
0000
1000
0000
,
0001
0000
0001
0000
,
1000
0000
0010
0000
,
1000
0000
0001
0000
,
0100
0000
0001
0000
,
1000
0000
1000
0000
,
1001
0000
1001
0000
,
0110
0000
0000
0000
;

//--------------- dance-single - DJSuperNOVA ----------------
#NOTES:
     dance-single:
     DJSuperNOVA:
     Easy:
     6:
     0,0,0,0,0:
0000
0000
0000
0000
,
1000
0000
1000
0000
,
0001
0000
0001
0000
,
1000
0000
0001
0000
,
1000
0000
0010
0000
,
1000
0100
0010
1000
,
0010
0001
0100
0001
,
1000
0010
1000
0001
,
2002
0000
0000
3003
,
0110
0000
0000
0000
0000
0000
0000
0100
0000
0000
0100
0000
0000
0000
0000
0000
,
0001
0000
0000
0000
0000
0000
0000
0001
0000
0000
0001
0000
0000
0000
0000
0000
,
1000
0000
0000
0000
0000
0000
0000
1000
0000
0000
1000
0000
0000
0000
0000
0000
,
0100
0000
0000
0000
0000
0000
0000
0100
0000
0000
0100
0000
0000
0000
0000
0000
,
0010
0000
0000
0000
0000
0000
0000
0010
0000
0000
0010
0000
0000
0000
0000
0000
,
1000
0000
0000
0000
0000
0000
0000
1000
0000
0000
1000
0000
0000
0000
0000
0000
,
0001
0000
0000
0000
0000
0000
0000
0001
0000
0000
0001
0000
0000
0000
0000
0000
,
0110
0000
0000
0000
0000
0000
0000
0010
0000
0000
0100
0000
0000
0000
0000
0000
,
1000
0001
0100
0010
,
1000
0001
0010
1000
,
0100
0001
0100
1000
,
0001
0010
0001
0100
,
1000
0100
0001
1000
,
0010
0001
0100
0001
,
0100
1000
0001
0010
,
0100
1000
0100
0001
,
1001
1000
1000
0100
,
0001
0001
1000
1000
,
0100
0010
0001
0100
,
0010
0010
0100
0100
,
0001
1000
0001
1000
,
0010
0100
0010
0100
,
1000
1000
1000
0000
0001
0001
0001
0000
,
0210
0000
0300
0110
,
2002
3003
0000
0000
1001
0000
0000
0000
,
0010
0000
0000
0010
0000
0000
0010
0000
0100
0000
0000
0000
0000
0000
0000
0000
,
1000
0001
1000
0010
,
0100
0000
0000
0100
0000
0000
0100
0000
0010
0000
0000
0010
0000
0000
0010
0000
,
0220
0330
0000
0000
0110
0000
0000
0000
,
0001
0000
0000
1000
0000
0000
0001
0000
1000
0000
0000
0000
1001
0000
0000
0000
,
0001
1000
0001
1000
,
0001
0000
0000
0001
0000
0000
0001
0000
1000
0000
0000
0000
1001
0000
0000
0000
,
0110
0001
0100
1000
,
0010
0000
0000
0010
0000
0000
0010
0000
0100
0000
0000
0000
0100
0000
0000
0000
,
1000
0010
0100
0001
,
0101
1010
0110
1001
,
1010
0001
1000
0001
,
0100
0000
0000
1000
0000
0000
0001
0000
1000
0000
0000
0000
1001
0000
0000
0000
,
0010
0100
0001
0100
,
1000
0110
0011
1100
,
1001
0100
0010
0010
,
0001
0000
0000
0000
1000
0000
0000
0000
0100
0000
0000
0010
0000
0000
0001
0000
,
1000
0001
1000
0001
,
1000
0010
0001
1010
,
0010
0010
0001
1010
,
0001
0000
0000
0000
0100
0000
0000
0000
1000
0000
0000
0010
0000
0000
0001
0000
,
0100
0100
0001
0101
,
1000
1000
0001
1001
,
0100
0001
0100
1000
,
0010
1000
0001
0001
,
0010
0100
1000
1000
,
0010
0100
0010
1001
,
0001
1000
0010
0100
,
0001
1000
0100
0001
,
1000
0010
0001
1010
,
0100
0001
0010
0101
,
2002
0000
3003
0000
1000
0000
0000
0000
0100
0000
0000
0100
0010
0000
0000
0010
,
0001
0100
1000
1010
,
0001
0010
0100
1000
,
0001
1000
0100
0010
,
1001
0000
0000
0000
1000
0000
0000
0000
0010
0000
0000
0010
0100
0000
0000
0100
,
0010
1000
0001
0010
,
0001
1000
0010
0100
,
0001
0010
0100
1000
,
1001
0000
0000
0000
0100
0000
0000
0000
1000
0000
0000
0001
0100
0000
0000
0100
,
0010
0100
0010
1000
,
0001
1000
0010
0110
,
0100
0001
1000
0110
,
1001
0000
0000
0000
0001
0000
0000
0000
0010
0000
0000
0010
1000
0000
0000
1000
,
0010
0100
0001
0100
,
1000
0001
1000
0001
,
0100
0010
0100
0010
,
0220
0000
0000
0000
,
0000
0000
0000
0000
,
0330
0000
0000
0000
;

//--------------- dance-single - DJSuperNOVA ----------------
#NOTES:
     dance-single:
     DJSuperNOVA:
     Medium:
     11:
     0,0,0,0,0:
0000
0000
0000
0000
,
1000
0100
1000
0100
,
0001
0100
0001
0100
,
1000
0100
0001
0100
,
1000
0100
0010
0001
,
1000
0100
0010
1000
,
0010
0001
0100
0001
,
1000
0010
1000
0001
,
1000
0100
1000
0100
0010
0001
0010
0000
,
1001
0000
0000
0000
0000
0000
0000
0001
1000
0000
0100
0000
0000
0000
0000
0000
,
0001
0000
0000
0000
0000
0000
0000
1000
0100
0000
0010
0000
0000
0000
0000
0000
,
0001
0000
0000
0000
0000
0000
0000
1000
0010
0000
1000
0000
0000
0000
0000
0000
,
0010
0000
0000
0000
0000
0000
0000
0100
0010
0000
0100
0000
0000
0000
0000
0000
,
0100
0000
0000
0000
0000
0000
0000
0100
1000
0000
1000
0000
0000
0000
0000
0000
,
0001
0000
0000
0000
0000
0000
0000
1000
0010
0000
0010
0000
0000
0000
0000
0000
,
1001
0000
0000
0000
0000
0000
0000
1000
0001
0000
0001
0000
0000
0000
0000
0000
,
0110
0000
0000
0000
0000
0000
0000
0010
0100
0000
0100
0000
0000
0000
0000
0000
,
1000
0010
1000
0100
1000
0010
0100
0000
,
0010
0100
0001
0100
0010
0100
1000
0000
,
0100
0010
0100
0001
0100
0010
1000
0000
,
0001
0100
0010
0100
0001
1000
0100
0000
,
1000
0001
0100
0010
0100
0001
1000
0010
,
0100
0001
0010
0001
0100
1000
0001
0100
,
1000
0100
0001
1000
0001
0100
0010
1000
,
0100
0010
1000
0001
1000
0010
0001
0000
,
0100
0000
0010
0000
1000
0010
0000
1000
0010
0000
0100
0010
0000
0100
0010
0000
,
0001
0000
0100
0000
0010
1000
0000
0010
1000
0000
0010
0100
0000
0001
0010
0000
,
0100
0000
0001
0000
0100
0001
0000
0100
0001
0000
0100
0010
0000
0100
0010
0000
,
0100
0000
0001
0000
0100
0010
0000
0100
0010
0000
0100
0001
0000
1000
0100
0000
,
0001
1000
0010
0100
0001
1000
0010
0100
,
0001
1000
0100
0010
0001
0100
0010
1000
,
0001
1000
0010
0001
0010
1000
0100
0001
,
0100
1000
0100
0010
0100
0010
0100
0000
,
2002
3003
0000
0000
1001
0000
0000
0000
,
0010
0000
0000
0010
0000
0000
0010
0000
0100
0000
0010
0000
0100
0000
0000
0000
,
1000
0000
0000
0000
0000
0100
0000
0000
0000
0010
0000
0000
0000
0001
0000
0000
0000
0010
0000
0000
0000
0100
0000
0000
1000
0000
0000
0000
0000
0000
0000
0000
0000
0000
0000
0000
1010
0000
0000
0000
0000
0000
0000
0000
0000
0000
0000
0000
,
0001
0000
0000
0100
0000
0000
1000
0000
0010
0000
0000
0100
0000
0000
0001
0000
,
0220
0330
0000
0000
0110
0000
0000
0000
,
0010
0000
0000
1000
0000
0000
0001
0000
1000
0000
0010
0000
1000
0000
0000
0000
,
0001
0000
0000
0000
0000
0010
0000
0000
0000
0100
0000
0000
0000
1000
0000
0000
0000
0100
0000
0000
0000
0010
0000
0000
0001
0000
0000
0000
0000
0000
0100
0000
0000
0000
0000
0000
0010
0000
0000
0000
0000
0000
0000
0000
0000
0000
0000
0000
,
0001
0000
0000
0100
0000
0000
1000
0000
0010
0000
0000
0000
1001
0000
0000
0000
,
0101
0000
0001
0010
1000
0010
0001
0000
,
0001
0000
0000
0100
0000
0000
1000
0000
0100
0000
0010
0000
0001
0000
0000
0000
,
1000
0000
0010
0000
1000
0000
0010
0000
1000
0000
0001
0000
0100
0000
0001
0000
0100
0000
0001
0000
0000
1000
0000
0000
,
0101
1010
0110
1001
,
1010
0000
0001
0100
1000
0100
0001
0000
,
0001
0000
0000
1000
0000
0000
0001
0000
1000
0000
0010
0000
1000
0000
0001
0000
,
0100
0010
0200
0000
1300
0010
0100
0001
,
1000
0110
0011
1100
,
1001
0000
0100
0001
0010
0000
1010
0000
,
0101
0000
0000
0000
1000
0000
0010
0000
0100
0000
0000
0010
0100
0000
0001
0000
,
1010
0000
0001
0100
1000
0000
0101
0000
,
1100
0000
0010
1000
0001
0000
1010
0000
,
0110
0000
0010
1000
0001
0000
1010
0000
,
0011
0000
0000
0000
0100
0000
1000
0000
0100
0000
0000
0010
1000
0000
0001
0000
,
0110
0000
0100
1000
0001
0000
0101
0000
,
1010
0000
1000
0100
0001
0000
1001
0000
,
1000
0100
0001
0100
0001
1000
0010
0100
,
0010
0001
1000
0100
0001
0100
0001
1000
,
0010
1000
0100
0010
0001
0100
0010
0000
,
0010
0100
0010
0001
1000
0100
1000
0000
,
0001
0100
1000
0010
1000
0010
0100
0000
,
0010
0100
1000
0010
0100
0010
0001
0000
,
1010
0110
0101
1010
,
1000
0000
0001
0000
0010
0100
0010
0000
,
2002
0000
3003
0000
1000
0000
0010
0000
1000
0000
0000
0010
0100
0000
0000
0001
,
0010
0000
0001
0000
0100
0000
0010
0000
1000
0000
0000
1000
0010
0000
0100
0000
,
0001
0000
1000
0000
0010
0000
1000
0000
0100
0000
0000
0001
0100
0000
0000
0010
,
1000
0001
1000
0100
1000
0010
0100
0000
,
0001
0000
0100
0000
0001
0000
1000
0000
0010
0000
0000
0001
0100
0000
0000
0010
,
1000
0000
0001
0000
0100
0000
0001
0000
1000
0000
0000
0100
0010
0000
0100
0000
,
0001
0000
0000
0100
1000
0000
0001
0000
0010
0000
0001
0000
0100
0000
0001
0000
,
0100
0000
0000
0100
0010
0000
0000
0010
0100
0000
0001
0000
1000
0000
0000
0000
,
1000
0000
0010
0000
0100
0000
0010
0000
1000
0000
0000
0001
0100
0000
0000
0100
,
0010
0000
1000
0000
0100
0000
0001
0000
0010
0000
0000
0100
1000
0000
0100
0000
,
0001
0000
1100
0000
0110
0000
0010
0001
,
0100
0001
1000
0010
1000
0100
0110
0000
,
1001
0000
0000
0000
0101
0000
1000
0000
0010
0000
0000
0010
1000
0000
0000
0010
,
0100
0000
0001
0000
1000
0000
0010
0000
0100
0000
0000
0100
0001
0000
0100
0000
,
1020
0001
1000
0031
,
1200
0001
1000
0301
,
0220
0000
0000
0000
,
0000
0000
0000
0000
,
0330
0000
0000
0000
;

//--------------- dance-single - DJSuperNOVA ----------------
#NOTES:
     dance-single:
     DJSuperNOVA:
     Hard:
     14:
     0,0,0,0,0:
0000
0000
0000
0000
,
1000
1000
1000
1000
,
0001
0001
0001
0001
,
1000
1000
0001
0001
,
0100
0100
0010
0010
,
1000
0100
0010
0100
,
0010
0001
1000
0001
,
0100
0010
1000
0001
,
1000
0100
1000
0100
0010
0001
0010
0001
,
1001
0000
0000
0000
0000
0000
0000
1000
0001
0000
0100
0000
0000
0000
0000
0000
,
0001
0000
0000
0000
0000
0000
0000
0001
0100
0000
0010
0000
0000
0000
0000
0000
,
1000
0000
0000
0000
0000
0000
0000
1000
0010
0000
1000
0000
0000
0000
0000
0000
,
0010
0000
0000
0000
0000
0000
0000
0010
0100
0000
0010
0000
0000
0000
0000
0000
,
0100
0000
0000
0000
0000
0000
0000
0100
0001
0000
0001
0000
0000
0000
0000
0000
,
1000
0000
0000
0000
0000
0000
0000
1000
0010
0000
0010
0000
0000
0000
0000
0000
,
2002
0000
0000
0000
0000
0000
3003
1000
0001
0000
0001
0000
0000
0000
0000
0000
,
0220
0000
0000
0000
0000
0000
0330
0010
0100
0000
0100
0000
0000
0000
0000
0000
,
1000
0000
0010
0000
1000
0000
0100
0010
1000
0000
0010
0000
0100
0000
0001
0000
,
0010
0000
0100
0000
0001
0000
0100
1000
0010
0000
0100
0000
1000
0000
0001
0000
,
0100
0000
0010
0000
0100
0000
0001
1000
0100
0000
0010
0000
1000
0000
0100
0000
,
0001
0000
0100
0000
0010
0000
0100
1000
0001
0000
0010
0000
0100
0000
0001
0000
,
1000
0000
0001
0000
0100
0000
0010
1000
0100
0000
0001
0000
1000
0000
0010
0000
,
0100
0000
0001
0000
0010
0000
0001
0100
0010
0000
1000
0000
0001
0000
0100
0000
,
1000
0000
0100
0000
0001
0000
1000
0010
0001
0000
0100
0000
0010
0000
1000
0000
,
0100
0000
0010
0000
1000
0000
0001
0100
1000
0000
0010
0000
0001
0000
0100
0000
,
0110
0000
0010
0000
1000
0010
0000
1000
0010
0000
0100
0010
0000
0100
0010
0100
,
0001
0000
0100
0000
0010
1000
0000
0010
1000
0000
0010
0100
0000
0001
0010
0001
,
0010
0000
1000
0000
0100
0001
0000
0100
0001
0000
0100
0010
0000
1000
0100
0010
,
0100
0000
0001
0000
0100
0010
0000
0100
0010
0000
0100
0001
0000
1000
0100
0010
,
0001
1000
0001
1000
0001
1000
0001
1000
,
0010
0100
0010
0100
0010
0100
0010
0100
,
1000
0100
1000
0100
0010
0001
0010
0001
1000
0010
1000
0010
0100
0001
0100
0001
,
1000
0001
0100
0001
0100
1000
0110
0000
,
2002
0000
0000
3003
0000
0000
0000
0000
0000
0000
0000
0000
0110
0000
0000
0000
1000
0000
0010
0000
0100
0000
0001
0000
1000
0000
0010
0000
0100
0000
0001
0000
,
0010
0000
0000
0110
0000
0000
1010
0000
0100
0001
0010
0001
0100
0000
0000
0000
,
1000
0000
0000
0000
0000
0100
0000
0000
0000
0010
0000
0000
0000
0001
0000
0000
0000
0010
0000
0000
0000
0100
0000
0000
1000
0000
0000
0100
0000
0000
1000
0000
0000
0100
0000
0000
0010
0000
0000
0000
0000
0000
0100
0000
0000
0000
0000
0000
,
0101
0000
0000
0110
0000
0000
1100
0000
1010
0000
0000
0110
0000
0000
0101
0000
,
0220
0000
0000
0330
0000
0000
0000
0000
0000
0000
0000
0000
1001
0000
0000
0000
0010
0000
0100
0000
0001
0000
1000
0000
0010
0000
0100
0000
0001
0000
0100
0000
,
0010
0000
0000
1010
0000
0000
0011
0000
1000
0100
0010
0001
1000
0100
1000
0000
,
0001
0000
0000
0000
0000
0010
0000
0000
0000
0100
0000
0000
0000
1000
0000
0000
0000
0100
0000
0000
0000
0010
0000
0000
0001
0000
0000
0100
0000
0000
0001
0000
0000
0100
0000
0000
0010
0000
0000
1000
0000
0000
0100
0000
0000
0000
0000
0000
,
0101
0000
0000
0110
0000
0000
1100
0000
1010
0000
0000
0000
1001
0000
0000
0000
,
0101
0000
0000
0000
0001
0100
0010
0100
1000
0100
0010
0001
0010
0100
1000
0100
,
0001
0000
0000
0110
0000
0000
1100
0000
0010
0100
0010
0100
0001
0000
0000
0000
,
1000
0000
0010
0000
1000
0000
0100
0000
0010
0000
0100
0000
0001
0000
0010
0000
1000
0000
0001
0000
0000
1000
0000
0000
,
0101
1010
0110
1001
,
1010
0000
0000
0000
0001
0100
0010
1000
0010
0100
0001
0100
0010
1000
0010
0100
,
0001
0000
0000
1100
0000
0000
0101
0000
1000
0100
0010
0100
1000
0000
0001
0000
,
0100
1000
0100
0010
0200
0000
0000
0000
1300
0010
1000
0010
0100
0001
0100
0000
,
1001
0110
0011
1100
,
1001
0000
0100
0001
0010
0001
1000
0000
,
0101
0000
0000
0000
1000
0000
0010
0000
0100
0000
0000
0010
0100
0000
0001
0000
,
1010
0000
0001
0100
1000
0000
0101
1000
,
0100
0000
0010
1000
0001
0000
1010
0000
,
0110
0000
0010
1000
0001
0010
1010
0000
,
0011
0000
0000
0000
0100
0000
1000
0000
0100
0000
0000
0010
1000
0000
0001
0000
,
0110
0000
0100
1000
0001
0000
0101
1000
,
0010
0000
1000
0100
0001
0000
1001
0000
,
1000
0100
0001
0100
0001
1000
0010
0100
,
0010
0000
0001
0000
1000
0000
0100
0000
0001
0000
0000
0100
0001
0000
1000
0000
,
0010
1000
0110
0000
0001
0100
0101
0000
,
0010
0100
0010
0001
1000
0100
1000
0010
,
0001
0000
1000
0010
1000
0000
0101
0000
,
0110
0000
0000
0000
1000
0000
0010
0000
0100
0000
0000
0100
0001
0000
1000
0000
,
0010
0110
0100
0101
,
2000
0000
3001
0100
0010
0000
0110
0000
,
2002
0000
3003
0000
1000
0000
0010
0000
1000
0000
1000
0010
0100
0000
0100
0001
,
0010
0000
0001
0000
0100
0000
0010
0000
1000
0000
0000
1000
0010
0000
0100
0000
,
0101
0000
1000
0000
0010
0000
1000
0000
0100
0000
0010
0001
0100
0000
0100
0010
,
1000
0000
0001
0000
1000
0000
0100
0000
1000
0000
0010
0000
0100
0000
0001
0010
,
0001
0000
0100
0000
0001
0000
1000
0000
0100
0000
0010
1000
0100
0000
0100
1000
,
0010
0000
0001
0000
0100
0000
0001
0000
1000
0000
0010
0100
0010
0000
0100
0000
,
0001
0000
1000
0100
1000
0000
0001
0100
0010
0000
1000
0010
0100
0000
0001
0010
,
0100
0000
1000
0100
0010
0000
0100
0010
0100
0000
0001
1000
0001
0000
0100
0000
,
1000
0000
0010
0000
0100
0000
1000
0000
0001
0000
0010
0001
0100
0000
0001
0100
,
0010
0000
1000
0000
0100
0000
0001
0000
0010
0000
1000
0100
1000
0000
0100
0000
,
0101
0000
0000
0000
1100
0000
0000
0000
0110
0000
1000
0100
0010
0000
0010
0001
,
0100
0001
1000
0010
1000
0100
0110
0000
,
1001
0000
0000
0000
0101
0000
1000
0000
0010
0000
0100
0010
1000
0000
1000
0010
,
0100
0000
0001
0000
1000
0000
0010
0000
0100
0000
0000
0100
0001
0000
0100
0000
,
1020
0000
0001
0000
1000
0000
0031
0100
,
1000
0000
0010
0000
1000
0000
0001
0000
0100
0000
0010
0001
0100
0010
0100
0000
,
0220
0000
0000
0000
,
0000
0000
0000
0000
,
0330
0000
0000
0000
;
