#TITLE:HELIX;
#SUBTITLE:;
#ARTIST:ESTi;
#TITLETRANSLIT:;
#SUBTITLETRANSLIT:;
#ARTISTTRANSLIT:;
#GENRE:;
#CREDIT:DJSuperNOVA;
#MUSIC:HELIX.ogg;
#BANNER:HELIX.png;
#BACKGROUND:HELIX-bg.png;
#CDTITLE:;
#SAMPLESTART:12.373;
#SAMPLELENGTH:19.200;
#SELECTABLE:YES;
#OFFSET:-0.028;
#BPMS:0.000=175.000
,90.000=87.500
,90.500=350.000
,91.500=175.000
,280.000=87.500
,281.000=175.000
,281.500=350.000
,283.500=175.000
,284.000=87.500
,316.000=175.000
;
#STOPS:;
#DISPLAYBPM:87.500:175.000;
#BGCHANGES:;
#FGCHANGES:;

//--------------- dance-single - DJSuperNOVA ----------------
#NOTES:
     dance-single:
     DJSuperNOVA:
     Beginner:
     3:
     0,0,0,0,0:
0000
0000
0000
0000
,
1000
0000
0000
0000
,
0001
0000
0000
0000
,
1000
0000
0000
0000
,
0010
0000
0000
0000
,
0100
0000
0000
0000
,
0001
0000
0000
0000
,
1000
0000
0000
0000
,
0001
0000
1001
0000
,
1000
0000
0000
0000
,
0010
0000
0000
0000
,
0100
0000
0000
0000
,
0010
0000
0000
0000
,
1000
0000
0000
0000
,
0001
0000
0000
0000
,
0100
0000
0000
0000
,
0001
0000
0000
0000
,
1000
0000
0000
0000
,
0010
0000
0000
0000
,
1001
0000
0000
0000
,
0001
0000
0000
0000
,
1000
0000
0001
0000
,
1000
1000
1000
0000
,
0001
0000
0000
0000
,
0001
0000
0000
0000
,
1000
0000
0000
0000
,
1000
0000
0000
0000
,
0010
0000
0000
0000
,
0010
0000
0000
0000
,
0100
0000
0001
0000
,
1000
0000
0000
0000
,
0001
0000
0000
0000
,
1000
0000
0000
0000
,
0010
0000
0000
0000
,
0001
0000
0000
0000
,
0100
0000
0000
0000
,
1000
0000
0000
0000
,
0010
0000
0100
0000
,
0001
0000
1001
0000
,
1000
0000
0000
0000
,
0001
0000
0000
0000
,
0100
0000
0000
0000
,
0001
0000
0000
0000
,
1000
0000
0000
0000
,
0100
0000
0000
0000
,
1000
0000
0000
0000
,
0001
0000
0000
0000
,
1000
0000
1000
0000
,
0001
0000
0000
0000
,
1000
0000
1000
0000
,
0001
0000
0000
0000
,
0100
0000
0100
0000
,
0010
0000
0000
0000
,
1000
0000
0001
0000
,
1001
0000
0000
0000
,
1000
0000
0000
0000
,
0001
0000
0000
0000
,
0100
0000
0000
0000
,
0001
0000
0000
0000
,
1000
0000
0000
0000
,
0010
0000
0000
0000
,
0100
0000
0000
0000
,
0010
0000
0000
0000
,
0001
0000
0000
0000
,
0001
0000
0001
0000
,
1000
0000
0000
0000
,
1000
0000
1000
0000
,
0010
0000
0000
0000
,
0010
0000
0010
0000
,
0100
0000
0000
0000
,
0100
0010
0000
0000
,
0010
0000
0100
0000
,
0001
0000
1000
0000
,
1000
0000
0100
0000
,
0001
0000
0010
0000
,
1001
0000
1000
0000
,
0001
0000
0100
0000
,
0010
0000
1000
0000
,
0010
0000
0100
0100
,
0010
0000
0010
0000
,
1000
0000
0000
0000
,
0001
0000
0001
0000
,
1000
0000
0000
0000
,
1000
0000
1000
0000
,
0001
0000
0000
0000
,
0100
0000
0001
0000
,
1000
0000
0000
0000
,
0010
0000
1000
0000
,
0001
0000
0000
0000
,
2002
0000
0000
0000
,
0000
0000
0000
0000
,
3003
0000
0000
0000
;

//--------------- dance-single - DJSuperNOVA ----------------
#NOTES:
     dance-single:
     DJSuperNOVA:
     Easy:
     6:
     0,0,0,0,0:
0000
0000
0000
0000
,
1000
0000
0001
0000
,
0100
0000
0010
0000
,
1000
0000
1000
0000
,
0001
0000
0001
0100
,
1000
0000
1000
0000
,
0010
0000
0010
0000
,
0001
0000
0100
0010
,
0001
0000
1001
0000
,
1000
0010
1000
0100
,
0010
0100
0010
0001
,
0010
0100
1000
0010
,
0100
1000
1000
0100
,
0010
0100
0010
0001
,
0100
0010
1000
0001
,
0100
0001
1000
0100
,
0010
1000
0001
0100
,
0010
0010
1000
1000
,
0001
0100
1000
0010
,
0100
0100
0010
0010
,
0100
0010
1000
0001
,
0100
0001
1000
1001
,
0000
0100
0000
0100
0020
0000
0030
0000
,
0001
0000
0000
0001
0000
0000
0001
0000
,
0100
1000
0010
0010
,
1000
0000
0000
1000
0000
0000
1000
0000
,
0010
0100
0010
0010
,
0100
0000
0000
0100
0000
0000
0100
0000
,
0010
1000
0001
0001
,
1000
0000
0000
0010
0000
0000
0100
0000
,
0010
0010
0100
0100
,
1001
0000
0000
0001
0000
0000
0001
0000
,
1000
0010
0220
0330
,
1000
0000
0000
1000
0000
0000
1000
0000
,
0010
1000
2002
3003
,
0010
0000
0000
0010
0000
0000
0010
0000
,
1000
0001
0202
0303
,
1000
0000
0000
0010
0000
0000
1000
0000
,
0010
0010
0100
1001
,
0100
0010
0100
0010
,
1000
0010
0100
0010
,
1000
0001
1000
0001
,
0100
0001
0100
0001
,
1000
1000
0010
0010
,
0100
0100
0001
0001
,
1000
0001
1000
1000
,
0010
0010
0100
0010
,
1001
1000
0100
0001
,
0100
1000
0100
0010
,
0100
0001
0100
0010
,
1000
0100
0001
0100
,
1000
0001
0100
0001
,
1000
1000
0001
0001
,
1001
1000
0100
0010
,
0100
0000
1000
0000
0010
0010
0010
0000
,
1001
0000
1000
0000
0000
0001
0000
0000
,
0100
0000
0000
0010
0000
0000
0100
0000
,
1000
0000
0001
0000
0000
1000
0000
0000
,
0010
0000
0000
0001
0000
0000
1000
0000
,
0001
0000
0100
0000
0000
0001
0000
0000
,
1000
0000
0000
0010
0000
0000
1000
0000
,
0100
0000
0001
0000
0000
1000
0000
0000
,
0001
0000
0000
1000
0000
0000
1001
0000
,
1000
0100
1000
0100
,
1000
0100
0010
0001
,
0100
0001
0100
0001
,
0100
0001
0010
0100
,
0001
0100
0001
0100
,
0001
0010
1000
0100
,
1000
0010
1000
0010
,
1001
0000
1000
0000
0000
0001
0000
0000
,
1001
0010
0100
0001
,
1000
0100
0001
0001
,
1000
0010
0100
0001
,
0100
0010
0001
1001
,
1000
0010
0001
0100
,
0010
1000
0001
0001
,
0100
0010
1000
1000
,
0010
0000
0100
0000
0010
0100
0010
0000
,
1001
0100
0001
1000
,
0010
0100
0220
0330
,
0001
1000
0100
0100
,
0001
1000
2002
3003
,
0001
0001
0100
0010
,
1000
0001
0202
0303
,
0010
1000
0010
0100
,
0010
1000
2020
3030
,
0100
0010
0001
0100
,
1000
0010
0100
0010
,
1002
0000
0000
0000
,
0000
0000
0000
0000
,
2000
0000
0000
0000
,
3003
0000
0000
0000
;

//--------------- dance-single - DJSuperNOVA ----------------
#NOTES:
     dance-single:
     DJSuperNOVA:
     Medium:
     11:
     0,0,0,0,0:
0000
0000
0000
0000
,
0010
0100
0001
0100
,
0010
0100
1000
0100
,
0001
0010
1000
0010
,
0100
0000
0010
0000
0001
0000
1000
0100
,
0010
0100
0001
0100
,
0010
0100
1000
0010
,
1000
0001
0100
0001
,
1001
0000
0220
0330
,
0001
0000
1000
0100
1000
0000
0010
0000
,
0001
0000
0100
0001
0010
0001
0100
0000
,
1000
0000
0010
0100
0010
0000
1000
0000
,
0001
0000
1000
0100
1000
0010
1000
0000
,
0001
0000
0100
0000
0001
0010
0001
0000
,
1000
0000
0100
0001
0100
0010
1000
0000
,
0001
0000
1000
0000
0010
0100
0001
0000
,
0100
0000
1000
0100
0010
1000
0100
0000
,
0001
0000
1000
0000
0010
0100
0010
0000
,
1000
0000
0001
0100
1000
0100
0001
0000
,
0110
0001
1000
0001
,
0100
0010
1000
0100
,
0001
1000
0001
1000
0010
0100
0010
0100
,
0000
0000
1001
0000
0000
0000
2000
0000
0002
0000
0000
0000
0000
3003
0000
0000
,
0002
0000
0000
0003
1000
0000
0002
0000
0000
0003
0100
0000
0002
0000
0000
0003
,
1000
0010
0100
0000
0100
0000
0001
0000
,
2000
0000
0000
3000
0010
0000
2000
0000
0000
3000
0100
0000
2000
0000
0000
3000
,
0010
0100
0001
1001
,
0020
0000
0000
0030
0100
0000
0020
0000
0000
0030
1000
0000
0020
0000
0000
0030
,
0100
1000
0001
0000
1000
0000
1000
0000
,
0001
0000
1000
0010
0000
0100
0001
0000
,
1000
0100
1000
0001
0101
0000
1010
0000
,
0001
0000
0100
0001
0000
0100
0010
0000
,
1000
0000
0010
0000
1000
0100
1000
0000
,
0001
0000
1000
0010
0000
1000
0100
0000
,
0001
0000
1000
0000
0101
0000
0001
0100
,
0001
0000
1000
0001
0000
0100
0001
0000
,
0010
0000
0001
0000
1000
0010
1000
0000
,
1001
0000
0100
0010
0000
0010
0100
0000
,
0010
0010
0100
0100
0001
1000
0001
0000
,
1000
0010
1000
0010
,
0100
0001
0100
0001
,
1000
0100
1000
0100
,
0010
0001
0010
0001
,
1000
0010
0001
0010
,
1000
0100
0001
0100
,
0001
0100
1000
0100
,
0010
0100
0010
0001
,
1000
0000
0010
0000
0100
0010
0100
0000
,
0001
0000
1000
0000
0010
0100
1000
0000
,
0100
0000
0001
0000
1000
0001
0100
0000
,
0010
0000
1000
0000
0001
1000
0010
0000
,
0001
0000
0100
0000
0010
1000
0010
0000
,
0001
0000
0100
0000
0010
0100
0010
0000
,
1000
0000
0001
0000
0100
0001
0100
0000
,
1000
0000
0001
0000
1000
0001
1000
0001
,
0200
0000
0010
0000
0000
0001
0000
0000
,
1000
0000
0000
0010
0000
0000
0301
0000
,
0020
0000
1000
0000
0000
0001
0000
0000
,
0100
0000
0000
0001
0000
0000
1030
0000
,
0002
0000
0100
0000
0000
0010
0000
0000
,
1000
0000
0000
0010
0000
0000
0103
0000
,
2000
0000
0010
0000
0000
0001
0000
0000
,
0100
0000
0000
0001
0000
0000
3100
0000
,
1000
0100
1000
0010
,
0001
0010
0110
1001
,
0100
0001
0010
0001
,
0100
0010
1001
1010
,
0001
0100
0010
0100
,
1000
0010
1010
0101
,
1000
0001
1000
0001
0100
0010
0100
0010
,
0100
0000
0020
0000
0000
2030
0000
0000
,
3001
0000
0100
0001
0010
0000
1000
0001
,
0100
0000
0010
1000
0001
0000
0100
0010
,
0001
0000
0010
1000
0001
0000
0010
0100
,
1000
0000
0100
0010
0001
0000
1001
0000
,
1000
0100
1000
0010
0100
0000
0001
0000
,
0001
0100
0001
0010
0100
0000
1000
0000
,
0010
0100
0001
1000
0010
0000
1000
0000
,
0010
0010
0100
0100
1001
0000
0110
0000
,
0001
0000
1000
0000
0100
0000
1000
0010
,
1000
0001
0220
0330
,
1001
0000
0100
0000
0001
0000
0010
1000
,
0001
0100
2002
3003
,
1010
0000
0001
0000
0100
0000
0010
0001
,
0100
1000
2020
3030
,
0101
0000
1000
0000
0001
0000
0100
0010
,
0100
0010
2020
3030
,
0100
0001
1000
0001
,
0001
0100
0010
1000
0001
0000
1100
0000
,
0022
0000
0000
0000
,
0000
0000
0030
0000
,
0200
0000
0000
0000
,
0303
0000
0000
0000
;

//--------------- dance-single - DJSuperNOVA ----------------
#NOTES:
     dance-single:
     DJSuperNOVA:
     Hard:
     14:
     0,0,0,0,0:
0000
0000
0000
0000
,
0100
1000
0010
1000
0001
1000
0100
1000
,
0001
1000
0100
1000
0010
1000
0001
1000
,
0010
1000
0100
1000
0001
1000
0100
1000
,
0001
1000
0010
1000
0010
1000
0001
0100
,
0010
0001
0100
0001
1000
0001
0010
0001
,
0100
0001
0100
0001
1000
0001
0010
0001
,
1000
0001
0100
0001
0010
0001
1000
0001
,
0010
0001
0100
0010
2002
0000
3003
0000
,
0100
0010
0001
1000
0001
0100
0001
1000
,
0001
0010
0001
0100
0010
1000
0100
1000
,
0010
0100
0001
1000
0010
1000
0100
1000
,
0001
0100
0010
1000
0001
1000
0100
0010
,
0001
0100
0010
0100
0001
1000
0010
1000
,
0100
1000
0010
0100
0001
0100
0010
1000
,
0001
0010
0100
1000
0001
0100
0010
1000
,
0001
0100
0001
0100
0010
1000
0010
1000
,
0001
0100
1000
0100
0001
0100
0010
0001
,
1000
0100
0001
0100
1000
0010
0110
0000
,
1000
0100
0001
1000
0010
0001
1000
0100
,
0001
1000
0010
0001
1000
0100
0001
0100
,
1000
0001
0010
1000
0001
0100
1000
0001
,
0000
0000
0110
0000
0000
0000
0100
0000
0020
0000
0000
0000
0000
0030
0000
0000
,
0002
0000
0000
0003
1000
0000
0020
0000
0000
0030
0100
0000
0002
0000
0000
0003
,
1000
0010
1000
0100
0010
0001
0010
0100
,
2000
0000
0000
3000
0001
0000
0200
0000
0000
0300
0010
0000
2000
0000
0000
3000
,
0001
0100
0001
0010
0100
1000
0100
0010
,
0002
0000
0000
0003
0010
0000
0002
0000
0000
0003
0100
0000
2000
0000
0000
3000
,
0100
0010
1000
0001
0010
0100
0010
0001
,
1000
0000
0010
0001
0000
0100
1000
0000
,
0010
0001
0010
0001
1000
0000
1001
0000
,
0120
0000
0000
0030
0100
0000
0010
0000
0100
0000
0010
0000
1000
0000
0010
0000
,
0100
0001
0100
0010
0220
0000
0330
0000
,
2001
0000
3001
0100
0001
0100
0010
1000
,
0001
0100
0001
0100
0202
0000
0303
0000
,
1002
0000
1003
0100
1000
0010
1000
0010
,
1000
0100
1000
0010
2020
0000
3030
0000
,
0101
0000
1000
0100
0000
0010
0001
0000
,
1000
0010
0100
0001
0010
0100
1000
0000
,
1000
0100
0010
0001
1000
0010
0001
0000
,
0001
0100
0010
1000
0001
0100
1000
0000
,
0010
0100
0001
1000
0010
0100
1000
0000
,
1000
0001
0100
0010
1000
0010
0001
0000
,
1000
0010
0100
0001
1000
0010
0001
0000
,
0001
0010
0100
1000
0001
0010
1000
0000
,
1000
0001
0100
0001
1000
0010
0001
0000
,
0001
1000
0010
1000
0101
0000
1010
0000
,
1001
0000
0100
0001
0000
0010
0001
0100
,
1000
0100
1000
0010
0100
0001
0010
0000
,
1010
0000
0001
0100
0000
0010
0100
0001
,
0100
0010
1000
0100
0010
0001
1000
0000
,
0101
0000
0001
0100
0000
0100
0001
1000
,
0010
0100
0010
0001
0010
0100
1000
0000
,
1001
0000
0001
1000
0000
1000
0010
0100
,
0001
1000
0010
0001
0100
1000
0001
0000
,
0101
0000
1000
0200
0000
0310
0002
0000
,
0103
0020
0000
1030
0200
0000
0310
0001
,
2000
0000
3010
0200
0000
0301
0020
0000
,
0031
0200
0000
0310
2000
0000
3001
0100
,
0020
0000
0130
0002
0000
1003
0200
0000
,
1300
0020
0000
0130
0001
1000
0010
1000
,
0002
0000
0103
0020
0000
1030
0002
0000
,
0103
0020
0000
1030
0001
0010
0100
1000
,
0001
0100
1000
0001
0010
1000
0001
0100
,
1000
0001
0010
1000
0010
1000
0001
0010
,
1000
0100
0001
1000
0010
0001
1000
0100
,
0001
1000
0010
0001
1000
0100
0001
0010
,
0100
0001
0010
0100
1000
0010
0100
0001
,
0010
0100
1000
0010
0100
0001
0010
0100
,
1000
1000
0001
0001
0100
0010
0100
0010
,
0100
0000
0002
0000
0000
2003
0000
0000
,
3001
0100
0010
0001
0010
1000
0100
0001
,
0010
0000
0100
0000
0010
0000
0001
0000
0010
0000
0000
1000
0010
0000
0100
0010
,
0001
0010
0100
0010
0100
1000
0001
1000
,
0100
0000
0010
0000
1000
0000
0010
0000
0100
0000
0001
0010
0001
0000
1000
0000
,
1001
0100
0010
0001
0100
1000
0010
0001
,
0010
0000
0100
0000
0010
0000
0001
0000
1000
0000
0000
0100
0010
0000
0010
0100
,
0001
0100
1000
0001
0010
0100
0010
1000
,
0010
0000
0100
0000
0010
0000
0001
0000
1000
0000
0010
0100
0010
0000
0100
0000
,
0120
0000
0000
0030
0100
0000
0010
0000
0100
0000
0010
0000
1000
0000
0010
0000
,
0100
0001
0100
0010
0220
0000
0330
0000
,
2001
0000
3001
0100
0001
0100
0010
1000
,
0001
0100
0001
0100
0202
0000
0303
0000
,
1002
0000
1003
0100
1000
0010
1000
0010
,
1000
0100
1000
0010
2020
0000
3030
0000
,
1000
0100
0010
1000
0100
0001
0100
0010
,
0001
0100
0001
1000
0010
0100
0001
0010
,
1000
0100
0001
0100
0010
0100
1000
0001
,
1000
0100
0001
0010
1000
0001
0100
0010
,
2002
0000
0000
0000
,
0000
0000
3000
0000
,
0200
0000
0000
0000
,
0303
0000
0000
0000
;

//--------------- dance-single - DJSuperNOVA ----------------
#NOTES:
     dance-single:
     DJSuperNOVA:
     Challenge:
     17:
     0,0,0,0,0:
0000
0000
0000
0000
,
0010
0100
0001
0100
,
0010
1000
0010
0001
,
0100
0010
1000
0001
,
0100
0000
1000
0000
1000
0000
0001
0100
,
0010
0001
1000
0001
,
0100
1000
0001
1000
,
0100
0010
0001
1000
,
2002
3003
0220
0330
,
1000
0000
0100
0000
0010
0000
0001
0010
0001
0000
0100
0000
0010
0000
1000
0000
,
0010
0000
0100
0000
0001
0000
1000
0010
0100
0010
1000
0000
0001
0000
0100
0000
,
0001
0000
1000
0000
0010
0000
1000
0100
1000
0000
0100
0000
0001
0000
0010
0000
,
0001
0000
1000
0000
0010
0000
0100
0001
0010
0000
0001
0000
1000
0000
0010
0000
,
1000
0000
0001
0000
0010
0000
0100
0001
1000
0000
0100
0000
0010
0000
1000
0000
,
0001
0000
0100
0000
0001
0000
1000
0100
0010
0100
1000
0000
0001
0000
0100
0000
,
0001
0000
1000
0000
0100
0000
1000
0100
0010
0000
0001
0000
0100
0000
0010
0000
,
1000
0000
0001
0000
1000
0000
0010
0001
0010
0000
0100
0000
1000
0000
0100
0000
,
0010
0000
1000
0000
0100
0000
1000
0100
0001
0000
0100
0000
0001
0000
0010
0000
,
0001
0000
1000
0000
0010
0000
1000
0010
0100
0010
1000
0000
1010
0000
0000
0000
,
1000
0100
0001
1000
0010
0001
1000
0100
,
0001
1000
0010
0001
1000
0100
1000
0001
,
0100
0000
1000
0000
0010
0000
0001
0000
1000
0100
0001
0010
0100
1000
0100
0010
,
0001
1010
0000
0101
0200
0000
0000
0300
,
2020
3030
0100
0002
0003
0100
2000
3000
,
0010
0001
0100
0010
1000
0100
0010
0100
,
2000
3000
0010
0200
0300
0001
2000
3000
,
0010
0110
0001
1000
0110
0010
0011
0001
,
2002
3003
1000
0020
0030
0100
0002
0003
,
1000
0010
0100
0100
0001
0010
0100
1000
,
0200
0000
0300
0000
0010
0000
0001
0000
1000
0100
1000
0000
0001
0000
0100
0000
,
0110
0000
0100
0000
0001
0000
1000
0000
0010
0001
0100
0010
1000
0100
0010
0001
,
2000
0000
0000
3000
0010
0000
0100
0000
0110
0000
0100
0000
0001
0000
0100
0000
,
0110
0100
0010
0100
0220
0000
0330
0000
,
2002
0000
3003
0000
0001
0000
0010
0000
0110
0000
0010
0000
1000
0000
0010
0100
,
0010
0010
0110
0010
0220
0000
0330
0000
,
0202
0000
0303
0000
1000
0000
0001
0000
1001
0000
1000
0000
0010
0000
0001
0100
,
1000
1000
0001
1000
2002
0000
3003
0000
,
0110
0000
0010
0001
0000
0010
1000
0001
,
1000
0000
1000
0000
0001
0000
0001
0000
1000
0001
0100
0010
1000
0001
0010
0100
,
1000
0000
0100
0000
0010
0000
0001
0100
1000
0010
0100
0000
0010
0000
0001
0000
,
1000
0000
0100
0000
0010
0000
0001
0100
1000
0010
0100
0000
0010
0000
0001
0000
,
1000
0000
0010
0000
0100
0010
0001
0000
1000
0000
0010
0000
0100
0000
0001
0000
,
1000
0000
0010
0000
0100
0000
0001
0100
1000
0100
0010
0000
0100
0000
0001
0000
,
0100
0000
0001
0000
1000
0000
0010
1000
0100
1000
0001
0000
0100
0000
0010
0001
,
1000
0010
0001
0000
0100
0000
0010
0100
1000
0100
0001
0000
0100
0000
0010
0000
,
0001
0000
0010
0000
0100
0000
1000
0100
0001
0000
0010
0000
0100
0000
1000
0100
,
0001
0000
0010
0001
0100
0010
1000
0000
0001
0000
0010
0000
1000
0000
0100
0000
,
0110
0000
0000
0000
0001
0000
0010
1000
0100
1000
0001
0000
0100
0000
0010
0000
,
0001
0000
1000
0000
0010
0000
1000
0001
0100
0010
1000
0000
0010
0000
0100
0000
,
0001
0000
1000
0000
0001
0000
0100
0000
1000
0000
0100
0000
0001
0100
0010
1000
,
0001
0010
0100
1000
0010
0000
0100
0010
0001
0010
0100
0010
1000
0100
0001
0000
,
1100
0000
0000
0000
0101
0000
1000
0100
0010
0100
1000
0000
0010
0000
0100
0010
,
0001
0000
0001
0000
1000
0010
0100
0010
1000
0001
0100
0000
0001
0000
0100
0000
,
1100
0000
0011
1000
0010
0100
0011
0100
,
1000
0000
0001
0010
0001
0100
0010
1000
0100
1000
0010
0100
0001
0010
0001
1000
,
0020
0000
0001
0100
0000
0100
1000
0000
,
1000
0100
0000
0100
0001
0000
0100
0031
,
2000
0000
0100
0010
0000
0010
0100
0000
,
0100
0001
0000
0010
0001
0000
0100
3010
,
0200
0000
0001
1000
0000
1000
0001
0000
,
0001
0010
0000
0010
0001
0000
0001
0310
,
0002
0000
1000
0010
0000
0010
1000
0000
,
1000
0100
0000
0100
1000
0010
1000
0103
,
1000
0100
0010
1000
0100
0001
1000
0100
,
0010
1000
0100
0001
1000
0100
0010
0100
,
0001
0100
1000
0001
0010
0100
0001
0010
,
1000
0001
0010
0100
0001
0100
1000
0010
,
1000
0100
0001
1000
0010
0001
1000
0100
,
0001
1000
0010
0001
1000
0100
0001
0100
,
1000
0000
1000
0000
0010
0000
0010
0000
0100
0001
0010
0100
1000
0100
0010
0001
,
0100
0000
0002
0000
0000
2003
0000
0000
,
3020
0000
0000
0130
0000
0000
0101
0000
0000
1000
0100
0010
0002
0000
0000
0103
0000
0000
0110
0000
0000
0001
0100
0010
,
2000
0000
0000
0000
0000
0000
3001
0000
0000
0000
0000
0000
0101
0000
0000
0000
0000
0000
0010
0000
1000
0000
0010
0000
0200
0000
0000
0000
0000
0000
0300
0000
0000
0001
0000
0000
0011
0000
0000
0000
0000
0000
0100
0000
0010
0000
0100
0000
,
0002
0000
0000
0000
0000
0000
0103
0000
0000
0000
0000
0000
1100
0000
0000
0000
0000
0000
0010
0000
0100
0000
0001
0000
0100
0000
0000
1000
0000
0000
0100
0000
0000
0001
0000
0000
0101
0000
0000
0000
0000
0000
0010
0000
0100
0000
1000
0000
,
0002
0000
0000
0103
0000
0000
1100
0000
0000
0010
0100
0010
0200
0000
0000
0301
0100
1000
0002
0000
0000
1003
0000
0000
,
1001
0100
1000
0010
0110
0000
0001
0000
0010
0100
0010
1000
1010
0000
0001
0000
,
0100
0000
0000
0001
0000
0000
0010
0000
0000
0100
0000
0000
1100
0000
0000
0000
0000
0000
0001
0000
1000
0000
0001
0000
0100
0000
0000
0010
0000
0000
0010
0000
0000
0010
0000
0000
0110
0000
0000
0000
0000
0000
1000
0000
0000
0100
0000
0000
,
0001
0010
0001
0100
1100
0000
0010
0001
0100
0001
0100
1000
0011
0000
1000
0100
,
0001
0000
0100
0000
0010
0000
1000
0000
0001
0000
0010
0000
0100
0000
1000
0000
0010
0000
0010
0000
0100
0000
0100
0000
0001
0100
0010
1000
0100
0001
0010
0100
,
1000
0100
0010
0100
0110
1000
0001
0100
,
0110
1000
0010
0100
0200
0310
0001
0100
,
1100
0000
0100
0000
0001
0000
0010
0000
0110
0000
0010
0000
1000
0000
0010
0100
,
0001
0010
0110
0010
0210
0301
0100
1000
,
0100
0000
0010
0000
1000
0000
0001
0000
1001
0000
1000
0000
0010
0000
0001
0100
,
1000
1000
0001
1000
2001
3100
0001
0100
,
1000
0000
0010
0000
1010
0000
0100
0000
0101
0000
0100
0000
0010
0000
0001
0010
,
0001
0010
1010
1000
1020
0130
0001
0100
,
1100
0100
0110
1000
0001
0010
0110
0010
,
1000
0000
0001
0000
0100
0000
1000
0000
0010
0001
0100
0010
1000
0001
0010
0200
,
2000
0000
0000
0000
,
0000
0000
0000
0300
,
0002
0000
0000
0000
,
3003
0000
0000
0000
;
