#TITLE:수호천사;
#SUBTITLE:Natal Angel;
#ARTIST:BeautifulDay;
#TITLETRANSLIT:Guardian Angel;
#SUBTITLETRANSLIT:Natal Angel;
#ARTISTTRANSLIT:BeautifulDay;
#GENRE:;
#CREDIT:DJSuperNOVA;
#MUSIC:Guardian Angel.ogg;
#BANNER:Guardian Angel.png;
#BACKGROUND:Guardian Angel-bg.png;
#CDTITLE:;
#SAMPLESTART:94.803;
#SAMPLELENGTH:28.444;
#SELECTABLE:YES;
#OFFSET:-0.581;
#BPMS:0.000=135.000;
#STOPS:;
#BGCHANGES:;
#FGCHANGES:;

//--------------- dance-single - DJSuperNOVA ----------------
#NOTES:
     dance-single:
     DJSuperNOVA:
     Beginner:
     3:
     0,0,0,0,0:
0000
0000
0000
0000
,
0010
0000
0000
0000
,
1000
0000
0000
0000
,
1000
0000
0000
0000
,
0001
0000
0000
0000
,
1001
0000
0000
0000
,
0100
0000
0000
0000
,
0010
0000
0000
0000
,
0100
0000
0000
0000
,
0110
0000
0000
0000
,
1000
0000
0000
0000
,
0001
0000
0000
0000
,
1000
0000
0000
0000
,
0001
0000
0000
0000
,
1000
0000
1000
0000
,
0001
0000
0001
0000
,
0100
0000
0100
0000
,
0010
0000
0100
0000
,
0010
0000
0010
0000
,
0100
0000
0000
0000
,
0100
0000
0100
0000
,
0010
0000
0000
0000
,
1000
0000
1000
0000
,
0001
0000
0000
0000
,
0001
0000
0001
0000
,
1000
0000
0000
0000
,
0100
0000
0010
0000
,
1001
0000
0000
0000
,
1000
0000
0000
0000
,
0001
0000
0000
0000
,
0100
0000
0000
0000
,
0010
0000
0000
0000
,
1000
0000
1000
0000
,
1000
0000
1000
0000
,
0001
0000
0000
0000
,
0001
0000
0001
0000
,
1001
0000
0000
0000
,
1001
0000
0000
0000
,
1001
0000
0000
0000
,
0100
0000
0010
0000
,
1001
0000
0000
0000
,
1001
0000
0000
0000
,
1001
0000
0000
0000
,
0100
0000
0010
0000
,
0010
0000
0000
0000
,
1000
0000
0000
0000
,
0001
0000
0000
0000
,
1000
0000
0000
0000
,
0001
0000
0000
0000
,
0100
0000
0000
0000
,
0010
0000
0000
0000
,
1000
0000
0000
0000
,
0001
0000
0000
0000
,
1000
0000
1000
0000
,
0001
0000
0001
0000
,
0100
0000
0100
0000
,
0010
0000
0010
0000
,
1000
0000
0001
0000
,
1000
0000
0000
0000
,
0001
0000
1000
0000
,
0001
0000
0000
0000
,
1000
0000
0100
0000
,
0001
0000
0000
0000
,
0001
0000
0100
0000
,
1000
0000
0000
0000
,
0010
0000
0000
0000
,
0010
0000
0000
0000
,
0100
0000
0000
0000
,
0100
0000
0000
0000
,
1001
0000
0000
0000
,
1001
0000
0000
0000
,
1001
0000
0000
0000
,
0100
0000
0000
0000
,
0010
0000
0010
0000
,
0010
0000
0010
0000
,
0100
0000
0100
0000
,
0100
0000
0100
0000
,
1000
0000
1001
0000
,
0000
0000
0000
0100
,
0020
0000
0000
0000
,
0000
0000
0000
0000
,
0000
0000
0000
0000
,
0000
0000
0030
0000
;

//--------------- dance-single - DJSuperNOVA ----------------
#NOTES:
     dance-single:
     DJSuperNOVA:
     Easy:
     6:
     0,0,0,0,0:
0000
0000
0000
0000
,
1000
0000
0000
0001
0000
0000
0000
0000
,
1000
0001
1000
0000
,
0001
1000
0001
0000
,
0100
0010
0100
0000
,
2002
0000
3003
0000
,
1000
0100
1000
0000
,
0001
0100
0001
0000
,
1000
0010
1000
0000
,
0001
0100
0010
1000
,
1001
0000
0000
0000
0000
0000
0000
0100
,
0010
0000
0000
0000
0000
0000
0000
1000
,
0010
0000
0000
0000
0000
0000
0000
0100
,
0001
0010
0100
0000
,
1001
0000
0000
0000
0000
0000
0000
1000
,
0100
0000
0000
0000
0000
0000
0000
0010
,
0001
0000
0000
0000
,
1000
0100
0010
0000
,
1001
0100
0010
0100
,
0001
0100
0010
0100
,
0001
0010
0001
0010
,
1000
0100
1000
0100
,
0001
0000
0000
0000
0001
0000
0000
1000
,
0000
1000
0100
0010
,
0001
0000
0000
0000
0001
0000
0000
1000
,
0000
0000
0000
0000
0000
0000
0000
0000
0010
0000
0000
0010
0000
0000
0010
0000
,
0000
0100
0100
0100
,
0110
0000
0000
0000
,
1000
0000
0000
0000
,
0001
0000
0000
0000
,
0100
0000
0000
0000
,
0010
0000
0000
0100
0000
0000
0100
0000
0000
0000
0000
0000
0000
0000
0000
0000
,
0010
0000
0010
0000
,
0100
0000
0100
0000
,
2002
0000
0000
0000
3003
0000
0200
0020
,
0000
0000
0000
0330
,
1001
0000
0000
0000
0000
0000
0000
0000
0100
0000
0000
0010
0000
0000
0100
0000
,
0000
0000
0000
0000
0000
0000
0000
0000
0010
0000
0000
0100
0000
0000
0010
0000
,
0000
0100
0010
0100
,
0001
0001
1000
1000
,
0010
0000
0000
0000
0100
0000
0000
0000
0001
0000
0000
0001
0000
0000
0000
0000
,
1000
0000
0000
0000
0100
0000
0000
0000
1000
0000
0000
1000
0000
0000
0000
0000
,
0010
0000
0000
0000
0100
0000
0000
0000
0010
0000
0000
0010
0000
0000
0000
0000
,
0100
0000
0000
0000
0010
0000
0000
0000
0000
0100
0000
0000
0100
0000
0200
0000
,
0000
0000
0000
0000
,
0310
0000
0000
0000
0000
0000
0000
0100
,
0010
0000
0000
0000
0000
0000
0000
0001
,
0010
0000
0000
0000
0000
0000
0000
0100
,
1000
0010
0100
0001
,
1001
0000
0000
0000
0000
0000
0000
0001
,
0100
0000
0000
0000
0000
0000
0000
0010
,
1000
0000
0000
0000
,
0001
0100
0010
1000
,
0110
0100
0010
0100
,
1000
0100
0010
0100
,
1000
0010
1000
0010
,
0001
0100
0001
0100
,
1000
0000
0010
0000
1000
0000
0001
0001
,
0000
0001
0100
0010
,
1000
0000
0100
0000
1000
0000
0001
0001
,
0000
0000
0000
0000
0100
0000
0000
0000
0010
0000
0000
0010
0000
0000
0010
0000
,
0000
0001
0010
0100
,
1000
0000
0000
0000
,
0000
0001
0100
0010
,
2000
0000
0002
3003
,
0010
0000
0100
0000
1000
0000
0100
0010
,
0000
0100
0000
0000
0010
0000
0010
0000
,
0001
0000
0100
0000
1000
0000
0100
0010
,
0000
0010
0001
0001
,
1001
0000
0110
0000
,
1001
0000
0110
0000
,
0002
0000
0000
0000
,
2000
0000
0000
3003
,
1000
0001
1000
0001
,
0100
0010
0100
0010
,
1000
0100
1000
0100
,
0010
0001
0010
0001
,
1000
0000
0000
0100
0000
0000
0010
0000
0002
0000
0000
0000
0000
0000
0000
0000
,
0000
0000
0003
0010
,
2002
0000
0000
0000
,
0000
0000
0000
0000
,
0000
0000
0000
0000
,
3003
0000
0000
0000
0000
0000
0000
0000
0010
0000
0000
0100
0000
0000
1000
0000
;

//--------------- dance-single - DJSuperNOVA ----------------
#NOTES:
     dance-single:
     DJSuperNOVA:
     Medium:
     8:
     0,0,0,0,0:
0000
0000
0000
0000
,
0100
0000
1000
0001
0000
0000
0000
0000
,
0100
0000
0000
0000
0010
0000
0000
0000
0100
0000
0000
0100
0000
0000
0100
0000
,
0010
0000
0000
0000
0100
0000
0000
0000
0010
0000
0000
0001
0000
0000
0100
0000
,
0010
0000
0000
0000
1000
0000
0000
0000
0001
0000
0000
0001
0000
0000
0001
0000
,
2000
0000
0000
3000
,
1001
0000
0000
0000
0100
0000
0000
0000
0010
0000
0000
0001
0000
0000
0100
0000
,
1000
0000
0000
0000
0100
0000
0000
0000
0010
0000
0000
0010
0000
0000
0100
0000
,
0001
0000
0000
0000
1000
0000
0000
0000
0001
0000
0000
0100
0000
0000
1000
0000
,
0010
0000
0000
0100
0000
0000
0020
0000
0000
0000
0000
0000
0030
0000
0000
0000
,
1000
0000
0000
0001
0000
0000
0000
1000
,
0100
0000
0000
0010
0000
0000
0000
0000
,
0100
0000
0000
0010
0000
0000
0000
0000
,
0100
0010
0001
0010
0000
0000
0000
0000
,
1000
0000
0001
0010
0000
0000
0001
0000
,
1000
0000
0100
0010
0000
0000
0001
0000
,
1000
0000
0010
0100
0000
0000
0001
0000
,
1000
0100
0010
0001
0000
1000
0001
0000
,
1000
0000
1000
0000
1000
0000
0010
0100
,
0001
0000
0001
0000
0001
0000
0001
0100
,
0010
0000
0010
0000
0010
0000
1000
0100
,
1000
1000
0001
0001
,
1001
0000
0100
0000
0001
0000
0100
0010
,
0000
0100
0010
0000
1000
0000
1000
0000
,
0001
0000
0100
0000
1000
0000
0010
0100
,
0000
0000
0010
0000
1000
0000
0000
0000
0100
0000
0000
0010
0000
0000
0100
0000
,
0000
0001
0010
0100
,
1001
0000
0000
0000
,
1000
0000
0001
0001
0000
0000
0000
0000
,
0001
0000
1000
1000
0000
0000
0000
0000
,
0100
0000
0010
0010
0000
0000
0000
0000
,
0010
0000
0100
0100
0000
0000
0000
0000
,
1000
0100
0001
0100
,
1000
0100
0010
0100
,
2002
0000
0000
0000
3003
0000
0200
0020
,
0000
0000
0000
0330
,
1000
0000
0000
0000
0010
0000
0100
0000
0001
0000
0000
0001
0000
0000
0001
0000
,
0100
0000
0000
0000
0010
0000
0100
0000
1000
0000
0000
1000
0000
0000
1000
0000
,
0010
0000
0000
0000
0100
0000
1000
0000
0001
0000
0000
0001
0000
0000
0001
0000
,
1000
0100
0010
0001
,
1001
0000
0000
0000
0010
0000
0001
0000
0100
0000
0000
0100
0000
0000
0100
0000
,
0010
0000
0000
0000
1000
0000
0100
0000
0010
0000
0000
0010
0000
0000
0010
0000
,
0001
0000
0000
0000
0100
0000
0000
0000
0001
0000
0000
0100
0000
0000
0010
0000
,
1000
0000
0000
0100
0000
0000
0010
0000
0000
0001
0000
0000
0001
0000
0002
0000
,
0000
0000
0000
0003
,
1001
0000
0000
0000
0010
0000
0000
0100
0000
0000
0100
0000
0010
0000
0000
0000
,
1000
0000
0000
0000
0010
0000
0000
0100
0000
0000
0100
0000
0010
0000
0000
0000
,
0001
0000
0000
0000
0100
0000
0000
0010
0000
0000
0010
0000
1000
0000
0000
0000
,
0001
0000
0100
0000
1000
0100
0001
0000
,
0110
0000
0000
0000
0100
0000
0000
0010
0000
0000
0010
0000
0100
0000
0000
0000
,
1000
0000
0000
0000
0001
0000
0000
1000
0000
0000
1000
0000
0001
0000
0000
0000
,
0100
0000
0000
0000
0001
0000
0000
0100
0000
0000
0100
0000
1000
0000
0000
0000
,
0001
0010
0100
1000
0000
0001
1000
0000
,
0001
0001
0001
0001
,
0100
0000
0100
0000
0100
0000
0010
0100
,
1000
0000
1000
0000
1000
0000
1000
0100
,
0010
0000
0010
0001
0010
0000
0100
0000
,
0110
0000
1000
0000
0100
0000
0010
0001
,
0000
0010
0100
0000
1000
0000
1000
0000
,
0001
0000
0100
0000
0010
0000
1000
0100
,
0000
0000
0100
0000
1000
0000
0000
0000
0001
0000
0000
0010
0000
0000
0100
0000
,
0000
0001
0010
0100
,
2000
0000
0000
0000
,
3000
0001
0100
0010
,
2000
0000
0002
3003
,
0001
0010
0001
0000
0100
0000
0010
0100
,
0000
0100
0000
1000
0100
1000
0100
0000
,
0001
0010
0001
0000
0001
0000
0100
0010
,
0000
0010
0000
1000
0010
1000
0010
0000
,
1001
0000
0110
0000
,
1001
0000
1100
0000
,
0022
0000
0000
0030
,
0200
0000
0000
0303
,
0001
0000
0100
0000
0010
0000
1000
0100
,
0000
0010
0000
0001
0010
0000
0010
0000
,
0100
0000
0010
0000
1000
0000
0100
0010
,
0000
0010
0000
0001
0100
0000
0110
0000
,
0001
0000
0000
0010
0000
0000
0100
0000
2000
0000
0000
0000
0000
0000
0000
0000
,
0000
0000
0000
3001
,
0220
0000
0000
0000
,
0000
0000
0000
0000
,
0000
0000
0000
0000
,
0330
0000
0000
0000
0000
0000
0000
0000
0010
0000
0000
0100
0000
0000
1001
0000
;

//--------------- dance-single - DJSuperNOVA ----------------
#NOTES:
     dance-single:
     DJSuperNOVA:
     Hard:
     12:
     0,0,0,0,0:
0000
0000
0000
0000
,
0100
1000
0100
0010
0000
0000
0000
0000
,
0010
0000
0001
0000
0010
0000
0100
0000
1000
0000
0000
0100
0000
0000
1000
0000
,
0100
0000
0010
0000
0100
0000
1000
0000
0001
0000
0000
0010
0000
0000
0100
0000
,
0010
0000
0001
0000
0010
0000
0100
0000
0010
0000
0000
0100
0000
0000
0010
0000
,
0001
0010
0100
1000
0000
0000
0000
0000
,
1001
0000
0100
0000
0010
0000
0100
0000
1000
0000
0000
0001
0000
0000
1000
0000
,
0010
0000
0100
0000
0001
0000
0100
0000
0010
0000
0000
0100
0000
0000
1000
0000
,
0100
0000
0010
0000
0100
0000
1000
0000
0001
0000
0000
0100
0000
0000
0010
0000
,
0001
0000
1000
0100
0000
0010
0002
0000
0000
0000
0000
0000
1003
0000
0000
0000
,
1001
0000
0000
0000
0100
0000
0000
0010
0001
0000
0100
0000
0010
0000
0000
0000
,
1000
0000
0000
0000
0001
0000
0000
1000
0010
0000
1000
0000
0100
0000
0000
0000
,
0010
0000
0000
0000
0001
0000
0000
0100
0001
0000
0100
0000
0010
0000
0000
0000
,
1000
0000
0100
0000
0010
0000
0001
0000
1000
0000
0000
0100
0000
0000
0010
0000
,
0001
0000
0000
0000
1000
0000
0000
1000
0010
0000
0100
0000
0001
0000
0000
0000
,
1000
0000
0000
0000
0010
0000
0000
0010
1000
0000
0100
0000
0010
0000
0000
0000
,
0100
0000
0000
0000
0001
0000
0000
0100
1000
0000
0100
0000
1000
0000
0000
0000
,
0001
0100
0010
1000
0000
0100
0010
0000
,
1001
0000
0000
0000
0101
0000
0000
0000
1001
0000
0000
0000
0001
0100
0001
0100
,
0001
0000
0000
0000
1100
0000
0000
0000
1001
0000
0000
0000
1000
0100
1000
0100
,
1000
0000
1001
0000
0011
0000
1000
0001
,
0200
0000
0020
0330
,
1000
0100
0001
1000
0010
0001
0010
0001
,
0000
0100
0010
0000
0100
0010
1000
0000
,
0001
0100
1000
0001
0010
1000
0010
1000
,
0000
0000
0001
0000
0100
0000
0000
0000
0110
0000
0000
1001
0000
0000
0210
0000
,
0000
0010
0010
0310
,
0110
0000
0000
0000
,
1000
0100
0010
0001
0000
0000
0000
0000
,
1000
0100
0010
0001
0000
0000
0000
0000
,
0001
0010
0100
1000
0000
0000
0000
0000
,
0001
0000
0100
0010
0000
0010
1000
0000
0000
0000
0000
0000
0000
0000
0000
0000
,
0001
0000
0001
0000
0001
0000
0001
0100
,
0010
0010
0010
1000
,
0220
0000
0000
0000
0330
0000
1001
2002
,
0000
0000
0000
3003
,
0001
0000
0100
0000
0010
0000
1000
0000
0001
0000
0000
1000
0000
0000
0001
0000
,
1000
0000
0010
0000
0100
0000
0001
0000
1000
0000
0000
0001
0000
0000
1000
0000
,
0001
0000
0010
0000
0100
0000
1000
0000
0010
0000
0000
0010
0000
0000
0010
0000
,
1000
0100
0010
0001
1000
0010
0100
0001
,
1000
0000
0010
0000
0100
0000
0001
0000
1000
0000
0000
0001
0000
0000
1000
0000
,
0001
0000
0100
0000
0010
0000
1000
0000
0001
0000
0000
1000
0000
0000
0001
0000
,
1000
0000
0100
0000
0010
0000
0001
0000
0100
0000
0000
0010
0000
0000
0100
0000
,
0010
0000
1000
0010
0000
0100
0010
0000
0000
0100
0000
0000
0200
0000
0020
0000
,
0000
0000
0000
0330
,
1001
0000
0000
0000
0100
0000
0000
0010
0001
0000
0100
0000
0010
0000
0000
0000
,
1000
0000
0000
0000
0001
0000
0000
1000
0010
0000
1000
0000
0100
0000
0000
0000
,
0010
0000
0000
0000
0001
0000
0000
0100
0001
0000
0100
0000
0010
0000
0000
0000
,
1000
0100
0010
0001
1000
0010
0100
0001
,
1001
0000
0000
0000
1000
0000
0000
0100
0010
0000
0100
0000
0001
0000
0000
0000
,
1000
0000
0000
0000
0010
0000
0000
0100
1000
0000
0100
0000
0010
0000
0000
0000
,
0100
0000
0000
0000
0001
0000
0000
0010
1000
0000
0100
0000
1000
0000
0000
0000
,
0001
0100
0010
1000
0000
0100
0010
0000
,
1001
0000
0000
0000
0101
0000
0000
0000
1001
0000
0000
0000
0001
0100
0001
0100
,
0001
0000
0000
0000
1100
0000
0000
0000
1001
0000
0000
0000
1000
0100
1000
0100
,
1000
0000
1001
0000
0011
0000
1000
0001
,
0200
0000
0020
0330
,
1000
0100
0001
1000
0010
0001
0010
0001
,
0000
0100
0010
1000
0100
0010
1000
0010
,
1000
0100
1000
0001
0010
1000
0010
1000
,
0000
0000
0001
0000
0100
0000
0000
0000
0110
0000
0000
1001
0000
0000
0210
0000
,
0000
0001
0310
2000
,
0002
0000
0000
3003
,
2000
0010
3100
0002
,
0200
0000
0000
0303
,
1000
0100
0001
0100
0010
0100
1000
0001
,
0000
0100
0000
0100
0010
0001
0010
0100
,
0001
0100
1000
0000
0100
0001
1000
0001
,
0000
0001
0100
0010
0100
1000
0100
0010
,
0001
0000
0000
0001
0010
0100
1000
0000
0000
1000
0100
0010
,
0001
0000
0000
1000
0100
1000
0100
0010
0100
0010
0001
0010
,
0002
0000
0000
0000
,
2000
0000
0000
3003
,
0001
0100
0010
1000
0100
0010
0100
1000
,
0010
0100
0001
0100
0010
0100
0010
1000
,
0001
0100
0010
1000
0001
0010
0001
0010
,
0100
1000
0100
0010
1000
0100
1000
0100
,
0100
0000
0000
0010
0000
0000
0001
0000
2002
0000
0000
0000
0000
0000
0000
0000
,
0000
0000
3003
1100
,
0012
1000
0100
1000
,
0010
1000
0100
1000
,
0010
1000
0100
1000
,
0013
0000
0000
0000
1000
0000
0000
0000
0010
0000
0000
0100
0000
0000
1001
0000
;
